999
DXF file: 1130822-7.dxf
999
Pro/ENGINEER 2009220 by Parametric Technology Corporation
  0
SECTION
  2
HEADER
  9
$EXTMAX
 10
44.0
 20
34.0
 30
0.0
  9
$EXTMIN
 10
0.0
 20
0.0
 30
0.0
  9
$LIMMIN
 10
0.0
 20
0.0
  9
$LIMMAX
 10
44.0
 20
34.0
  9
$VIEWCTR
 10
22.0
 20
17.0
  9
$VIEWSIZE
 40
34.0
  9
$CLAYER
  8
0
  9
$LTSCALE
 40
2.42
  9
$CELTYPE
  6
BYLAYER
  9
$DIMSCALE
 40
1.0
  9
$DIMASZ
 40
0.1875
  9
$DIMEXO
 40
0.275
  9
$DIMDLI
 40
1.672
  9
$DIMEXE
 40
0.792
  9
$DIMCEN
 40
0.396
  9
$DIMLFAC
 40
1.0
  9
$DIMBLK
  1
_FILLED
  9
$DIMTXT
 40
0.15625
  9
$PDMODE
 70
3
  9
$PDSIZE
 40
0.3125
  9
$TILEMODE
 70
1
  0
ENDSEC
  0
SECTION
  2
TABLES
  0
TABLE
  2
LTYPE
 70
6
  0
LTYPE
  2
BYBLOCK
 70
0
  3

 72
65
 73
0
 40
0.0
  0
LTYPE
  2
BYLAYER
 70
0
  3

 72
65
 73
0
 40
0.0
  0
LTYPE
  2
CONTINUOUS
 70
64
  3
Solid line
 72
65
 73
0
 40
0.0
  0
LTYPE
  2
CENTER
 70
64
  3
____ _ ____ _ ____ _ ____ _ ____ _ ____ _ ____
 72
65
 73
4
 40
0.6
 49
0.375
 49
-0.075
 49
0.075
 49
-0.075
  0
LTYPE
  2
HIDDEN
 70
64
  3
- - - - - - - - - - - - - - - - - - - -
 72
65
 73
2
 40
0.2
 49
0.1
 49
-0.1
  0
LTYPE
  2
PHANTOM
 70
64
  3
_____ _ _ _____ _ _ _____ _ _ _____
 72
65
 73
6
 40
0.8
 49
0.45
 49
-0.05
 49
0.1
 49
-0.05
 49
0.1
 49
-0.05
  0
LTYPE
  2
DOT
 70
64
  3
. . . . . . . . . . . . . . . . . . . .
 72
65
 73
2
 40
0.2
 49
0.1
 49
-0.1
  0
LTYPE
  2
DASHED
 70
64
  3
- - - - - - - - - - - - - - - - - - - -
 72
65
 73
2
 40
0.2
 49
0.1
 49
-0.1
  0
ENDTAB
  0
TABLE
  2
LAYER
 70
36
  0
LAYER
  2
0
 70
0
 62
7
  6
CONTINUOUS
  0
LAYER
  2
DEFAULT_1
 70
0
 62
7
  6
CENTER
  0
LAYER
  2
DEFAULT_2
 70
0
 62
8
  6
HIDDEN
  0
LAYER
  2
DEFAULT_3
 70
0
 62
7
  6
PHANTOM
  0
LAYER
  2
DATUMS
 70
0
 62
7
  6
CONTINUOUS
  0
LAYER
  2
DATUM_AXIS
 70
0
 62
7
  6
CONTINUOUS
  0
LAYER
  2
DATUM_CSYS
 70
0
 62
7
  6
CONTINUOUS
  0
LAYER
  2
DATUM_PLANE
 70
0
 62
7
  6
CONTINUOUS
  0
LAYER
  2
DATUM_POINT
 70
0
 62
7
  6
CONTINUOUS
  0
LAYER
  2
_CURVE
 70
0
 62
7
  6
CONTINUOUS
  0
LAYER
  2
_SURFACE
 70
0
 62
7
  6
CONTINUOUS
  0
LAYER
  2
__REF_CURVE
 70
0
 62
7
  6
CONTINUOUS
  0
LAYER
  2
__REF_SURFACE
 70
0
 62
7
  6
CONTINUOUS
  0
LAYER
  2
___NOTE
 70
0
 62
7
  6
CONTINUOUS
  0
LAYER
  2
___SYMBOL
 70
0
 62
7
  6
CONTINUOUS
  0
ENDTAB
  0
TABLE
  2
STYLE
 70
1
  0
STYLE
  2
STANDARD
 70
0
 40
0.0
 41
0.8
 50
0.0
 71
0
 42
0.2
  3
txt
  4

  0
STYLE
  2
TEXTSTYLE_1
 70
0
 40
0.0
 41
0.8
 50
0.0
 71
0
 42
0.2
  3
gdt
  4

  0
STYLE
  2
TEXTSTYLE_2
 70
0
 40
0.0
 41
1.0
 50
0.0
 71
0
 42
0.2
  3
txt
  4

  0
ENDTAB
  0
ENDSEC
  0
SECTION
  2
BLOCKS
  0
BLOCK
  8
___SYMBOL
 62
2
  6
CONTINUOUS
  2
SKU_SINK_KOHLER_BL2
 70
64
 10
14.8077047958
 20
23.2984174638
  0
LINE
  8
___SYMBOL
 62
2
  6
CONTINUOUS
 10
11.3338831661
 20
25.1341170929
 11
11.1205797142
 21
24.8804688199
  0
LINE
  8
___SYMBOL
 62
2
  6
CONTINUOUS
 10
11.141821354
 20
25.1341170929
 11
11.3338831661
 21
25.1341170929
  0
LINE
  8
___SYMBOL
 62
2
  6
CONTINUOUS
 10
11.141821354
 20
25.1341170929
 11
11.0040571873
 21
24.9702959032
  0
LINE
  8
___SYMBOL
 62
2
  6
CONTINUOUS
 10
11.0040571873
 20
25.1341170929
 11
11.0040571873
 21
24.9702959032
  0
LINE
  8
___SYMBOL
 62
2
  6
CONTINUOUS
 10
10.8295569604
 20
25.1341170929
 11
11.0040571873
 21
25.1341170929
  0
LINE
  8
___SYMBOL
 62
2
  6
CONTINUOUS
 10
10.8295569604
 20
25.1341170929
 11
10.8295569604
 21
24.54817944
  0
LINE
  8
___SYMBOL
 62
2
  6
CONTINUOUS
 10
11.0040571873
 20
24.5482034435
 11
10.8295569604
 21
24.54817944
  0
LINE
  8
___SYMBOL
 62
2
  6
CONTINUOUS
 10
11.0040571873
 20
24.7497032775
 11
11.0040571873
 21
24.5482034435
  0
LINE
  8
___SYMBOL
 62
2
  6
CONTINUOUS
 10
11.1577951274
 20
24.5482034435
 11
11.0040571873
 21
24.7497032775
  0
LINE
  8
___SYMBOL
 62
2
  6
CONTINUOUS
 10
11.1577951274
 20
24.5482034435
 11
11.3740875489
 21
24.5482034435
  0
LINE
  8
___SYMBOL
 62
2
  6
CONTINUOUS
 10
11.3740875489
 20
24.5482034435
 11
11.1205797142
 21
24.8804688199
  0
SOLID
  8
___SYMBOL
 62
2
  6
CONTINUOUS
 10
11.0040571873
 20
24.9702959032
 11
11.141821354
 21
25.1341170929
 12
11.3338831661
 22
25.1341170929
 13
11.3338831661
 23
25.1341170929
  0
SOLID
  8
___SYMBOL
 62
2
  6
CONTINUOUS
 10
11.3338831661
 20
25.1341170929
 11
11.1205797142
 21
24.8804688199
 12
11.0040571873
 22
24.9702959032
 13
11.0040571873
 23
24.9702959032
  0
SOLID
  8
___SYMBOL
 62
2
  6
CONTINUOUS
 10
11.0040571873
 20
24.7497032775
 11
11.1205797142
 21
24.8804688199
 12
11.1577951274
 22
24.5482034435
 13
11.1577951274
 23
24.5482034435
  0
SOLID
  8
___SYMBOL
 62
2
  6
CONTINUOUS
 10
11.1205797142
 20
24.8804688199
 11
11.3740875489
 21
24.5482034435
 12
11.1577951274
 22
24.5482034435
 13
11.1577951274
 23
24.5482034435
  0
SOLID
  8
___SYMBOL
 62
2
  6
CONTINUOUS
 10
11.0040571873
 20
24.5482034435
 11
10.8295569604
 21
24.54817944
 12
11.0040571873
 22
24.7497032775
 13
11.0040571873
 23
24.7497032775
  0
SOLID
  8
___SYMBOL
 62
2
  6
CONTINUOUS
 10
11.1205797142
 20
24.8804688199
 11
11.0040571873
 21
24.7497032775
 12
11.0040571873
 22
24.9702959032
 13
11.0040571873
 23
24.9702959032
  0
SOLID
  8
___SYMBOL
 62
2
  6
CONTINUOUS
 10
11.0040571873
 20
24.7497032775
 11
10.8295569604
 21
24.54817944
 12
11.0040571873
 22
24.9702959032
 13
11.0040571873
 23
24.9702959032
  0
SOLID
  8
___SYMBOL
 62
2
  6
CONTINUOUS
 10
11.0040571873
 20
24.9702959032
 11
10.8295569604
 21
24.54817944
 12
11.0040571873
 22
25.1341170929
 13
11.0040571873
 23
25.1341170929
  0
SOLID
  8
___SYMBOL
 62
2
  6
CONTINUOUS
 10
10.8295569604
 20
24.54817944
 11
10.8295569604
 21
25.1341170929
 12
11.0040571873
 22
25.1341170929
 13
11.0040571873
 23
25.1341170929
  0
CIRCLE
  8
___SYMBOL
 62
2
  6
CONTINUOUS
 10
11.5505963856
 20
24.8400390163
 40
0.298056591
  0
CIRCLE
  8
___SYMBOL
 62
2
  6
CONTINUOUS
 10
11.5505963856
 20
24.8400390163
 40
0.1247694151
  0
SOLID
  8
___SYMBOL
 62
2
  6
CONTINUOUS
 10
11.4584918337
 20
25.1235076794
 11
11.5194409881
 21
25.1364628221
 12
11.581751783
 22
25.1364628221
 13
11.581751783
 23
25.1364628221
  0
SOLID
  8
___SYMBOL
 62
2
  6
CONTINUOUS
 10
11.581751783
 20
25.1364628221
 11
11.6427009375
 21
25.1235076794
 12
11.4584918337
 22
25.1235076794
 13
11.4584918337
 23
25.1235076794
  0
SOLID
  8
___SYMBOL
 62
2
  6
CONTINUOUS
 10
11.4015680901
 20
25.0981635959
 11
11.4584918337
 21
25.1235076794
 12
11.6427009375
 22
25.1235076794
 13
11.6427009375
 23
25.1235076794
  0
SOLID
  8
___SYMBOL
 62
2
  6
CONTINUOUS
 10
11.6427009375
 20
25.1235076794
 11
11.6996246811
 21
25.0981635959
 12
11.4015680901
 22
25.0981635959
 13
11.4015680901
 23
25.0981635959
  0
SOLID
  8
___SYMBOL
 62
2
  6
CONTINUOUS
 10
11.3511575981
 20
25.0615382296
 11
11.4015680901
 21
25.0981635959
 12
11.6996246811
 22
25.0981635959
 13
11.6996246811
 23
25.0981635959
  0
SOLID
  8
___SYMBOL
 62
2
  6
CONTINUOUS
 10
11.6996246811
 20
25.0981635959
 11
11.750035173
 21
25.0615382296
 12
11.3511575981
 22
25.0615382296
 13
11.3511575981
 23
25.0615382296
  0
SOLID
  8
___SYMBOL
 62
2
  6
CONTINUOUS
 10
11.3094635382
 20
25.0152322849
 11
11.3511575981
 21
25.0615382296
 12
11.750035173
 22
25.0615382296
 13
11.750035173
 23
25.0615382296
  0
SOLID
  8
___SYMBOL
 62
2
  6
CONTINUOUS
 10
11.750035173
 20
25.0615382296
 11
11.791729233
 21
25.0152322849
 12
11.3094635382
 22
25.0152322849
 13
11.3094635382
 23
25.0152322849
  0
SOLID
  8
___SYMBOL
 62
2
  6
CONTINUOUS
 10
11.5505963856
 20
24.9648084314
 11
11.2783081407
 21
24.9612695536
 12
11.791729233
 22
25.0152322849
 13
11.791729233
 23
25.0152322849
  0
SOLID
  8
___SYMBOL
 62
2
  6
CONTINUOUS
 10
11.2783081407
 20
24.9612695536
 11
11.3094635382
 21
25.0152322849
 12
11.791729233
 22
25.0152322849
 13
11.791729233
 23
25.0152322849
  0
SOLID
  8
___SYMBOL
 62
2
  6
CONTINUOUS
 10
11.791729233
 20
25.0152322849
 11
11.8228846304
 21
24.9612695536
 12
11.5505963856
 22
24.9648084314
 13
11.5505963856
 23
24.9648084314
  0
SOLID
  8
___SYMBOL
 62
2
  6
CONTINUOUS
 10
11.5505963856
 20
24.9648084314
 11
11.5120405159
 21
24.9587017816
 12
11.2783081407
 22
24.9612695536
 13
11.2783081407
 23
24.9612695536
  0
SOLID
  8
___SYMBOL
 62
2
  6
CONTINUOUS
 10
11.5891522552
 20
24.9587017816
 11
11.5505963856
 21
24.9648084314
 12
11.8228846304
 22
24.9612695536
 13
11.8228846304
 23
24.9612695536
  0
SOLID
  8
___SYMBOL
 62
2
  6
CONTINUOUS
 10
11.4496558084
 20
24.9133766385
 11
11.2590530462
 21
24.9020084661
 12
11.4772587634
 22
24.9409795935
 13
11.4772587634
 23
24.9409795935
  0
SOLID
  8
___SYMBOL
 62
2
  6
CONTINUOUS
 10
11.4772587634
 20
24.9409795935
 11
11.2590530462
 21
24.9020084661
 12
11.5120405159
 22
24.9587017816
 13
11.5120405159
 23
24.9587017816
  0
SOLID
  8
___SYMBOL
 62
2
  6
CONTINUOUS
 10
11.2590530462
 20
24.9020084661
 11
11.2783081407
 21
24.9612695536
 12
11.5120405159
 22
24.9587017816
 13
11.5120405159
 23
24.9587017816
  0
SOLID
  8
___SYMBOL
 62
2
  6
CONTINUOUS
 10
11.5891522552
 20
24.9587017816
 11
11.8228846304
 21
24.9612695536
 12
11.6239340077
 22
24.9409795935
 13
11.6239340077
 23
24.9409795935
  0
SOLID
  8
___SYMBOL
 62
2
  6
CONTINUOUS
 10
11.6239340077
 20
24.9409795935
 11
11.8228846304
 21
24.9612695536
 12
11.6515369627
 22
24.9133766385
 13
11.6515369627
 23
24.9133766385
  0
SOLID
  8
___SYMBOL
 62
2
  6
CONTINUOUS
 10
11.8228846304
 20
24.9612695536
 11
11.8421397249
 21
24.9020084661
 12
11.6515369627
 22
24.9133766385
 13
11.6515369627
 23
24.9133766385
  0
SOLID
  8
___SYMBOL
 62
2
  6
CONTINUOUS
 10
11.4496558084
 20
24.9133766385
 11
11.4319336203
 21
24.878594886
 12
11.2590530462
 22
24.9020084661
 13
11.2590530462
 23
24.9020084661
  0
SOLID
  8
___SYMBOL
 62
2
  6
CONTINUOUS
 10
11.6692591508
 20
24.878594886
 11
11.6515369627
 21
24.9133766385
 12
11.8421397249
 22
24.9020084661
 13
11.8421397249
 23
24.9020084661
  0
SOLID
  8
___SYMBOL
 62
2
  6
CONTINUOUS
 10
11.2525397946
 20
24.8400390163
 11
11.2590530462
 21
24.9020084661
 12
11.4319336203
 22
24.878594886
 13
11.4319336203
 23
24.878594886
  0
SOLID
  8
___SYMBOL
 62
2
  6
CONTINUOUS
 10
11.4319336203
 20
24.878594886
 11
11.4258269705
 21
24.8400390163
 12
11.2525397946
 22
24.8400390163
 13
11.2525397946
 23
24.8400390163
  0
SOLID
  8
___SYMBOL
 62
2
  6
CONTINUOUS
 10
11.6692591508
 20
24.878594886
 11
11.8421397249
 21
24.9020084661
 12
11.6753658006
 22
24.8400390163
 13
11.6753658006
 23
24.8400390163
  0
SOLID
  8
___SYMBOL
 62
2
  6
CONTINUOUS
 10
11.8421397249
 20
24.9020084661
 11
11.8486529766
 21
24.8400390163
 12
11.6753658006
 22
24.8400390163
 13
11.6753658006
 23
24.8400390163
  0
SOLID
  8
___SYMBOL
 62
2
  6
CONTINUOUS
 10
11.6692591508
 20
24.8014831467
 11
11.6753658006
 21
24.8400390163
 12
11.8486529766
 22
24.8400390163
 13
11.8486529766
 23
24.8400390163
  0
SOLID
  8
___SYMBOL
 62
2
  6
CONTINUOUS
 10
11.4319336203
 20
24.8014831467
 11
11.2590530462
 21
24.7780695665
 12
11.4258269705
 22
24.8400390163
 13
11.4258269705
 23
24.8400390163
  0
SOLID
  8
___SYMBOL
 62
2
  6
CONTINUOUS
 10
11.2590530462
 20
24.7780695665
 11
11.2525397946
 21
24.8400390163
 12
11.4258269705
 22
24.8400390163
 13
11.4258269705
 23
24.8400390163
  0
SOLID
  8
___SYMBOL
 62
2
  6
CONTINUOUS
 10
11.8486529766
 20
24.8400390163
 11
11.8421397249
 21
24.7780695665
 12
11.6692591508
 22
24.8014831467
 13
11.6692591508
 23
24.8014831467
  0
SOLID
  8
___SYMBOL
 62
2
  6
CONTINUOUS
 10
11.4319336203
 20
24.8014831467
 11
11.4496558084
 21
24.7667013942
 12
11.2590530462
 22
24.7780695665
 13
11.2590530462
 23
24.7780695665
  0
SOLID
  8
___SYMBOL
 62
2
  6
CONTINUOUS
 10
11.6515369627
 20
24.7667013942
 11
11.6692591508
 21
24.8014831467
 12
11.8421397249
 22
24.7780695665
 13
11.8421397249
 23
24.7780695665
  0
SOLID
  8
___SYMBOL
 62
2
  6
CONTINUOUS
 10
11.5120405159
 20
24.7213762511
 11
11.2783081407
 21
24.7188084791
 12
11.4772587634
 22
24.7390984392
 13
11.4772587634
 23
24.7390984392
  0
SOLID
  8
___SYMBOL
 62
2
  6
CONTINUOUS
 10
11.4772587634
 20
24.7390984392
 11
11.2783081407
 21
24.7188084791
 12
11.4496558084
 22
24.7667013942
 13
11.4496558084
 23
24.7667013942
  0
SOLID
  8
___SYMBOL
 62
2
  6
CONTINUOUS
 10
11.2783081407
 20
24.7188084791
 11
11.2590530462
 21
24.7780695665
 12
11.4496558084
 22
24.7667013942
 13
11.4496558084
 23
24.7667013942
  0
SOLID
  8
___SYMBOL
 62
2
  6
CONTINUOUS
 10
11.6515369627
 20
24.7667013942
 11
11.8421397249
 21
24.7780695665
 12
11.6239340077
 22
24.7390984392
 13
11.6239340077
 23
24.7390984392
  0
SOLID
  8
___SYMBOL
 62
2
  6
CONTINUOUS
 10
11.6239340077
 20
24.7390984392
 11
11.8421397249
 21
24.7780695665
 12
11.5891522552
 22
24.7213762511
 13
11.5891522552
 23
24.7213762511
  0
SOLID
  8
___SYMBOL
 62
2
  6
CONTINUOUS
 10
11.8421397249
 20
24.7780695665
 11
11.8228846304
 21
24.7188084791
 12
11.5891522552
 22
24.7213762511
 13
11.5891522552
 23
24.7213762511
  0
SOLID
  8
___SYMBOL
 62
2
  6
CONTINUOUS
 10
11.5120405159
 20
24.7213762511
 11
11.5505963856
 21
24.7152696013
 12
11.2783081407
 22
24.7188084791
 13
11.2783081407
 23
24.7188084791
  0
SOLID
  8
___SYMBOL
 62
2
  6
CONTINUOUS
 10
11.5505963856
 20
24.7152696013
 11
11.5891522552
 21
24.7213762511
 12
11.8228846304
 22
24.7188084791
 13
11.8228846304
 23
24.7188084791
  0
SOLID
  8
___SYMBOL
 62
2
  6
CONTINUOUS
 10
11.3094635382
 20
24.6648457478
 11
11.2783081407
 21
24.7188084791
 12
11.5505963856
 22
24.7152696013
 13
11.5505963856
 23
24.7152696013
  0
SOLID
  8
___SYMBOL
 62
2
  6
CONTINUOUS
 10
11.5505963856
 20
24.7152696013
 11
11.8228846304
 21
24.7188084791
 12
11.3094635382
 22
24.6648457478
 13
11.3094635382
 23
24.6648457478
  0
SOLID
  8
___SYMBOL
 62
2
  6
CONTINUOUS
 10
11.8228846304
 20
24.7188084791
 11
11.791729233
 21
24.6648457478
 12
11.3094635382
 22
24.6648457478
 13
11.3094635382
 23
24.6648457478
  0
SOLID
  8
___SYMBOL
 62
2
  6
CONTINUOUS
 10
11.3511575981
 20
24.618539803
 11
11.3094635382
 21
24.6648457478
 12
11.791729233
 22
24.6648457478
 13
11.791729233
 23
24.6648457478
  0
SOLID
  8
___SYMBOL
 62
2
  6
CONTINUOUS
 10
11.791729233
 20
24.6648457478
 11
11.750035173
 21
24.618539803
 12
11.3511575981
 22
24.618539803
 13
11.3511575981
 23
24.618539803
  0
SOLID
  8
___SYMBOL
 62
2
  6
CONTINUOUS
 10
11.4015680901
 20
24.5819144368
 11
11.3511575981
 21
24.618539803
 12
11.750035173
 22
24.618539803
 13
11.750035173
 23
24.618539803
  0
SOLID
  8
___SYMBOL
 62
2
  6
CONTINUOUS
 10
11.750035173
 20
24.618539803
 11
11.6996246811
 21
24.5819144368
 12
11.4015680901
 22
24.5819144368
 13
11.4015680901
 23
24.5819144368
  0
SOLID
  8
___SYMBOL
 62
2
  6
CONTINUOUS
 10
11.4584918337
 20
24.5565703532
 11
11.4015680901
 21
24.5819144368
 12
11.6996246811
 22
24.5819144368
 13
11.6996246811
 23
24.5819144368
  0
SOLID
  8
___SYMBOL
 62
2
  6
CONTINUOUS
 10
11.6996246811
 20
24.5819144368
 11
11.6427009375
 21
24.5565703532
 12
11.4584918337
 22
24.5565703532
 13
11.4584918337
 23
24.5565703532
  0
SOLID
  8
___SYMBOL
 62
2
  6
CONTINUOUS
 10
11.5194409881
 20
24.5436152105
 11
11.4584918337
 21
24.5565703532
 12
11.6427009375
 22
24.5565703532
 13
11.6427009375
 23
24.5565703532
  0
SOLID
  8
___SYMBOL
 62
2
  6
CONTINUOUS
 10
11.6427009375
 20
24.5565703532
 11
11.581751783
 21
24.5436152105
 12
11.5194409881
 22
24.5436152105
 13
11.5194409881
 23
24.5436152105
  0
LINE
  8
___SYMBOL
 62
2
  6
CONTINUOUS
 10
12.3432323948
 20
25.1341170929
 11
12.3432323948
 21
24.5482034435
  0
LINE
  8
___SYMBOL
 62
2
  6
CONTINUOUS
 10
12.3432323948
 20
24.5482034435
 11
12.1784987149
 21
24.5482034435
  0
LINE
  8
___SYMBOL
 62
2
  6
CONTINUOUS
 10
12.1784987149
 20
24.7765280533
 11
12.1784987149
 21
24.5482034435
  0
LINE
  8
___SYMBOL
 62
2
  6
CONTINUOUS
 10
12.0305019038
 20
24.7765280533
 11
12.1784987149
 21
24.7765280533
  0
LINE
  8
___SYMBOL
 62
2
  6
CONTINUOUS
 10
12.0305019038
 20
24.7765280533
 11
12.0305019038
 21
24.5482034435
  0
LINE
  8
___SYMBOL
 62
2
  6
CONTINUOUS
 10
12.0305019038
 20
24.5482034435
 11
11.865768224
 21
24.5482034435
  0
LINE
  8
___SYMBOL
 62
2
  6
CONTINUOUS
 10
11.865768224
 20
25.1341170929
 11
11.865768224
 21
24.5482034435
  0
LINE
  8
___SYMBOL
 62
2
  6
CONTINUOUS
 10
11.865768224
 20
25.1341170929
 11
12.0305019038
 21
25.1341170929
  0
LINE
  8
___SYMBOL
 62
2
  6
CONTINUOUS
 10
12.0305019038
 20
25.1341170929
 11
12.0305019038
 21
24.9137333332
  0
LINE
  8
___SYMBOL
 62
2
  6
CONTINUOUS
 10
12.0305019038
 20
24.9137333332
 11
12.1784987149
 21
24.9137333332
  0
LINE
  8
___SYMBOL
 62
2
  6
CONTINUOUS
 10
12.1784987149
 20
25.1341170929
 11
12.1784987149
 21
24.9137333332
  0
LINE
  8
___SYMBOL
 62
2
  6
CONTINUOUS
 10
12.1784987149
 20
25.1341170929
 11
12.3432323948
 21
25.1341170929
  0
SOLID
  8
___SYMBOL
 62
2
  6
CONTINUOUS
 10
12.1784987149
 20
24.9137333332
 11
12.1784987149
 21
25.1341170929
 12
12.3432323948
 22
25.1341170929
 13
12.3432323948
 23
25.1341170929
  0
SOLID
  8
___SYMBOL
 62
2
  6
CONTINUOUS
 10
12.1784987149
 20
24.9137333332
 11
12.0305019038
 21
24.7765280533
 12
12.0305019038
 22
24.9137333332
 13
12.0305019038
 23
24.9137333332
  0
SOLID
  8
___SYMBOL
 62
2
  6
CONTINUOUS
 10
12.0305019038
 20
24.7765280533
 11
11.865768224
 21
24.5482034435
 12
12.0305019038
 22
24.9137333332
 13
12.0305019038
 23
24.9137333332
  0
SOLID
  8
___SYMBOL
 62
2
  6
CONTINUOUS
 10
12.0305019038
 20
24.9137333332
 11
11.865768224
 21
24.5482034435
 12
12.0305019038
 22
25.1341170929
 13
12.0305019038
 23
25.1341170929
  0
SOLID
  8
___SYMBOL
 62
2
  6
CONTINUOUS
 10
11.865768224
 20
24.5482034435
 11
11.865768224
 21
25.1341170929
 12
12.0305019038
 22
25.1341170929
 13
12.0305019038
 23
25.1341170929
  0
SOLID
  8
___SYMBOL
 62
2
  6
CONTINUOUS
 10
12.0305019038
 20
24.7765280533
 11
12.0305019038
 21
24.5482034435
 12
11.865768224
 22
24.5482034435
 13
11.865768224
 23
24.5482034435
  0
SOLID
  8
___SYMBOL
 62
2
  6
CONTINUOUS
 10
12.0305019038
 20
24.7765280533
 11
12.1784987149
 21
24.9137333332
 12
12.1784987149
 22
24.7765280533
 13
12.1784987149
 23
24.7765280533
  0
SOLID
  8
___SYMBOL
 62
2
  6
CONTINUOUS
 10
12.1784987149
 20
24.9137333332
 11
12.3432323948
 21
25.1341170929
 12
12.1784987149
 22
24.7765280533
 13
12.1784987149
 23
24.7765280533
  0
SOLID
  8
___SYMBOL
 62
2
  6
CONTINUOUS
 10
12.1784987149
 20
24.7765280533
 11
12.3432323948
 21
25.1341170929
 12
12.1784987149
 22
24.5482034435
 13
12.1784987149
 23
24.5482034435
  0
SOLID
  8
___SYMBOL
 62
2
  6
CONTINUOUS
 10
12.3432323948
 20
25.1341170929
 11
12.3432323948
 21
24.5482034435
 12
12.1784987149
 22
24.5482034435
 13
12.1784987149
 23
24.5482034435
  0
LINE
  8
___SYMBOL
 62
2
  6
CONTINUOUS
 10
12.5383233017
 20
24.5482034435
 11
12.7010073717
 21
24.5482034435
  0
LINE
  8
___SYMBOL
 62
2
  6
CONTINUOUS
 10
12.5383233017
 20
24.5482034435
 11
12.388277239
 21
24.5482034435
  0
LINE
  8
___SYMBOL
 62
2
  6
CONTINUOUS
 10
12.388277239
 20
24.5482034435
 11
12.388277239
 21
25.1341170929
  0
LINE
  8
___SYMBOL
 62
2
  6
CONTINUOUS
 10
12.388277239
 20
25.1341170929
 11
12.5383233017
 21
25.1341170929
  0
LINE
  8
___SYMBOL
 62
2
  6
CONTINUOUS
 10
12.5383233017
 20
25.1341170929
 11
12.5383233017
 21
24.6894302007
  0
LINE
  8
___SYMBOL
 62
2
  6
CONTINUOUS
 10
12.5383233017
 20
24.6894302007
 11
12.7010073717
 21
24.6894302007
  0
LINE
  8
___SYMBOL
 62
2
  6
CONTINUOUS
 10
12.7010073717
 20
24.6894302007
 11
12.7010073717
 21
24.5482034435
  0
SOLID
  8
___SYMBOL
 62
2
  6
CONTINUOUS
 10
12.7010073717
 20
24.6894302007
 11
12.388277239
 21
24.5482034435
 12
12.5383233017
 22
24.6894302007
 13
12.5383233017
 23
24.6894302007
  0
SOLID
  8
___SYMBOL
 62
2
  6
CONTINUOUS
 10
12.5383233017
 20
24.6894302007
 11
12.388277239
 21
24.5482034435
 12
12.5383233017
 22
25.1341170929
 13
12.5383233017
 23
25.1341170929
  0
SOLID
  8
___SYMBOL
 62
2
  6
CONTINUOUS
 10
12.388277239
 20
24.5482034435
 11
12.388277239
 21
25.1341170929
 12
12.5383233017
 22
25.1341170929
 13
12.5383233017
 23
25.1341170929
  0
SOLID
  8
___SYMBOL
 62
2
  6
CONTINUOUS
 10
12.388277239
 20
24.5482034435
 11
12.7010073717
 21
24.6894302007
 12
12.5383233017
 22
24.5482034435
 13
12.5383233017
 23
24.5482034435
  0
SOLID
  8
___SYMBOL
 62
2
  6
CONTINUOUS
 10
12.7010073717
 20
24.6894302007
 11
12.7010073717
 21
24.5482034435
 12
12.5383233017
 22
24.5482034435
 13
12.5383233017
 23
24.5482034435
  0
LINE
  8
___SYMBOL
 62
2
  6
CONTINUOUS
 10
13.0392592857
 20
24.7693517317
 11
13.0392592857
 21
24.9137333332
  0
LINE
  8
___SYMBOL
 62
2
  6
CONTINUOUS
 10
12.8884017623
 20
24.9137333332
 11
13.0392592857
 21
24.9137333332
  0
LINE
  8
___SYMBOL
 62
2
  6
CONTINUOUS
 10
12.8884017623
 20
24.9913576961
 11
12.8884017623
 21
24.9137333332
  0
LINE
  8
___SYMBOL
 62
2
  6
CONTINUOUS
 10
12.8884017623
 20
24.9913576961
 11
13.0392592857
 21
24.9913576961
  0
LINE
  8
___SYMBOL
 62
2
  6
CONTINUOUS
 10
13.0392592857
 20
24.9913576961
 11
13.0392592857
 21
25.1341170929
  0
LINE
  8
___SYMBOL
 62
2
  6
CONTINUOUS
 10
12.9026060857
 20
25.1341170929
 11
13.0392592857
 21
25.1341170929
  0
LINE
  8
___SYMBOL
 62
2
  6
CONTINUOUS
 10
12.7301551104
 20
25.1341170929
 11
12.9026060857
 21
25.1341170929
  0
LINE
  8
___SYMBOL
 62
2
  6
CONTINUOUS
 10
12.7301551104
 20
24.5482034435
 11
12.7301551104
 21
25.1341170929
  0
LINE
  8
___SYMBOL
 62
2
  6
CONTINUOUS
 10
12.7301551104
 20
24.5482034435
 11
13.0392592857
 21
24.5482034435
  0
LINE
  8
___SYMBOL
 62
2
  6
CONTINUOUS
 10
13.0392592857
 20
24.5482034435
 11
13.0392592857
 21
24.6894302007
  0
LINE
  8
___SYMBOL
 62
2
  6
CONTINUOUS
 10
12.8884017623
 20
24.6894302007
 11
13.0392592857
 21
24.6894302007
  0
LINE
  8
___SYMBOL
 62
2
  6
CONTINUOUS
 10
12.8884017623
 20
24.7693517317
 11
12.8884017623
 21
24.6894302007
  0
LINE
  8
___SYMBOL
 62
2
  6
CONTINUOUS
 10
12.8884017623
 20
24.7693517317
 11
13.0392592857
 21
24.7693517317
  0
SOLID
  8
___SYMBOL
 62
2
  6
CONTINUOUS
 10
13.0392592857
 20
25.1341170929
 11
13.0392592857
 21
24.9913576961
 12
12.8884017623
 22
24.9913576961
 13
12.8884017623
 23
24.9913576961
  0
SOLID
  8
___SYMBOL
 62
2
  6
CONTINUOUS
 10
13.0392592857
 20
24.9137333332
 11
13.0392592857
 21
24.7693517317
 12
12.8884017623
 22
24.7693517317
 13
12.8884017623
 23
24.7693517317
  0
SOLID
  8
___SYMBOL
 62
2
  6
CONTINUOUS
 10
13.0392592857
 20
24.6894302007
 11
12.7301551104
 21
24.5482034435
 12
12.8884017623
 22
24.6894302007
 13
12.8884017623
 23
24.6894302007
  0
SOLID
  8
___SYMBOL
 62
2
  6
CONTINUOUS
 10
12.8884017623
 20
24.6894302007
 11
12.7301551104
 21
24.5482034435
 12
12.8884017623
 22
24.7693517317
 13
12.8884017623
 23
24.7693517317
  0
SOLID
  8
___SYMBOL
 62
2
  6
CONTINUOUS
 10
13.0392592857
 20
24.9137333332
 11
12.8884017623
 21
24.7693517317
 12
12.8884017623
 22
24.9137333332
 13
12.8884017623
 23
24.9137333332
  0
SOLID
  8
___SYMBOL
 62
2
  6
CONTINUOUS
 10
12.8884017623
 20
24.7693517317
 11
12.7301551104
 21
24.5482034435
 12
12.8884017623
 22
24.9137333332
 13
12.8884017623
 23
24.9137333332
  0
SOLID
  8
___SYMBOL
 62
2
  6
CONTINUOUS
 10
12.8884017623
 20
24.9137333332
 11
12.7301551104
 21
24.5482034435
 12
12.8884017623
 22
24.9913576961
 13
12.8884017623
 23
24.9913576961
  0
SOLID
  8
___SYMBOL
 62
2
  6
CONTINUOUS
 10
13.0392592857
 20
25.1341170929
 11
12.8884017623
 21
24.9913576961
 12
12.9026060857
 22
25.1341170929
 13
12.9026060857
 23
25.1341170929
  0
SOLID
  8
___SYMBOL
 62
2
  6
CONTINUOUS
 10
12.8884017623
 20
24.9913576961
 11
12.7301551104
 21
24.5482034435
 12
12.9026060857
 22
25.1341170929
 13
12.9026060857
 23
25.1341170929
  0
SOLID
  8
___SYMBOL
 62
2
  6
CONTINUOUS
 10
12.7301551104
 20
24.5482034435
 11
12.7301551104
 21
25.1341170929
 12
12.9026060857
 22
25.1341170929
 13
12.9026060857
 23
25.1341170929
  0
SOLID
  8
___SYMBOL
 62
2
  6
CONTINUOUS
 10
13.0392592857
 20
24.6894302007
 11
13.0392592857
 21
24.5482034435
 12
12.7301551104
 22
24.5482034435
 13
12.7301551104
 23
24.5482034435
  0
LINE
  8
___SYMBOL
 62
2
  6
CONTINUOUS
 10
13.5495096917
 20
24.5482034435
 11
13.3900664487
 21
24.7997859848
  0
ARC
  8
___SYMBOL
 62
2
  6
CONTINUOUS
 10
13.3176272011
 20
24.9591075822
 40
0.1750166163
 50
294.4500166359
 51
90.0
  0
LINE
  8
___SYMBOL
 62
2
  6
CONTINUOUS
 10
13.0840795004
 20
25.1341170929
 11
13.3176272011
 21
25.1341170929
  0
LINE
  8
___SYMBOL
 62
2
  6
CONTINUOUS
 10
13.0840795004
 20
24.5482034435
 11
13.0840795004
 21
25.1341170929
  0
LINE
  8
___SYMBOL
 62
2
  6
CONTINUOUS
 10
13.0840795004
 20
24.5482034435
 11
13.234735323
 21
24.5482034435
  0
LINE
  8
___SYMBOL
 62
2
  6
CONTINUOUS
 10
13.234735323
 20
24.7451598143
 11
13.234735323
 21
24.5482034435
  0
LINE
  8
___SYMBOL
 62
2
  6
CONTINUOUS
 10
13.3595587521
 20
24.5482034435
 11
13.234735323
 21
24.7451598143
  0
LINE
  8
___SYMBOL
 62
2
  6
CONTINUOUS
 10
13.3595587521
 20
24.5482034435
 11
13.5495096917
 21
24.5482034435
  0
LINE
  8
___SYMBOL
 62
2
  6
CONTINUOUS
 10
13.234735323
 20
24.884435125
 11
13.2870750732
 21
24.884435125
  0
ARC
  8
___SYMBOL
 62
2
  6
CONTINUOUS
 10
13.2906651025
 20
24.9379265245
 40
0.053611735
 50
266.1604009902
 51
89.9998910512
  0
LINE
  8
___SYMBOL
 62
2
  6
CONTINUOUS
 10
13.2906652044
 20
24.9915382595
 11
13.234735323
 21
24.9915382595
  0
LINE
  8
___SYMBOL
 62
2
  6
CONTINUOUS
 10
13.234735323
 20
24.9915382595
 11
13.234735323
 21
24.884435125
  0
SOLID
  8
___SYMBOL
 62
2
  6
CONTINUOUS
 10
13.3176272011
 20
25.1341241985
 11
13.3645602246
 21
25.1277139501
 12
13.0840795004
 22
25.1341170929
 13
13.0840795004
 23
25.1341170929
  0
SOLID
  8
___SYMBOL
 62
2
  6
CONTINUOUS
 10
13.234735323
 20
24.9915382595
 11
13.4886750641
 21
24.9961675951
 12
13.2906652044
 22
24.9915382595
 13
13.2906652044
 23
24.9915382595
  0
SOLID
  8
___SYMBOL
 62
2
  6
CONTINUOUS
 10
13.2906652044
 20
24.9915382595
 11
13.4886750641
 21
24.9961675951
 12
13.314387786
 22
24.9860040912
 13
13.314387786
 23
24.9860040912
  0
SOLID
  8
___SYMBOL
 62
2
  6
CONTINUOUS
 10
13.314387786
 20
24.9860040912
 11
13.4886750641
 21
24.9961675951
 12
13.3332127737
 22
24.9705442162
 13
13.3332127737
 23
24.9705442162
  0
SOLID
  8
___SYMBOL
 62
2
  6
CONTINUOUS
 10
13.4886750641
 20
24.9961675951
 11
13.4923483105
 21
24.9489414662
 12
13.3332127737
 22
24.9705442162
 13
13.3332127737
 23
24.9705442162
  0
SOLID
  8
___SYMBOL
 62
2
  6
CONTINUOUS
 10
13.3432537123
 20
24.9483503555
 11
13.3332127737
 21
24.9705442162
 12
13.4923483105
 22
24.9489414662
 13
13.4923483105
 23
24.9489414662
  0
SOLID
  8
___SYMBOL
 62
2
  6
CONTINUOUS
 10
13.3432537123
 20
24.9483503555
 11
13.4923483105
 21
24.9489414662
 12
13.3424376306
 22
24.9240044748
 13
13.3424376306
 23
24.9240044748
  0
SOLID
  8
___SYMBOL
 62
2
  6
CONTINUOUS
 10
13.3424376306
 20
24.9240044748
 11
13.4923483105
 21
24.9489414662
 12
13.3309330102
 22
24.9025328282
 13
13.3309330102
 23
24.9025328282
  0
SOLID
  8
___SYMBOL
 62
2
  6
CONTINUOUS
 10
13.4923483105
 20
24.9489414662
 11
13.4832227068
 21
24.9024600362
 12
13.3309330102
 22
24.9025328282
 13
13.3309330102
 23
24.9025328282
  0
SOLID
  8
___SYMBOL
 62
2
  6
CONTINUOUS
 10
13.3111150024
 20
24.8883682788
 11
13.3309330102
 21
24.9025328282
 12
13.4832227068
 22
24.9024600362
 13
13.4832227068
 23
24.9024600362
  0
SOLID
  8
___SYMBOL
 62
2
  6
CONTINUOUS
 10
13.3111150024
 20
24.8883682788
 11
13.4832227068
 21
24.9024600362
 12
13.2870750732
 22
24.884435125
 13
13.2870750732
 23
24.884435125
  0
SOLID
  8
___SYMBOL
 62
2
  6
CONTINUOUS
 10
13.4832227068
 20
24.9024600362
 11
13.4619667311
 21
24.8601282103
 12
13.2870750732
 22
24.884435125
 13
13.2870750732
 23
24.884435125
  0
SOLID
  8
___SYMBOL
 62
2
  6
CONTINUOUS
 10
13.3900664487
 20
24.7997859848
 11
13.234735323
 21
24.7451598143
 12
13.430137448
 22
24.825046923
 13
13.430137448
 23
24.825046923
  0
SOLID
  8
___SYMBOL
 62
2
  6
CONTINUOUS
 10
13.430137448
 20
24.825046923
 11
13.234735323
 21
24.7451598143
 12
13.4619667311
 22
24.8601282103
 13
13.4619667311
 23
24.8601282103
  0
SOLID
  8
___SYMBOL
 62
2
  6
CONTINUOUS
 10
13.4619667311
 20
24.8601282103
 11
13.234735323
 21
24.7451598143
 12
13.2870750732
 22
24.884435125
 13
13.2870750732
 23
24.884435125
  0
SOLID
  8
___SYMBOL
 62
2
  6
CONTINUOUS
 10
13.234735323
 20
24.7451598143
 11
13.0840795004
 21
24.5482034435
 12
13.2870750732
 22
24.884435125
 13
13.2870750732
 23
24.884435125
  0
SOLID
  8
___SYMBOL
 62
2
  6
CONTINUOUS
 10
13.2870750732
 20
24.884435125
 11
13.0840795004
 21
24.5482034435
 12
13.234735323
 22
24.884435125
 13
13.234735323
 23
24.884435125
  0
SOLID
  8
___SYMBOL
 62
2
  6
CONTINUOUS
 10
13.234735323
 20
24.884435125
 11
13.0840795004
 21
24.5482034435
 12
13.234735323
 22
24.9915382595
 13
13.234735323
 23
24.9915382595
  0
SOLID
  8
___SYMBOL
 62
2
  6
CONTINUOUS
 10
13.4886750641
 20
24.9961675951
 11
13.234735323
 21
24.9915382595
 12
13.4724720439
 22
25.0406789658
 13
13.4724720439
 23
25.0406789658
  0
SOLID
  8
___SYMBOL
 62
2
  6
CONTINUOUS
 10
13.4724720439
 20
25.0406789658
 11
13.234735323
 21
24.9915382595
 12
13.4449261704
 22
25.0792149857
 13
13.4449261704
 23
25.0792149857
  0
SOLID
  8
___SYMBOL
 62
2
  6
CONTINUOUS
 10
13.4449261704
 20
25.0792149857
 11
13.234735323
 21
24.9915382595
 12
13.4080552621
 22
25.1089527748
 13
13.4080552621
 23
25.1089527748
  0
SOLID
  8
___SYMBOL
 62
2
  6
CONTINUOUS
 10
13.4080552621
 20
25.1089527748
 11
13.234735323
 21
24.9915382595
 12
13.3645602246
 22
25.1277139501
 13
13.3645602246
 23
25.1277139501
  0
SOLID
  8
___SYMBOL
 62
2
  6
CONTINUOUS
 10
13.3645602246
 20
25.1277139501
 11
13.234735323
 21
24.9915382595
 12
13.0840795004
 22
25.1341170929
 13
13.0840795004
 23
25.1341170929
  0
SOLID
  8
___SYMBOL
 62
2
  6
CONTINUOUS
 10
13.0840795004
 20
24.5482034435
 11
13.0840795004
 21
25.1341170929
 12
13.234735323
 22
24.9915382595
 13
13.234735323
 23
24.9915382595
  0
SOLID
  8
___SYMBOL
 62
2
  6
CONTINUOUS
 10
13.234735323
 20
24.7451598143
 11
13.234735323
 21
24.5482034435
 12
13.0840795004
 22
24.5482034435
 13
13.0840795004
 23
24.5482034435
  0
SOLID
  8
___SYMBOL
 62
2
  6
CONTINUOUS
 10
13.234735323
 20
24.7451598143
 11
13.3900664487
 21
24.7997859848
 12
13.3595587521
 22
24.5482034435
 13
13.3595587521
 23
24.5482034435
  0
SOLID
  8
___SYMBOL
 62
2
  6
CONTINUOUS
 10
13.3900664487
 20
24.7997859848
 11
13.5495096917
 21
24.5482034435
 12
13.3595587521
 22
24.5482034435
 13
13.3595587521
 23
24.5482034435
  0
CIRCLE
  8
___SYMBOL
 62
2
  6
CONTINUOUS
 10
13.6902796663
 20
24.5482034435
 40
0.0653578721
  0
LINE
  8
___SYMBOL
 62
2
  6
CONTINUOUS
 10
13.6859916431
 20
24.5476656941
 11
13.7178596558
 21
24.5153627527
  0
LINE
  8
___SYMBOL
 62
2
  6
CONTINUOUS
 10
13.6743936669
 20
24.5153627527
 11
13.6743936669
 21
24.5813289516
  0
LINE
  8
___SYMBOL
 62
2
  6
CONTINUOUS
 10
13.6743936669
 20
24.5813289516
 11
13.6986729999
 21
24.5813289516
  0
ARC
  8
___SYMBOL
 62
2
  6
CONTINUOUS
 10
13.6986729999
 20
24.564497502
 40
0.0168314496
 50
270.0
 51
90.0
  0
LINE
  8
___SYMBOL
 62
2
  6
CONTINUOUS
 10
13.6986729999
 20
24.5476656941
 11
13.6743936669
 21
24.5476656941
  0
TEXT
  8
___SYMBOL
 62
2
  6
CONTINUOUS
 10
10.8077047958
 20
24.0837393203
  7
STANDARD
 40
0.25
  1
CUT-OUT TEMPLATE
 41
0.8
 72
0
  0
TEXT
  8
___SYMBOL
 62
2
  6
CONTINUOUS
 10
10.8077047958
 20
23.7087393203
  7
STANDARD
 40
0.25
  1
SELF-RIMMING/UNDERCOUNTER SINK
 41
0.8
 72
0
  0
TEXT
  8
___SYMBOL
 62
2
  6
CONTINUOUS
 10
10.8077047958
 20
23.3337393203
  7
STANDARD
 40
0.25
  1
GABARIT DE DÉCOUPE
 41
0.8
 72
0
  0
TEXT
  8
___SYMBOL
 62
2
  6
CONTINUOUS
 10
10.8077047958
 20
22.9587393203
  7
STANDARD
 40
0.25
  1
ÉVIER À REBORD INTÉGRÉ/SOUS COMPTOIR
 41
0.8
 72
0
  0
TEXT
  8
___SYMBOL
 62
2
  6
CONTINUOUS
 10
10.8077047958
 20
22.5837393203
  7
STANDARD
 40
0.25
  1
PLANTILLA DE CORTE
 41
0.8
 72
0
  0
TEXT
  8
___SYMBOL
 62
2
  6
CONTINUOUS
 10
10.8077047958
 20
22.2087393203
  7
STANDARD
 40
0.25
  1
FREGADERO DE BORDE TERMINADO/INSTALACIÓN
 41
0.8
 72
0
  0
TEXT
  8
___SYMBOL
 62
2
  6
CONTINUOUS
 10
10.8077047958
 20
21.8337393203
  7
STANDARD
 40
0.25
  1
 BAJO CUBIERTA
 41
0.8
 72
0
  0
TEXT
  8
___SYMBOL
 62
2
  6
CONTINUOUS
 10
10.8077047958
 20
21.4587393203
  7
STANDARD
 40
0.25
  1
VAULT
 41
0.8
 72
0
  0
TEXT
  8
___SYMBOL
 62
2
  6
CONTINUOUS
 10
12.4077047958
 20
21.4587393203
  7
STANDARD
 40
0.25
  1
3822
 41
0.8
 72
0
  0
TEXT
  8
___SYMBOL
 62
2
  6
CONTINUOUS
 10
13.2077047958
 20
21.4587393203
  7
STANDARD
 40
0.25
  1
-**-
 41
0.8
 72
0
  0
TEXT
  8
___SYMBOL
 62
2
  6
CONTINUOUS
 10
14.0077047958
 20
21.4587393203
  7
STANDARD
 40
0.25
  1
-
 41
0.8
 72
0
  0
ENDBLK
  8
0
  6
BYBLOCK
 62
0
  0
BLOCK
  8
___SYMBOL
 62
2
  6
CONTINUOUS
  2
PLOTTING_TEMPLATE_NOTE_BL1
 70
64
 10
28.1464192051
 20
11.6576114654
  0
TEXT
  8
___SYMBOL
 62
2
  6
CONTINUOUS
 10
24.8339192051
 20
12.8685489654
  7
STANDARD
 40
0.15625
  1
WHEN PLOTTING TEMPLATE FULL SIZE:
 41
0.8
 72
0
  0
TEXT
  8
___SYMBOL
 62
2
  6
CONTINUOUS
 10
24.8339192051
 20
12.6341739654
  7
STANDARD
 40
0.15625
  1
Make sure horizontal and vertical dimensions
 41
0.8
 72
0
  0
TEXT
  8
___SYMBOL
 62
2
  6
CONTINUOUS
 10
24.8339192051
 20
12.3997989654
  7
STANDARD
 40
0.15625
  1
match the dimensions labeled on the template.
 41
0.8
 72
0
  0
TEXT
  8
___SYMBOL
 62
2
  6
CONTINUOUS
 10
24.8339192051
 20
11.9310489654
  7
STANDARD
 40
0.15625
  1
AL TRAZAR LA PLANTILLA A ESCALA,
 41
0.8
 72
0
  0
TEXT
  8
___SYMBOL
 62
2
  6
CONTINUOUS
 10
24.8339192051
 20
11.6966739654
  7
STANDARD
 40
0.15625
  1
asegúrese de que las dimensiones horizontales
 41
0.8
 72
0
  0
TEXT
  8
___SYMBOL
 62
2
  6
CONTINUOUS
 10
24.8339192051
 20
11.4622989654
  7
STANDARD
 40
0.15625
  1
y verticales concuerden con las dimensiones marcadas
 41
0.8
 72
0
  0
TEXT
  8
___SYMBOL
 62
2
  6
CONTINUOUS
 10
24.8339192051
 20
11.2279239654
  7
STANDARD
 40
0.15625
  1
en la plantilla.
 41
0.8
 72
0
  0
TEXT
  8
___SYMBOL
 62
2
  6
CONTINUOUS
 10
24.8339192051
 20
10.7591739654
  7
STANDARD
 40
0.15625
  1
AU MOMENT DE TRACER LA DÉCOUPE À L'ÉCHELLE,
 41
0.8
 72
0
  0
TEXT
  8
___SYMBOL
 62
2
  6
CONTINUOUS
 10
24.8339192051
 20
10.5247989654
  7
STANDARD
 40
0.15625
  1
Assurez vos que les dimensions horizotales et
 41
0.8
 72
0
  0
TEXT
  8
___SYMBOL
 62
2
  6
CONTINUOUS
 10
24.8339192051
 20
10.2904239654
  7
STANDARD
 40
0.15625
  1
verticales correspondent avec les dimensions du plan.
 41
0.8
 72
0
  0
ENDBLK
  8
0
  6
BYBLOCK
 62
0
  0
BLOCK
  8
___SYMBOL
 62
2
  6
CONTINUOUS
  2
COPYRIGHT_YEAR_BL0
 70
64
 10
31.5751567284
 20
9.2999411394
  0
CIRCLE
  8
___SYMBOL
 62
7
  6
CONTINUOUS
 10
31.1356743536
 20
9.3023887645
 40
0.0328259996
  0
TEXT
  8
___SYMBOL
 62
2
  6
CONTINUOUS
 10
31.2014651028
 20
9.2646675146
  7
STANDARD
 40
0.0705
  1
2009
 41
0.8
 72
0
  0
TEXT
  8
___SYMBOL
 62
2
  6
CONTINUOUS
 10
31.4270651028
 20
9.2646675146
  7
STANDARD
 40
0.0705
  1
 KOHLER CO.
 41
0.8
 72
0
  0
TEXT
  8
___SYMBOL
 62
2
  6
CONTINUOUS
 10
31.1214393537
 20
9.2811525148
  7
TEXTSTYLE_2
 40
0.0421874995
  1
C
 41
1.0
 72
0
  0
ENDBLK
  8
0
  6
BYBLOCK
 62
0
  0
BLOCK
  8
0
  2
_FILLED
 70
64
 10
0.0
 20
0.0
  0
SOLID
  8
0
  6
BYBLOCK
 62
0
 10
0.0
 20
0.0
 11
-1.0
 21
0.1666666667
 12
-1.0
 22
-0.1666666667
 13
-1.0
 23
-0.1666666667
  0
ENDBLK
  8
0
  6
BYBLOCK
 62
0
  0
BLOCK
  8
0
 62
2
  6
CONTINUOUS
  2
*D0
 70
65
 10
0.0
 20
0.0
  0
TEXT
  8
0
 62
2
  6
CONTINUOUS
 10
18.6990858155
 20
21.2842416903
  7
STANDARD
 40
0.15625
  1
21-1/2
 41
0.8
 72
1
 11
19.0740858155
 21
21.2842416903
  0
TEXT
  8
0
 62
2
  6
CONTINUOUS
 10
19.4490858155
 20
21.2842416903
  7
STANDARD
 40
0.15625
  1
"
 41
0.8
 72
1
 11
19.5115858155
 21
21.2842416903
  0
TEXT
  8
0
 62
2
  6
CONTINUOUS
 10
18.5115858155
 20
21.0498666903
  7
STANDARD
 40
0.15625
  1
[54,61 cm]
 41
0.8
 72
1
 11
19.1365858155
 21
21.0498666903
  0
TEXT
  8
0
 62
2
  6
CONTINUOUS
 10
18.3865858155
 20
20.8154916903
  7
STANDARD
 40
0.15625
  1
SELF RIMMING
 41
0.8
 72
1
 11
19.1365858155
 21
20.8154916903
  0
LINE
  8
0
 62
2
  6
CONTINUOUS
 10
19.0115858155
 20
29.4684003052
 11
19.2484212445
 21
29.4684003052
  0
LINE
  8
0
 62
2
  6
CONTINUOUS
 10
19.0115858155
 20
7.9684003052
 11
19.2728326327
 21
7.9684003052
  0
LINE
  8
0
 62
2
  6
CONTINUOUS
 10
19.1365858155
 20
29.4684003052
 11
19.1365858155
 21
21.5186166903
  0
LINE
  8
0
 62
2
  6
CONTINUOUS
 10
19.1365858155
 20
7.9684003052
 11
19.1365858155
 21
20.7373666903
  0
INSERT
  8
0
 62
2
  6
CONTINUOUS
  2
_FILLED
 10
19.1365858155
 20
29.4684003052
 41
0.1875
 42
0.1875
 43
0.1875
 50
90.0
  0
INSERT
  8
0
 62
2
  6
CONTINUOUS
  2
_FILLED
 10
19.1365858155
 20
7.9684003052
 41
0.1875
 42
0.1875
 43
0.1875
 50
270.0
  0
ENDBLK
  8
0
  6
BYBLOCK
 62
0
  0
BLOCK
  8
0
 62
2
  6
CONTINUOUS
  2
*D1
 70
65
 10
0.0
 20
0.0
  0
TEXT
  8
0
 62
2
  6
CONTINUOUS
 10
19.7083786152
 20
19.8518662358
  7
STANDARD
 40
0.15625
  1
16-9/16
 41
0.8
 72
1
 11
20.1458786152
 21
19.8518662358
  0
TEXT
  8
0
 62
2
  6
CONTINUOUS
 10
20.5833786152
 20
19.8518662358
  7
STANDARD
 40
0.15625
  1
"
 41
0.8
 72
1
 11
20.6458786152
 21
19.8518662358
  0
TEXT
  8
0
 62
2
  6
CONTINUOUS
 10
19.5833786152
 20
19.6174912358
  7
STANDARD
 40
0.15625
  1
[42,23 cm]
 41
0.8
 72
1
 11
20.2083786152
 21
19.6174912358
  0
TEXT
  8
0
 62
2
  6
CONTINUOUS
 10
19.4583786152
 20
19.3831162358
  7
STANDARD
 40
0.15625
  1
UNDERCOUNTER
 41
0.8
 72
1
 11
20.2083786152
 21
19.3831162358
  0
LINE
  8
0
 62
2
  6
CONTINUOUS
 10
20.12783756
 20
25.6434003052
 11
20.3333786152
 21
25.6434003052
  0
LINE
  8
0
 62
2
  6
CONTINUOUS
 10
19.9705117616
 20
9.0934003052
 11
20.3333786152
 21
9.0934003052
  0
LINE
  8
0
 62
2
  6
CONTINUOUS
 10
20.2083786152
 20
25.6434003052
 11
20.2083786152
 21
20.0862412358
  0
LINE
  8
0
 62
2
  6
CONTINUOUS
 10
20.2083786152
 20
9.0934003052
 11
20.2083786152
 21
19.3049912358
  0
INSERT
  8
0
 62
2
  6
CONTINUOUS
  2
_FILLED
 10
20.2083786152
 20
25.6434003052
 41
0.1875
 42
0.1875
 43
0.1875
 50
90.0
  0
INSERT
  8
0
 62
2
  6
CONTINUOUS
  2
_FILLED
 10
20.2083786152
 20
9.0934003052
 41
0.1875
 42
0.1875
 43
0.1875
 50
270.0
  0
ENDBLK
  8
0
  6
BYBLOCK
 62
0
  0
BLOCK
  8
0
 62
2
  6
CONTINUOUS
  2
*D2
 70
65
 10
0.0
 20
0.0
  0
TEXT
  8
0
 62
2
  6
CONTINUOUS
 10
15.0008348098
 20
17.9204224029
  7
STANDARD
 40
0.15625
  1
24-1/2
 41
0.8
 72
1
 11
15.3758348098
 21
17.9204224029
  0
TEXT
  8
0
 62
2
  6
CONTINUOUS
 10
15.7508348098
 20
17.9204224029
  7
STANDARD
 40
0.15625
  1
"
 41
0.8
 72
1
 11
15.8133348098
 21
17.9204224029
  0
TEXT
  8
0
 62
2
  6
CONTINUOUS
 10
14.8133348098
 20
17.6860474029
  7
STANDARD
 40
0.15625
  1
[62,23 cm]
 41
0.8
 72
1
 11
15.4383348098
 21
17.6860474029
  0
TEXT
  8
0
 62
2
  6
CONTINUOUS
 10
14.6883348098
 20
17.4516724029
  7
STANDARD
 40
0.15625
  1
SELF RIMMING
 41
0.8
 72
1
 11
15.4383348098
 21
17.4516724029
  0
LINE
  8
0
 62
2
  6
CONTINUOUS
 10
33.7590284842
 20
17.8735474029
 11
33.7590284842
 21
18.2219750897
  0
LINE
  8
0
 62
2
  6
CONTINUOUS
 10
9.2590284842
 20
17.8735474029
 11
9.2590284842
 21
18.2824023531
  0
LINE
  8
0
 62
2
  6
CONTINUOUS
 10
33.7590284842
 20
17.9985474029
 11
16.2664598098
 21
17.9985474029
  0
LINE
  8
0
 62
2
  6
CONTINUOUS
 10
9.2590284842
 20
17.9985474029
 11
14.6102098098
 21
17.9985474029
  0
INSERT
  8
0
 62
2
  6
CONTINUOUS
  2
_FILLED
 10
33.7590284842
 20
17.9985474029
 41
0.1875
 42
0.1875
 43
0.1875
  0
INSERT
  8
0
 62
2
  6
CONTINUOUS
  2
_FILLED
 10
9.2590284842
 20
17.9985474029
 41
0.1875
 42
0.1875
 43
0.1875
 50
180.0
  0
ENDBLK
  8
0
  6
BYBLOCK
 62
0
  0
BLOCK
  8
0
 62
2
  6
CONTINUOUS
  2
*D3
 70
65
 10
0.0
 20
0.0
  0
TEXT
  8
0
 62
2
  6
CONTINUOUS
 10
16.7040940052
 20
17.0722910909
  7
STANDARD
 40
0.15625
  1
22-1/4
 41
0.8
 72
1
 11
17.0790940052
 21
17.0722910909
  0
TEXT
  8
0
 62
2
  6
CONTINUOUS
 10
17.4540940052
 20
17.0722910909
  7
STANDARD
 40
0.15625
  1
"
 41
0.8
 72
1
 11
17.5165940052
 21
17.0722910909
  0
TEXT
  8
0
 62
2
  6
CONTINUOUS
 10
16.5165940052
 20
16.8379160909
  7
STANDARD
 40
0.15625
  1
[56,52 cm]
 41
0.8
 72
1
 11
17.1415940052
 21
16.8379160909
  0
TEXT
  8
0
 62
2
  6
CONTINUOUS
 10
16.3915940052
 20
16.6035410909
  7
STANDARD
 40
0.15625
  1
UNDERCOUNTER
 41
0.8
 72
1
 11
17.1415940052
 21
16.6035410909
  0
LINE
  8
0
 62
2
  6
CONTINUOUS
 10
32.6340284842
 20
17.0254160909
 11
32.6340284842
 21
17.3155261184
  0
LINE
  8
0
 62
2
  6
CONTINUOUS
 10
10.3840284842
 20
17.0254160909
 11
10.3840284842
 21
17.3854356861
  0
LINE
  8
0
 62
2
  6
CONTINUOUS
 10
32.6340284842
 20
17.1504160909
 11
17.9697190052
 21
17.1504160909
  0
LINE
  8
0
 62
2
  6
CONTINUOUS
 10
10.3840284842
 20
17.1504160909
 11
16.3134690052
 21
17.1504160909
  0
INSERT
  8
0
 62
2
  6
CONTINUOUS
  2
_FILLED
 10
32.6340284842
 20
17.1504160909
 41
0.1875
 42
0.1875
 43
0.1875
  0
INSERT
  8
0
 62
2
  6
CONTINUOUS
  2
_FILLED
 10
10.3840284842
 20
17.1504160909
 41
0.1875
 42
0.1875
 43
0.1875
 50
180.0
  0
ENDBLK
  8
0
  6
BYBLOCK
 62
0
  0
BLOCK
  8
0
 62
2
  6
CONTINUOUS
  2
*D4
 70
65
 10
0.0
 20
0.0
  0
TEXT
  8
0
 62
2
  6
CONTINUOUS
 10
31.7183059934
 20
28.5612445414
  7
STANDARD
 40
0.15625
  1
4X 
 41
0.8
 72
2
 11
32.0933059934
 21
28.5612445414
  0
TEXT
  8
0
 62
2
  6
CONTINUOUS
 10
32.0933059934
 20
28.5612445414
  7
STANDARD
 40
0.15625
  1
R
 41
0.8
 72
2
 11
32.2183059934
 21
28.5612445414
  0
TEXT
  8
0
 62
2
  6
CONTINUOUS
 10
32.2183059934
 20
28.5612445414
  7
STANDARD
 40
0.15625
  1
1/2
 41
0.8
 72
2
 11
32.5933059934
 21
28.5612445414
  0
TEXT
  8
0
 62
2
  6
CONTINUOUS
 10
32.5933059934
 20
28.5612445414
  7
STANDARD
 40
0.15625
  1
"
 41
0.8
 72
2
 11
32.7183059934
 21
28.5612445414
  0
TEXT
  8
0
 62
2
  6
CONTINUOUS
 10
31.7183059934
 20
28.3268695414
  7
STANDARD
 40
0.15625
  1
[1,27cm]
 41
0.8
 72
2
 11
32.7183059934
 21
28.3268695414
  0
LINE
  8
0
 62
2
  6
CONTINUOUS
 10
33.5900961255
 20
29.343092468
 11
32.9683059934
 21
28.6393695414
  0
LINE
  8
0
 62
2
  6
CONTINUOUS
 10
32.9683059934
 20
28.6393695414
 11
32.7964309934
 21
28.6393695414
  0
INSERT
  8
0
 62
2
  6
CONTINUOUS
  2
_FILLED
 10
33.5900961255
 20
29.343092468
 41
0.1875
 42
0.1875
 43
0.1875
 50
48.5370743945
  0
ENDBLK
  8
0
  6
BYBLOCK
 62
0
  0
BLOCK
  8
0
 62
2
  6
CONTINUOUS
  2
*D5
 70
65
 10
0.0
 20
0.0
  0
TEXT
  8
0
 62
2
  6
CONTINUOUS
 10
31.6745020382
 20
12.9360442231
  7
STANDARD
 40
0.15625
  1
1/4
 41
0.8
 72
2
 11
32.0495020382
 21
12.9360442231
  0
TEXT
  8
0
 62
2
  6
CONTINUOUS
 10
32.0495020382
 20
12.9360442231
  7
STANDARD
 40
0.15625
  1
"
 41
0.8
 72
2
 11
32.1745020382
 21
12.9360442231
  0
TEXT
  8
0
 62
2
  6
CONTINUOUS
 10
31.0495020382
 20
12.7016692231
  7
STANDARD
 40
0.15625
  1
(0,64 cm)
 41
0.8
 72
2
 11
32.1745020382
 21
12.7016692231
  0
LINE
  8
0
 62
2
  6
CONTINUOUS
 10
34.0090284842
 20
12.8891692231
 11
34.0090284842
 21
13.1784868571
  0
LINE
  8
0
 62
2
  6
CONTINUOUS
 10
33.7590284842
 20
12.8891692231
 11
33.7590284842
 21
13.1683778861
  0
LINE
  8
0
 62
2
  6
CONTINUOUS
 10
34.0090284842
 20
13.0141692231
 11
34.5090284842
 21
13.0141692231
  0
LINE
  8
0
 62
2
  6
CONTINUOUS
 10
33.7590284842
 20
13.0141692231
 11
32.2526270382
 21
13.0141692231
  0
INSERT
  8
0
 62
2
  6
CONTINUOUS
  2
_FILLED
 10
34.0090284842
 20
13.0141692231
 41
0.1875
 42
0.1875
 43
0.1875
 50
180.0
  0
INSERT
  8
0
 62
2
  6
CONTINUOUS
  2
_FILLED
 10
33.7590284842
 20
13.0141692231
 41
0.1875
 42
0.1875
 43
0.1875
  0
ENDBLK
  8
0
  6
BYBLOCK
 62
0
  0
BLOCK
  8
0
 62
2
  6
CONTINUOUS
  2
*D6
 70
65
 10
0.0
 20
0.0
  0
TEXT
  8
0
 62
2
  6
CONTINUOUS
 10
11.6642474918
 20
10.1370786357
  7
STANDARD
 40
0.15625
  1
4X 
 41
0.8
 72
0
  0
TEXT
  8
0
 62
2
  6
CONTINUOUS
 10
12.0392474918
 20
10.1370786357
  7
STANDARD
 40
0.15625
  1
R
 41
0.8
 72
0
  0
TEXT
  8
0
 62
2
  6
CONTINUOUS
 10
12.1642474918
 20
10.1370786357
  7
STANDARD
 40
0.15625
  1
1/2
 41
0.8
 72
0
  0
TEXT
  8
0
 62
2
  6
CONTINUOUS
 10
12.5392474918
 20
10.1370786357
  7
STANDARD
 40
0.15625
  1
"
 41
0.8
 72
0
  0
TEXT
  8
0
 62
2
  6
CONTINUOUS
 10
11.6642474918
 20
9.9027036357
  7
STANDARD
 40
0.15625
  1
[1,27cm]
 41
0.8
 72
0
  0
TEXT
  8
0
 62
2
  6
CONTINUOUS
 10
11.6642474918
 20
9.6683286357
  7
STANDARD
 40
0.15625
  1
 
 41
0.8
 72
0
  0
LINE
  8
0
 62
2
  6
CONTINUOUS
 10
10.5596057116
 20
9.2129402356
 11
11.4142474918
 21
10.2152036357
  0
LINE
  8
0
 62
2
  6
CONTINUOUS
 10
11.4142474918
 20
10.2152036357
 11
11.5861224918
 21
10.2152036357
  0
INSERT
  8
0
 62
2
  6
CONTINUOUS
  2
_FILLED
 10
10.5596057116
 20
9.2129402356
 41
0.1875
 42
0.1875
 43
0.1875
 50
229.5453826125
  0
ENDBLK
  8
0
  6
BYBLOCK
 62
0
  0
ENDSEC
  0
SECTION
  2
ENTITIES
  0
DIMENSION
  8
0
 62
2
  6
CONTINUOUS
  2
*D0
 10
19.1365858155
 20
7.9684003052
 11
18.5740858155
 21
21.1279916903
 70
128
 13
19.0115858155
 23
29.4684003052
 14
19.2728326327
 24
7.9684003052
 50
270.0
  0
DIMENSION
  8
0
 62
2
  6
CONTINUOUS
  2
*D1
 10
20.2083786152
 20
9.0934003052
 11
19.6771286152
 21
19.6956162358
 70
128
 13
20.3333786152
 23
25.6434003052
 14
19.9705117616
 24
9.0934003052
 50
270.0
  0
DIMENSION
  8
0
 62
2
  6
CONTINUOUS
  2
*D2
 10
9.2590284842
 20
17.9985474029
 11
14.8758348098
 21
17.7641724029
 70
128
 13
33.7590284842
 23
18.2219750897
 14
9.2590284842
 24
18.2824023531
 50
180.0
  0
DIMENSION
  8
0
 62
2
  6
CONTINUOUS
  2
*D3
 10
10.3840284842
 20
17.1504160909
 11
16.5790940052
 21
16.9160410909
 70
128
 13
32.6340284842
 23
17.3155261184
 14
10.3840284842
 24
17.3854356861
 50
180.0
  0
DIMENSION
  8
0
 62
2
  6
CONTINUOUS
  2
*D4
 10
33.2590284842
 20
28.9684003052
 11
31.6558059934
 21
28.5221820414
 70
132
 15
33.5900961255
 25
29.343092468
  0
DIMENSION
  8
0
 62
2
  6
CONTINUOUS
  2
*D5
 10
33.7590284842
 20
13.0141692231
 11
30.9870020382
 21
12.8969817231
 70
128
 13
34.0090284842
 23
13.1784868571
 14
33.7590284842
 24
13.1683778861
 50
180.0
  0
DIMENSION
  8
0
 62
2
  6
CONTINUOUS
  2
*D6
 10
10.8840284842
 20
9.5934003052
 11
12.1642474918
 21
10.0980161357
 70
132
 15
10.5596057116
 25
9.2129402356
  0
TEXT
  8
___NOTE
 62
2
  6
CONTINUOUS
 10
11.2548219694
 20
9.156192193
  7
STANDARD
 40
0.125
  1
1130822-7
 41
0.8
 72
0
  0
TEXT
  8
___NOTE
 62
2
  6
CONTINUOUS
 10
12.1548219694
 20
9.156192193
  7
STANDARD
 40
0.125
  1
-C
 41
0.8
 72
0
  0
TEXT
  8
___NOTE
 62
2
  6
CONTINUOUS
 10
10.881262792
 20
7.5312994116
  7
STANDARD
 40
0.125
  1
1130822-7
 41
0.8
 72
0
  0
TEXT
  8
___NOTE
 62
2
  6
CONTINUOUS
 10
11.781262792
 20
7.5312994116
  7
STANDARD
 40
0.125
  1
-C
 41
0.8
 72
0
  0
TEXT
  8
___NOTE
 62
2
  6
CONTINUOUS
 10
29.8714515132
 20
15.6072119036
  7
STANDARD
 40
0.15625
  1
RIM OF SINK
 41
0.8
 72
2
 11
31.2464515132
 21
15.6072119036
  0
TEXT
  8
___NOTE
 62
2
  6
CONTINUOUS
 10
29.1214515132
 20
15.3728369036
  7
STANDARD
 40
0.15625
  1
REBORD DE L'ÉVIER
 41
0.8
 72
2
 11
31.2464515132
 21
15.3728369036
  0
TEXT
  8
___NOTE
 62
2
  6
CONTINUOUS
 10
28.8714515132
 20
15.1384619036
  7
STANDARD
 40
0.15625
  1
BORDE DEL FREGADERO
 41
0.8
 72
2
 11
31.2464515132
 21
15.1384619036
  0
LINE
  8
___NOTE
 62
2
  6
CONTINUOUS
 10
34.0090284842
 20
17.0217584806
 11
31.4964515132
 21
15.6853369036
  0
LINE
  8
___NOTE
 62
2
  6
CONTINUOUS
 10
31.4964515132
 20
15.6853369036
 11
31.2464515132
 21
15.6853369036
  0
SOLID
  8
___NOTE
 62
2
  6
CONTINUOUS
 10
33.8581633243
 20
16.9061188852
 11
34.0090284842
 21
17.0217584806
 12
33.8288134642
 22
16.9612989152
 13
33.8288134642
 23
16.9612989152
  0
TEXT
  8
___NOTE
 62
2
  6
CONTINUOUS
 10
22.6874253517
 20
22.889860848
  7
STANDARD
 40
0.15625
  1
1-7/16" DIAMETER - STANDARD 3 HOLE FITTING
 41
0.8
 72
0
  0
TEXT
  8
___NOTE
 62
2
  6
CONTINUOUS
 10
22.6874253517
 20
22.655485848
  7
STANDARD
 40
0.15625
  1
(TO BE DRILLED IN COUNTERTOP FOR UNDERMOUNT INSTALLATION ONLY)
 41
0.8
 72
0
  0
TEXT
  8
___NOTE
 62
2
  6
CONTINUOUS
 10
22.6874253517
 20
22.421110848
  7
STANDARD
 40
0.15625
  1
3,7 cm DIAMÈTRE - RACCORD RÉGULIER À 3 TROUS
 41
0.8
 72
0
  0
TEXT
  8
___NOTE
 62
2
  6
CONTINUOUS
 10
22.6874253517
 20
22.186735848
  7
STANDARD
 40
0.15625
  1
(À PERCER DANS LE COMPTOIR POUR INSTALLATION PAR DESSOUS SEULEMENT)
 41
0.8
 72
0
  0
TEXT
  8
___NOTE
 62
2
  6
CONTINUOUS
 10
22.6874253517
 20
21.952360848
  7
STANDARD
 40
0.15625
  1
3,7 cm DIÁMETRO - CONEXIÓN ESTÁNDAR DE 3 ORIFICIOS
 41
0.8
 72
0
  0
TEXT
  8
___NOTE
 62
2
  6
CONTINUOUS
 10
22.6874253517
 20
21.717985848
  7
STANDARD
 40
0.15625
  1
(A TALADRAR EN LA CUBIERTA PARA INSTALACIÓN BAJO CUBIERTA SOLAMENTE)
 41
0.8
 72
0
  0
TEXT
  8
___NOTE
 62
2
  6
CONTINUOUS
 10
22.6874253517
 20
21.483610848
  7
STANDARD
 40
0.15625
  1
 
 41
0.8
 72
0
  0
TEXT
  8
___NOTE
 62
2
  6
CONTINUOUS
 10
22.6874253517
 20
21.249235848
  7
STANDARD
 40
0.15625
  1
 
 41
0.8
 72
0
  0
LINE
  8
___NOTE
 62
2
  6
CONTINUOUS
 10
17.9473367131
 20
26.6971859002
 11
22.092930828
 21
22.967985848
  0
LINE
  8
___NOTE
 62
2
  6
CONTINUOUS
 10
22.092930828
 20
22.967985848
 11
22.6874253517
 21
22.967985848
  0
SOLID
  8
___NOTE
 62
2
  6
CONTINUOUS
 10
18.1076345033
 20
26.5950221543
 11
17.9473367131
 21
26.6971859002
 12
18.06583557
 22
26.5485560465
 13
18.06583557
 23
26.5485560465
  0
LINE
  8
___NOTE
 62
2
  6
CONTINUOUS
 10
21.6953781967
 20
26.5729337103
 11
22.092930828
 21
22.967985848
  0
LINE
  8
___NOTE
 62
2
  6
CONTINUOUS
 10
22.092930828
 20
22.967985848
 11
22.6874253517
 21
22.967985848
  0
SOLID
  8
___NOTE
 62
2
  6
CONTINUOUS
 10
21.7469927341
 20
26.389989041
 11
21.6953781967
 21
26.5729337103
 12
21.6848693529
 22
26.383138092
 13
21.6848693529
 23
26.383138092
  0
LINE
  8
___NOTE
 62
2
  6
CONTINUOUS
 10
25.0707202553
 20
26.6971859002
 11
22.092930828
 21
22.967985848
  0
LINE
  8
___NOTE
 62
2
  6
CONTINUOUS
 10
22.092930828
 20
22.967985848
 11
22.6874253517
 21
22.967985848
  0
SOLID
  8
___NOTE
 62
2
  6
CONTINUOUS
 10
24.9781433733
 20
26.5311668247
 11
25.0707202553
 21
26.6971859002
 12
24.9293035046
 22
26.5701657635
 13
24.9293035046
 23
26.5701657635
  0
TEXT
  8
___NOTE
 62
2
  6
CONTINUOUS
 10
27.0869452236
 20
24.9002513714
  7
STANDARD
 40
0.15625
  1
1-7/16" DIAMETER - OPTIONAL FITTING HOLE
 41
0.8
 72
2
 11
32.0869452236
 21
24.9002513714
  0
TEXT
  8
___NOTE
 62
2
  6
CONTINUOUS
 10
24.3369452236
 20
24.6658763714
  7
STANDARD
 40
0.15625
  1
(TO BE DRILLED IN COUNTERTOP FOR UNDERMOUNT INSTALLATION ONLY)
 41
0.8
 72
2
 11
32.0869452236
 21
24.6658763714
  0
TEXT
  8
___NOTE
 62
2
  6
CONTINUOUS
 10
26.0869452236
 20
24.4315013714
  7
STANDARD
 40
0.15625
  1
3,7 cm DIÁMETRO - ORIFICIO DEL CONECTOR OPCIONAL
 41
0.8
 72
2
 11
32.0869452236
 21
24.4315013714
  0
TEXT
  8
___NOTE
 62
2
  6
CONTINUOUS
 10
23.7119452236
 20
24.1971263714
  7
STANDARD
 40
0.15625
  1
(À PERCER DANS LE COMPTOIR POUR INSTALLATION PAR DESSOUS SEULEMENT)
 41
0.8
 72
2
 11
32.0869452236
 21
24.1971263714
  0
TEXT
  8
___NOTE
 62
2
  6
CONTINUOUS
 10
26.3369452236
 20
23.9627513714
  7
STANDARD
 40
0.15625
  1
3,7 cm DIAMÈTRE - ORIFICE DU RACCORD OPTIONNEL
 41
0.8
 72
2
 11
32.0869452236
 21
23.9627513714
  0
TEXT
  8
___NOTE
 62
2
  6
CONTINUOUS
 10
23.5869452236
 20
23.7283763714
  7
STANDARD
 40
0.15625
  1
(A TALADRAR EN LA CUBIERTA PARA INSTALACIÓN BAJO CUBIERTA SOLAMENTE)
 41
0.8
 72
2
 11
32.0869452236
 21
23.7283763714
  0
LINE
  8
___NOTE
 62
2
  6
CONTINUOUS
 10
31.4473367131
 20
26.6971859002
 11
32.4570469802
 21
24.9783763714
  0
LINE
  8
___NOTE
 62
2
  6
CONTINUOUS
 10
32.4570469802
 20
24.9783763714
 11
32.0869452236
 21
24.9783763714
  0
SOLID
  8
___NOTE
 62
2
  6
CONTINUOUS
 10
31.5692530602
 20
26.5513462045
 11
31.4473367131
 21
26.6971859002
 12
31.5153636266
 22
26.5196889945
 13
31.5153636266
 23
26.5196889945
  0
TEXT
  8
___NOTE
 62
2
  6
CONTINUOUS
 10
25.8307981352
 20
19.647734855
  7
STANDARD
 40
0.15625
  1
FOR UNDERCOUNTER INSTALLATION CUT ALONG THIS LINE
 41
0.8
 72
2
 11
31.9557981352
 21
19.647734855
  0
TEXT
  8
___NOTE
 62
2
  6
CONTINUOUS
 10
24.0807981352
 20
19.413359855
  7
STANDARD
 40
0.15625
  1
POUR INSTALLATION SOUS COMPTOIR DÉCOUPER LE LONG DE CETTE LIGNE
 41
0.8
 72
2
 11
31.9557981352
 21
19.413359855
  0
TEXT
  8
___NOTE
 62
2
  6
CONTINUOUS
 10
25.4557981352
 20
19.178984855
  7
STANDARD
 40
0.15625
  1
PARA INSTALACIÓN BAJO CUBIERTA, CORTE POR ESTA LÍNEA
 41
0.8
 72
2
 11
31.9557981352
 21
19.178984855
  0
LINE
  8
___NOTE
 62
2
  6
CONTINUOUS
 10
32.6340284842
 20
20.0054796731
 11
32.2057981352
 21
19.725859855
  0
LINE
  8
___NOTE
 62
2
  6
CONTINUOUS
 10
32.2057981352
 20
19.725859855
 11
31.9557981352
 21
19.725859855
  0
SOLID
  8
___NOTE
 62
2
  6
CONTINUOUS
 10
32.4941188188
 20
19.8768013997
 11
32.6340284842
 21
20.0054796731
 12
32.4599480094
 22
19.9291330898
 13
32.4599480094
 23
19.9291330898
  0
TEXT
  8
___NOTE
 62
2
  6
CONTINUOUS
 10
25.2971535773
 20
14.2150229177
  7
STANDARD
 40
0.15625
  1
FOR SELF-RIMMING INSTALLATION CUT ALONG THIS LINE
 41
0.8
 72
2
 11
31.4221535773
 21
14.2150229177
  0
TEXT
  8
___NOTE
 62
2
  6
CONTINUOUS
 10
23.1721535773
 20
13.9806479177
  7
STANDARD
 40
0.15625
  1
POUR INSTALLATION À REBORD INTÉGRÉ DÉCOUPER LE LONG DE CETTE LIGNE
 41
0.8
 72
2
 11
31.4221535773
 21
13.9806479177
  0
TEXT
  8
___NOTE
 62
2
  6
CONTINUOUS
 10
24.2971535773
 20
13.7462729177
  7
STANDARD
 40
0.15625
  1
PARA INSTALACIÓN DE BORDE TERMINADO, CORTE POR ESTA LÍNEA
 41
0.8
 72
2
 11
31.4221535773
 21
13.7462729177
  0
LINE
  8
___NOTE
 62
2
  6
CONTINUOUS
 10
33.7590284842
 20
15.4361499275
 11
31.6721535773
 21
14.2931479177
  0
LINE
  8
___NOTE
 62
2
  6
CONTINUOUS
 10
31.6721535773
 20
14.2931479177
 11
31.4221535773
 21
14.2931479177
  0
SOLID
  8
___NOTE
 62
2
  6
CONTINUOUS
 10
33.6095909746
 20
15.3186712349
 11
33.7590284842
 21
15.4361499275
 12
33.5795674802
 22
15.3734876539
 13
33.5795674802
 23
15.3734876539
  0
INSERT
  8
___SYMBOL
 62
2
  6
CONTINUOUS
  2
COPYRIGHT_YEAR_BL0
 10
31.5751567284
 20
9.2999411394
  0
INSERT
  8
___SYMBOL
 62
2
  6
CONTINUOUS
  2
PLOTTING_TEMPLATE_NOTE_BL1
 10
28.1464192051
 20
11.6576114654
  0
INSERT
  8
___SYMBOL
 62
2
  6
CONTINUOUS
  2
SKU_SINK_KOHLER_BL2
 10
14.8077047958
 20
23.2984174638
  0
LINE
  8
DEFAULT_1
 62
2
  6
CENTER
 10
17.5090284842
 20
26.1309003052
 11
17.5090284842
 21
28.5059003052
  0
LINE
  8
DEFAULT_1
 62
2
  6
CENTER
 10
25.5090284842
 20
26.1309003052
 11
25.5090284842
 21
28.5059003052
  0
LINE
  8
DEFAULT_1
 62
2
  6
CENTER
 10
31.0090284842
 20
26.1309003052
 11
31.0090284842
 21
28.5059003052
  0
LINE
  8
DEFAULT_1
 62
2
  6
CENTER
 10
16.3215284842
 20
27.2684003052
 11
26.6965284842
 21
27.2684003052
  0
LINE
  8
DEFAULT_1
 62
2
  6
CENTER
 10
29.8215284842
 20
27.2684003052
 11
32.1965284842
 21
27.2684003052
  0
LINE
  8
_CURVE
 62
8
  6
HIDDEN
 10
9.0090284842
 20
29.4684003052
 11
9.0090284842
 21
7.9684003052
  0
LINE
  8
_CURVE
 62
7
  6
CONTINUOUS
 10
9.2590284842
 20
28.9684003052
 11
9.2590284842
 21
8.4684003052
  0
LINE
  8
_CURVE
 62
7
  6
CONTINUOUS
 10
10.3840284842
 20
9.5934003052
 11
10.3840284842
 21
25.1434003052
  0
LINE
  8
_CURVE
 62
8
  6
HIDDEN
 10
9.2590284842
 20
7.7184003052
 11
33.7590284842
 21
7.7184003052
  0
LINE
  8
_CURVE
 62
7
  6
CONTINUOUS
 10
9.7590284842
 20
7.9684003052
 11
33.2590284842
 21
7.9684003052
  0
LINE
  8
_CURVE
 62
7
  6
CONTINUOUS
 10
32.1340284842
 20
9.0934003052
 11
10.8840284842
 21
9.0934003052
  0
LINE
  8
_CURVE
 62
2
  6
CENTER
 10
21.5090284842
 20
30.7184003052
 11
21.5090284842
 21
6.7184003052
  0
LINE
  8
_CURVE
 62
2
  6
CENTER
 10
35.0090284842
 20
18.7184003052
 11
8.0090284842
 21
18.7184003052
  0
LINE
  8
_CURVE
 62
7
  6
CONTINUOUS
 10
10.8840284842
 20
25.6434003052
 11
32.1340284842
 21
25.6434003052
  0
LINE
  8
_CURVE
 62
7
  6
CONTINUOUS
 10
33.2590284842
 20
29.4684003052
 11
9.7590284842
 21
29.4684003052
  0
LINE
  8
_CURVE
 62
7
  6
CONTINUOUS
 10
32.6340284842
 20
25.1434003052
 11
32.6340284842
 21
9.5934003052
  0
LINE
  8
_CURVE
 62
8
  6
HIDDEN
 10
33.7590284842
 20
29.7184003052
 11
9.2590284842
 21
29.7184003052
  0
LINE
  8
_CURVE
 62
7
  6
CONTINUOUS
 10
33.7590284842
 20
8.4684003052
 11
33.7590284842
 21
28.9684003052
  0
LINE
  8
_CURVE
 62
8
  6
HIDDEN
 10
34.0090284842
 20
7.9684003052
 11
34.0090284842
 21
29.4684003052
  0
CIRCLE
  8
_CURVE
 62
7
  6
CONTINUOUS
 10
17.5090284842
 20
27.2684003052
 40
0.72
  0
CIRCLE
  8
_CURVE
 62
7
  6
CONTINUOUS
 10
21.5090284842
 20
27.2684003052
 40
0.72
  0
CIRCLE
  8
_CURVE
 62
7
  6
CONTINUOUS
 10
25.5090284842
 20
27.2684003052
 40
0.72
  0
CIRCLE
  8
_CURVE
 62
7
  6
CONTINUOUS
 10
31.0090284842
 20
27.2684003052
 40
0.72
  0
ARC
  8
_CURVE
 62
7
  6
CONTINUOUS
 10
10.8840284842
 20
25.1434003052
 40
0.5
 50
90.0
 51
180.0
  0
ARC
  8
_CURVE
 62
7
  6
CONTINUOUS
 10
10.8840284842
 20
9.5934003052
 40
0.5
 50
180.0
 51
270.0
  0
ARC
  8
_CURVE
 62
7
  6
CONTINUOUS
 10
32.1340284842
 20
9.5934003052
 40
0.5
 50
270.0
 51
360.0
  0
ARC
  8
_CURVE
 62
7
  6
CONTINUOUS
 10
32.1340284842
 20
25.1434003052
 40
0.5
 50
0.0
 51
90.0
  0
ARC
  8
_CURVE
 62
7
  6
CONTINUOUS
 10
9.7590284842
 20
28.9684003052
 40
0.5
 50
90.0
 51
180.0
  0
ARC
  8
_CURVE
 62
7
  6
CONTINUOUS
 10
9.7590284842
 20
8.4684003052
 40
0.5
 50
180.0
 51
270.0
  0
ARC
  8
_CURVE
 62
7
  6
CONTINUOUS
 10
33.2590284842
 20
8.4684003052
 40
0.5
 50
270.0
 51
360.0
  0
ARC
  8
_CURVE
 62
7
  6
CONTINUOUS
 10
33.2590284842
 20
28.9684003052
 40
0.5
 50
0.0
 51
90.0
  0
ARC
  8
_CURVE
 62
8
  6
HIDDEN
 10
33.7590284842
 20
7.9684003052
 40
0.25
 50
270.0
 51
360.0
  0
ARC
  8
_CURVE
 62
8
  6
HIDDEN
 10
33.7590284842
 20
29.4684003052
 40
0.25
 50
0.0
 51
90.0
  0
ARC
  8
_CURVE
 62
8
  6
HIDDEN
 10
9.2590284842
 20
29.4684003052
 40
0.25
 50
90.0
 51
180.0
  0
ARC
  8
_CURVE
 62
8
  6
HIDDEN
 10
9.2590284842
 20
7.9684003052
 40
0.25
 50
180.0
 51
270.0
  0
ENDSEC
  0
EOF
