999
DXF file: 111029-7.dxf
999
Pro/ENGINEER 2005030 by Parametric Technology Corporation
0
SECTION
2
HEADER
9
$ACADVER
1
AC1015
9
$DWGCODEPAGE
3
ANSI_1252
9
$EXTMAX
10
44.0000000000
20
34.0000000000
30
0.0000000000
9
$EXTMIN
10
0.0000000000
20
0.0000000000
30
0.0000000000
9
$LIMMIN
10
0.0000000000
20
0.0000000000
9
$LIMMAX
10
44.0000000000
20
34.0000000000
9
$VIEWCTR
10
22.0000000000
20
17.0000000000
9
$VIEWSIZE
40
34.0000000000
9
$CLAYER
8
0
9
$LTSCALE
40
2.4200000000
9
$CELTYPE
6
BYLAYER
9
$DIMSCALE
40
1
9
$DIMASZ
40
0.1875000000
9
$DIMEXO
40
0.2750000000
9
$DIMDLI
40
1.6720000000
9
$DIMEXE
40
0.7920000000
9
$DIMCEN
40
0.3960000000
9
$DIMLFAC
40
1.0000000000
9
$DIMBLK
1
_FILLED
9
$DIMTXT
40
0.1562500000
9
$DIMTOL
70
1
9
$DIMLIM
70
0
9
$DIMTFAC
40
1.0000000000
9
$DIMTP
40
0.0100000000
9
$DIMTM
40
0.0100000000
9
$PDMODE
70
3
9
$PDSIZE
40
0.3125000000
9
$HANDSEED
5
33E
9
$MEASUREMENT
70
0
9
$INSUNITS
70
1
0
ENDSEC
0
SECTION
2
CLASSES
0
CLASS
1
ACDBDICTIONARYWDFLT
2
AcDbDictionaryWithDefault
3
AutoCAD 2000
90
0
280
0
281
0
0
CLASS
1
ACDBPLACEHOLDER
2
AcDbPlaceHolder
3
AutoCAD 2000
90
0
280
0
281
0
0
CLASS
1
LAYOUT
2
AcDbLayout
3
AutoCAD 2000
90
0
280
0
281
0
0
ENDSEC
0
SECTION
2
TABLES
0
TABLE
2
VPORT
5
8
100
AcDbSymbolTable
70
2
0
VPORT
5
1F4
100
AcDbSymbolTableRecord
100
AcDbViewportTableRecord
2
*ACTIVE
70
0
10
0.0
20
0.0
11
1.0
21
1.0
12
22.0000000000
22
17.0000000000
13
0.0
23
0.0
14
1.0
24
1.0
15
0.0
25
0.0
16
0.0
26
0.0
36
1.0
17
0.0
27
0.0
37
0.0
40
34.0000000000
41
1.2941176471
42
50.0
43
0.0
44
0.0
50
0.0
51
0.0
71
0
72
100
73
1
74
1
75
0
76
0
77
0
78
0
0
ENDTAB
0
TABLE
2
LTYPE
5
5
100
AcDbSymbolTable
70
6
0
LTYPE
5
14
100
AcDbSymbolTableRecord
100
AcDbLinetypeTableRecord
2
BYBLOCK
70
0
3

72
65
73
0
40
0.0
0
LTYPE
5
15
100
AcDbSymbolTableRecord
100
AcDbLinetypeTableRecord
2
BYLAYER
70
0
3

72
65
73
0
40
0.0
0
LTYPE
5
16
100
AcDbSymbolTableRecord
100
AcDbLinetypeTableRecord
2
CONTINUOUS
70
64
3
Solid line
72
65
73
0
40
0
0
LTYPE
5
1F5
100
AcDbSymbolTableRecord
100
AcDbLinetypeTableRecord
2
CENTER
70
64
3
____ _ ____ _ ____ _ ____ _ ____ _ ____ _ ____
72
65
73
4
40
0.6
49
0.375
74
0
49
-0.075
74
0
49
0.075
74
0
49
-0.075
74
0
0
LTYPE
5
1F6
100
AcDbSymbolTableRecord
100
AcDbLinetypeTableRecord
2
HIDDEN
70
64
3
- - - - - - - - - - - - - - - - - - - -
72
65
73
2
40
0.2
49
0.1
74
0
49
-0.1
74
0
0
LTYPE
5
1F7
100
AcDbSymbolTableRecord
100
AcDbLinetypeTableRecord
2
PHANTOM
70
64
3
_____ _ _ _____ _ _ _____ _ _ _____
72
65
73
6
40
0.8
49
0.45
74
0
49
-0.05
74
0
49
0.1
74
0
49
-0.05
74
0
49
0.1
74
0
49
-0.05
74
0
0
LTYPE
5
1F8
100
AcDbSymbolTableRecord
100
AcDbLinetypeTableRecord
2
DOT
70
64
3
. . . . . . . . . . . . . . . . . . . .
72
65
73
2
40
0.2
49
0.1
74
0
49
-0.1
74
0
0
LTYPE
5
1F9
100
AcDbSymbolTableRecord
100
AcDbLinetypeTableRecord
2
DASHED
70
64
3
- - - - - - - - - - - - - - - - - - - -
72
65
73
2
40
0.2
49
0.1
74
0
49
-0.1
74
0
0
ENDTAB
0
TABLE
2
LAYER
5
2
100
AcDbSymbolTable
70
36
0
LAYER
5
10
100
AcDbSymbolTableRecord
100
AcDbLayerTableRecord
2
0
70
0
62
7
6
CONTINUOUS
370
-3
390
F
0
LAYER
5
1FA
100
AcDbSymbolTableRecord
100
AcDbLayerTableRecord
2
DEFAULT_1
70
0
62
7
6
CENTER
370
-3
390
F
0
LAYER
5
1FB
100
AcDbSymbolTableRecord
100
AcDbLayerTableRecord
2
DEFAULT_2
70
0
62
8
6
HIDDEN
370
-3
390
F
0
LAYER
5
1FC
100
AcDbSymbolTableRecord
100
AcDbLayerTableRecord
2
DEFAULT_3
70
0
62
7
6
PHANTOM
370
-3
390
F
0
LAYER
5
1FD
100
AcDbSymbolTableRecord
100
AcDbLayerTableRecord
2
_2D_DELETED_OBJS
70
0
62
7
6
CONTINUOUS
370
-3
390
F
0
LAYER
5
1FE
100
AcDbSymbolTableRecord
100
AcDbLayerTableRecord
2
0
70
0
62
7
6
CONTINUOUS
370
-3
390
F
0
LAYER
5
1FF
100
AcDbSymbolTableRecord
100
AcDbLayerTableRecord
2
ADM
70
0
62
7
6
CONTINUOUS
370
-3
390
F
0
LAYER
5
200
100
AcDbSymbolTableRecord
100
AcDbLayerTableRecord
2
AUX
70
0
62
7
6
CONTINUOUS
370
-3
390
F
0
LAYER
5
201
100
AcDbSymbolTableRecord
100
AcDbLayerTableRecord
2
BAK
70
0
62
7
6
CONTINUOUS
370
-3
390
F
0
LAYER
5
202
100
AcDbSymbolTableRecord
100
AcDbLayerTableRecord
2
BOT
70
0
62
7
6
CONTINUOUS
370
-3
390
F
0
LAYER
5
203
100
AcDbSymbolTableRecord
100
AcDbLayerTableRecord
2
BOTDIM
70
0
62
7
6
CONTINUOUS
370
-3
390
F
0
LAYER
5
204
100
AcDbSymbolTableRecord
100
AcDbLayerTableRecord
2
FRN
70
0
62
7
6
CONTINUOUS
370
-3
390
F
0
LAYER
5
205
100
AcDbSymbolTableRecord
100
AcDbLayerTableRecord
2
FRNDIM
70
0
62
7
6
CONTINUOUS
370
-3
390
F
0
LAYER
5
206
100
AcDbSymbolTableRecord
100
AcDbLayerTableRecord
2
ISO
70
0
62
7
6
CONTINUOUS
370
-3
390
F
0
LAYER
5
207
100
AcDbSymbolTableRecord
100
AcDbLayerTableRecord
2
LSD
70
0
62
7
6
CONTINUOUS
370
-3
390
F
0
LAYER
5
208
100
AcDbSymbolTableRecord
100
AcDbLayerTableRecord
2
LSDDIM
70
0
62
7
6
CONTINUOUS
370
-3
390
F
0
LAYER
5
209
100
AcDbSymbolTableRecord
100
AcDbLayerTableRecord
2
MDL
70
0
62
7
6
CONTINUOUS
370
-3
390
F
0
LAYER
5
20A
100
AcDbSymbolTableRecord
100
AcDbLayerTableRecord
2
PSPTBK
70
0
62
7
6
CONTINUOUS
370
-3
390
F
0
LAYER
5
20B
100
AcDbSymbolTableRecord
100
AcDbLayerTableRecord
2
PSPTXT
70
0
62
7
6
CONTINUOUS
370
-3
390
F
0
LAYER
5
20C
100
AcDbSymbolTableRecord
100
AcDbLayerTableRecord
2
PSPWIN
70
0
62
7
6
CONTINUOUS
370
-3
390
F
0
LAYER
5
20D
100
AcDbSymbolTableRecord
100
AcDbLayerTableRecord
2
RSD
70
0
62
7
6
CONTINUOUS
370
-3
390
F
0
LAYER
5
20E
100
AcDbSymbolTableRecord
100
AcDbLayerTableRecord
2
RSDDIM
70
0
62
7
6
CONTINUOUS
370
-3
390
F
0
LAYER
5
20F
100
AcDbSymbolTableRecord
100
AcDbLayerTableRecord
2
SEC
70
0
62
7
6
CONTINUOUS
370
-3
390
F
0
LAYER
5
210
100
AcDbSymbolTableRecord
100
AcDbLayerTableRecord
2
TOP
70
0
62
7
6
CONTINUOUS
370
-3
390
F
0
LAYER
5
211
100
AcDbSymbolTableRecord
100
AcDbLayerTableRecord
2
TOPDIM
70
0
62
7
6
CONTINUOUS
370
-3
390
F
0
LAYER
5
212
100
AcDbSymbolTableRecord
100
AcDbLayerTableRecord
2
VEW
70
0
62
7
6
CONTINUOUS
370
-3
390
F
0
LAYER
5
213
100
AcDbSymbolTableRecord
100
AcDbLayerTableRecord
2
___NOTE
70
0
62
7
6
CONTINUOUS
370
-3
390
F
0
LAYER
5
214
100
AcDbSymbolTableRecord
100
AcDbLayerTableRecord
2
___SYMBOL
70
0
62
7
6
CONTINUOUS
370
-3
390
F
0
ENDTAB
0
TABLE
2
STYLE
5
3
100
AcDbSymbolTable
70
1
0
STYLE
5
11
100
AcDbSymbolTableRecord
100
AcDbTextStyleTableRecord
2
STANDARD
70
0
40
0.0
41
0.8000000000
50
0.0
71
0
42
0.2
3
txt
4

0
STYLE
5
215
100
AcDbSymbolTableRecord
100
AcDbTextStyleTableRecord
2
TEXTSTYLE_1
70
0
40
0.0
41
1.0000000000
50
0.0
71
0
42
0.2
3
txt
4

0
ENDTAB
0
TABLE
2
VIEW
5
6
100
AcDbSymbolTable
70
0
0
ENDTAB
0
TABLE
2
UCS
5
7
100
AcDbSymbolTable
70
0
0
ENDTAB
0
TABLE
2
APPID
5
9
100
AcDbSymbolTable
70
1
0
APPID
5
216
100
AcDbSymbolTableRecord
100
AcDbRegAppTableRecord
2
ACAD
70
0
0
ENDTAB
0
TABLE
2
BLOCK_RECORD
5
1
100
AcDbSymbolTable
70
0
0
BLOCK_RECORD
5
1F
100
AcDbSymbolTableRecord
100
AcDbBlockTableRecord
2
*MODEL_SPACE
0
BLOCK_RECORD
5
1B
100
AcDbSymbolTableRecord
100
AcDbBlockTableRecord
2
*PAPER_SPACE
0
BLOCK_RECORD
5
217
100
AcDbSymbolTableRecord
100
AcDbBlockTableRecord
2
_FILLED
0
BLOCK_RECORD
5
218
100
AcDbSymbolTableRecord
100
AcDbBlockTableRecord
2
*D0
0
BLOCK_RECORD
5
219
100
AcDbSymbolTableRecord
100
AcDbBlockTableRecord
2
*D1
0
BLOCK_RECORD
5
21A
100
AcDbSymbolTableRecord
100
AcDbBlockTableRecord
2
*D2
0
BLOCK_RECORD
5
21B
100
AcDbSymbolTableRecord
100
AcDbBlockTableRecord
2
KOHLER_BL0
0
ENDTAB
0
TABLE
2
DIMSTYLE
5
A
100
AcDbSymbolTable
70
1
100
AcDbDimStyleTable
71
0
0
DIMSTYLE
105
21C
100
AcDbSymbolTableRecord
100
AcDbDimStyleTableRecord
2
STANDARD
70
0
3

4

40
1.0
41
0.1875000000
42
0.0625
43
0.38
44
0.18
45
0.0
46
0.0
47
0.0100000000
48
0.0100000000
140
0.1562500000
141
0.09
142
0.0
143
25.4
144
1.0000000000
145
0.0
146
1.0000000000
147
0.09
71
1
72
0
73
1
74
1
75
0
76
0
77
0
78
4
170
0
171
2
172
0
173
0
174
0
175
0
176
0
177
0
178
0
270
2
271
3
272
3
273
2
274
2
275
0
280
0
281
0
282
0
283
1
284
4
285
0
286
0
287
3
288
0
340
11
341
217
342
217
343
217
344
217
0
DIMSTYLE
105
21D
100
AcDbSymbolTableRecord
100
AcDbDimStyleTableRecord
2
DIMSTYLE_1
70
0
3

4

40
1.0
41
0.1875000000
42
0.0625
43
0.38
44
0.18
45
0.0
46
0.0
47
0.0312500000
48
0.0312500000
140
0.2083330000
141
0.09
142
0.0
143
25.4
144
1.0000000000
145
0.0
146
1.0000000000
147
0.09
71
0
72
0
73
1
74
1
75
0
76
0
77
0
78
4
170
0
171
2
172
0
173
0
174
0
175
0
176
0
177
0
178
0
270
2
271
5
272
5
273
2
274
2
275
0
280
0
281
0
282
0
283
1
284
4
285
0
286
0
287
3
288
0
340
11
341
217
342
217
343
217
344
217
0
DIMSTYLE
105
21E
100
AcDbSymbolTableRecord
100
AcDbDimStyleTableRecord
2
DIMSTYLE_2
70
0
3

4

40
1.0
41
0.1875000000
42
0.0625
43
0.38
44
0.18
45
0.0
46
0.0
47
0.0625000000
48
0.0625000000
140
0.2083330000
141
0.09
142
0.0
143
25.4
144
1.0000000000
145
0.0
146
1.0000000000
147
0.09
71
0
72
0
73
1
74
1
75
0
76
0
77
0
78
4
170
0
171
2
172
0
173
0
174
0
175
0
176
0
177
0
178
0
270
2
271
4
272
4
273
2
274
2
275
0
280
0
281
0
282
0
283
1
284
4
285
0
286
0
287
3
288
0
340
11
341
217
342
217
343
217
344
217
0
ENDTAB
0
ENDSEC
0
SECTION
2
BLOCKS
0
BLOCK
5
20
100
AcDbEntity
8
0
100
AcDbBlockBegin
2
*MODEL_SPACE
70
0
10
0.0
20
0.0
30
0.0
3
*MODEL_SPACE
1

0
ENDBLK
5
21
100
AcDbEntity
8
0
100
AcDbBlockEnd
0
BLOCK
5
1C
100
AcDbEntity
8
0
100
AcDbBlockBegin
2
*PAPER_SPACE
70
0
10
0.0
20
0.0
30
0.0
3
*PAPER_SPACE
1

0
ENDBLK
5
1D
100
AcDbEntity
8
0
100
AcDbBlockEnd
0
BLOCK
5
21F
100
AcDbEntity
8
0
100
AcDbBlockBegin
62
2
6
CONTINUOUS
2
*D0
70
65
10
0.0000000000
20
0.0000000000
3
*D0
1

0
TEXT
5
220
100
AcDbEntity
8
0
100
AcDbText
62
2
6
CONTINUOUS
10
22.1493575090
20
14.9179122230
7
STANDARD
40
0.2083330000
1
"
41
0.8000000000
72
0
100
AcDbText
0
TEXT
5
221
100
AcDbEntity
8
0
100
AcDbText
62
2
6
CONTINUOUS
10
20.9826927090
20
14.6054127230
7
STANDARD
40
0.2083330000
1
(54,6 cm)
41
0.8000000000
72
0
100
AcDbText
0
TEXT
5
222
100
AcDbEntity
8
0
100
AcDbText
62
2
6
CONTINUOUS
10
21.1493591090
20
14.9179122230
7
STANDARD
40
0.2083330000
1
21-1/2
41
0.8000000000
72
0
100
AcDbText
0
LINE
5
223
100
AcDbEntity
8
0
100
AcDbLine
62
2
6
CONTINUOUS
10
21.7468183446
20
7.8038288917
11
21.6076915090
21
7.8038288917
0
LINE
5
224
100
AcDbEntity
8
0
100
AcDbLine
62
2
6
CONTINUOUS
10
21.7468183446
20
29.3038283889
11
21.6076915090
21
29.3038283889
0
LINE
5
225
100
AcDbEntity
8
0
100
AcDbLine
62
2
6
CONTINUOUS
10
21.7326915090
20
7.8038288917
11
21.7326915090
21
14.5012462230
0
LINE
5
226
100
AcDbEntity
8
0
100
AcDbLine
62
2
6
CONTINUOUS
10
21.7326915090
20
29.3038283889
11
21.7326915090
21
15.2304117230
0
INSERT
5
227
100
AcDbEntity
8
0
100
AcDbBlockReference
62
2
6
CONTINUOUS
2
_FILLED
10
21.7326915090
20
7.8038288917
41
  0.187500
42
  0.187500
43
  0.187500
50
270.000000
0
INSERT
5
228
100
AcDbEntity
8
0
100
AcDbBlockReference
62
2
6
CONTINUOUS
2
_FILLED
10
21.7326915090
20
29.3038283889
41
  0.187500
42
  0.187500
43
  0.187500
50
 90.000000
0
ENDBLK
5
229
100
AcDbEntity
8
0
6
BYBLOCK
62
0
100
AcDbBlockEnd
0
BLOCK
5
22A
100
AcDbEntity
8
0
100
AcDbBlockBegin
62
2
6
CONTINUOUS
2
*D1
70
65
10
0.0000000000
20
0.0000000000
3
*D1
1

0
TEXT
5
22B
100
AcDbEntity
8
0
100
AcDbText
62
2
6
CONTINUOUS
10
20.2064091114
20
18.4517661545
7
STANDARD
40
0.2083333333
1
"
41
0.8000000000
72
0
100
AcDbText
0
TEXT
5
22C
100
AcDbEntity
8
0
100
AcDbText
62
2
6
CONTINUOUS
10
19.0397424448
20
18.1392661545
7
STANDARD
40
0.2083333333
1
(82,6 cm)
41
0.8000000000
72
0
100
AcDbText
0
TEXT
5
22D
100
AcDbEntity
8
0
100
AcDbText
62
2
6
CONTINUOUS
10
19.2064091114
20
18.4517661545
7
STANDARD
40
0.2083333333
1
32-1/2
41
0.8000000000
72
0
100
AcDbText
0
LINE
5
22E
100
AcDbEntity
8
0
100
AcDbLine
62
2
6
CONTINUOUS
10
38.0593179645
20
18.6163286403
11
38.0593179645
21
18.6809328212
0
LINE
5
22F
100
AcDbEntity
8
0
100
AcDbLine
62
2
6
CONTINUOUS
10
5.5593187246
20
18.6163286403
11
5.5593187246
21
18.6809328212
0
LINE
5
230
100
AcDbEntity
8
0
100
AcDbLine
62
2
6
CONTINUOUS
10
38.0593179645
20
18.5559328212
11
20.6439091114
21
18.5559328212
0
LINE
5
231
100
AcDbEntity
8
0
100
AcDbLine
62
2
6
CONTINUOUS
10
5.5593187246
20
18.5559328212
11
18.9355757781
21
18.5559328212
0
INSERT
5
232
100
AcDbEntity
8
0
100
AcDbBlockReference
62
2
6
CONTINUOUS
2
_FILLED
10
38.0593179645
20
18.5559328212
41
  0.187500
42
  0.187500
43
  0.187500
0
INSERT
5
233
100
AcDbEntity
8
0
100
AcDbBlockReference
62
2
6
CONTINUOUS
2
_FILLED
10
5.5593187246
20
18.5559328212
41
  0.187500
42
  0.187500
43
  0.187500
50
180.000000
0
ENDBLK
5
234
100
AcDbEntity
8
0
6
BYBLOCK
62
0
100
AcDbBlockEnd
0
BLOCK
5
235
100
AcDbEntity
8
0
100
AcDbBlockBegin
62
2
6
CONTINUOUS
2
*D2
70
65
10
0.0000000000
20
0.0000000000
3
*D2
1

0
TEXT
5
236
100
AcDbEntity
8
0
100
AcDbText
62
2
6
CONTINUOUS
10
7.6079750412
20
9.5199879592
7
STANDARD
40
0.2083330000
1
R
41
0.8000000000
72
0
100
AcDbText
0
TEXT
5
237
100
AcDbEntity
8
0
100
AcDbText
62
2
6
CONTINUOUS
10
8.6079734412
20
9.5199879592
7
STANDARD
40
0.2083330000
1
"
41
0.8000000000
72
0
100
AcDbText
0
TEXT
5
238
100
AcDbEntity
8
0
100
AcDbText
62
2
6
CONTINUOUS
10
7.6079750412
20
9.2074884592
7
STANDARD
40
0.2083330000
1
[4 cm]
41
0.8000000000
72
0
100
AcDbText
0
TEXT
5
239
100
AcDbEntity
8
0
100
AcDbText
62
2
6
CONTINUOUS
10
7.7746414412
20
9.5199879592
7
STANDARD
40
0.2083330000
1
1-1/2
41
0.8000000000
72
0
100
AcDbText
0
LINE
5
23A
100
AcDbEntity
8
0
100
AcDbLine
62
2
6
CONTINUOUS
10
6.2225037378
20
8.0589425425
11
7.2746417079
21
9.6241544592
0
LINE
5
23B
100
AcDbEntity
8
0
100
AcDbLine
62
2
6
CONTINUOUS
10
7.2746417079
20
9.6241544592
11
7.5038085412
21
9.6241544592
0
INSERT
5
23C
100
AcDbEntity
8
0
100
AcDbBlockReference
62
2
6
CONTINUOUS
2
_FILLED
10
6.2225037378
20
8.0589425425
41
  0.187500
42
  0.187500
43
  0.187500
50
236.090942
0
ENDBLK
5
23D
100
AcDbEntity
8
0
6
BYBLOCK
62
0
100
AcDbBlockEnd
0
BLOCK
5
23E
100
AcDbEntity
8
___SYMBOL
100
AcDbBlockBegin
62
2
6
CONTINUOUS
2
KOHLER_BL0
70
64
10
28.5575243809
20
27.6445799507
3
KOHLER_BL0
1

0
LINE
5
23F
100
AcDbEntity
8
___SYMBOL
100
AcDbLine
62
2
6
CONTINUOUS
10
27.2792390066
20
28.0761085984
11
26.9948344196
21
27.7379109197
0
LINE
5
240
100
AcDbEntity
8
___SYMBOL
100
AcDbLine
62
2
6
CONTINUOUS
10
27.0231566045
20
28.0761085984
11
27.2792390066
21
28.0761085984
0
LINE
5
241
100
AcDbEntity
8
___SYMBOL
100
AcDbLine
62
2
6
CONTINUOUS
10
27.0231566045
20
28.0761085984
11
26.8394710589
21
27.8576803575
0
LINE
5
242
100
AcDbEntity
8
___SYMBOL
100
AcDbLine
62
2
6
CONTINUOUS
10
26.8394710589
20
28.0761085984
11
26.8394710589
21
27.8576803575
0
LINE
5
243
100
AcDbEntity
8
___SYMBOL
100
AcDbLine
62
2
6
CONTINUOUS
10
26.6068041024
20
28.0761085984
11
26.8394710589
21
28.0761085984
0
LINE
5
244
100
AcDbEntity
8
___SYMBOL
100
AcDbLine
62
2
6
CONTINUOUS
10
26.6068041024
20
28.0761085984
11
26.6068041024
21
27.2948584374
0
LINE
5
245
100
AcDbEntity
8
___SYMBOL
100
AcDbLine
62
2
6
CONTINUOUS
10
26.8394710589
20
27.2948904421
11
26.6068041024
21
27.2948584374
0
LINE
5
246
100
AcDbEntity
8
___SYMBOL
100
AcDbLine
62
2
6
CONTINUOUS
10
26.8394710589
20
27.5635568727
11
26.8394710589
21
27.2948904421
0
LINE
5
247
100
AcDbEntity
8
___SYMBOL
100
AcDbLine
62
2
6
CONTINUOUS
10
27.0444549678
20
27.2948904421
11
26.8394710589
21
27.5635568727
0
LINE
5
248
100
AcDbEntity
8
___SYMBOL
100
AcDbLine
62
2
6
CONTINUOUS
10
27.0444549678
20
27.2948904421
11
27.3328448474
21
27.2948904421
0
LINE
5
249
100
AcDbEntity
8
___SYMBOL
100
AcDbLine
62
2
6
CONTINUOUS
10
27.3328448474
20
27.2948904421
11
26.9948344196
21
27.7379109197
0
SOLID
5
24A
100
AcDbEntity
8
___SYMBOL
100
AcDbTrace
62
2
6
CONTINUOUS
10
26.8394710589
20
27.8576803575
11
27.0231566045
21
28.0761085984
12
27.2792390066
22
28.0761085984
13
27.2792390066
23
28.0761085984
0
SOLID
5
24B
100
AcDbEntity
8
___SYMBOL
100
AcDbTrace
62
2
6
CONTINUOUS
10
27.2792390066
20
28.0761085984
11
26.9948344196
21
27.7379109197
12
26.8394710589
22
27.8576803575
13
26.8394710589
23
27.8576803575
0
SOLID
5
24C
100
AcDbEntity
8
___SYMBOL
100
AcDbTrace
62
2
6
CONTINUOUS
10
26.8394710589
20
27.5635568727
11
26.9948344196
21
27.7379109197
12
27.0444549678
22
27.2948904421
13
27.0444549678
23
27.2948904421
0
SOLID
5
24D
100
AcDbEntity
8
___SYMBOL
100
AcDbTrace
62
2
6
CONTINUOUS
10
26.9948344196
20
27.7379109197
11
27.3328448474
21
27.2948904421
12
27.0444549678
22
27.2948904421
13
27.0444549678
23
27.2948904421
0
SOLID
5
24E
100
AcDbEntity
8
___SYMBOL
100
AcDbTrace
62
2
6
CONTINUOUS
10
26.8394710589
20
27.2948904421
11
26.6068041024
21
27.2948584374
12
26.8394710589
22
27.5635568727
13
26.8394710589
23
27.5635568727
0
SOLID
5
24F
100
AcDbEntity
8
___SYMBOL
100
AcDbTrace
62
2
6
CONTINUOUS
10
26.9948344196
20
27.7379109197
11
26.8394710589
21
27.5635568727
12
26.8394710589
22
27.8576803575
13
26.8394710589
23
27.8576803575
0
SOLID
5
250
100
AcDbEntity
8
___SYMBOL
100
AcDbTrace
62
2
6
CONTINUOUS
10
26.8394710589
20
27.5635568727
11
26.6068041024
21
27.2948584374
12
26.8394710589
22
27.8576803575
13
26.8394710589
23
27.8576803575
0
SOLID
5
251
100
AcDbEntity
8
___SYMBOL
100
AcDbTrace
62
2
6
CONTINUOUS
10
26.8394710589
20
27.8576803575
11
26.6068041024
21
27.2948584374
12
26.8394710589
22
28.0761085984
13
26.8394710589
23
28.0761085984
0
SOLID
5
252
100
AcDbEntity
8
___SYMBOL
100
AcDbTrace
62
2
6
CONTINUOUS
10
26.6068041024
20
27.2948584374
11
26.6068041024
21
28.0761085984
12
26.8394710589
22
28.0761085984
13
26.8394710589
23
28.0761085984
0
CIRCLE
5
253
100
AcDbEntity
8
___SYMBOL
100
AcDbCircle
62
2
6
CONTINUOUS
10
27.5681899500
20
27.6840045179
40
0.3974087662
0
CIRCLE
5
254
100
AcDbEntity
8
___SYMBOL
100
AcDbCircle
62
2
6
CONTINUOUS
10
27.5681899500
20
27.6840045179
40
0.1663592110
0
SOLID
5
255
100
AcDbEntity
8
___SYMBOL
100
AcDbTrace
62
2
6
CONTINUOUS
10
27.4453838876
20
28.0619627146
11
27.5266494224
21
28.0792362373
12
27.6097304777
22
28.0792362373
13
27.6097304777
23
28.0792362373
0
SOLID
5
256
100
AcDbEntity
8
___SYMBOL
100
AcDbTrace
62
2
6
CONTINUOUS
10
27.6097304777
20
28.0792362373
11
27.6909960125
21
28.0619627146
12
27.4453838876
22
28.0619627146
13
27.4453838876
23
28.0619627146
0
SOLID
5
257
100
AcDbEntity
8
___SYMBOL
100
AcDbTrace
62
2
6
CONTINUOUS
10
27.3694855669
20
28.0281706051
11
27.4453838876
21
28.0619627146
12
27.6909960125
22
28.0619627146
13
27.6909960125
23
28.0619627146
0
SOLID
5
258
100
AcDbEntity
8
___SYMBOL
100
AcDbTrace
62
2
6
CONTINUOUS
10
27.6909960125
20
28.0619627146
11
27.7668943331
21
28.0281706051
12
27.3694855669
22
28.0281706051
13
27.3694855669
23
28.0281706051
0
SOLID
5
259
100
AcDbEntity
8
___SYMBOL
100
AcDbTrace
62
2
6
CONTINUOUS
10
27.3022715813
20
27.9793367861
11
27.3694855669
21
28.0281706051
12
27.7668943331
22
28.0281706051
13
27.7668943331
23
28.0281706051
0
SOLID
5
25A
100
AcDbEntity
8
___SYMBOL
100
AcDbTrace
62
2
6
CONTINUOUS
10
27.7668943331
20
28.0281706051
11
27.8341083187
21
27.9793367861
12
27.3022715813
22
27.9793367861
13
27.3022715813
23
27.9793367861
0
SOLID
5
25B
100
AcDbEntity
8
___SYMBOL
100
AcDbTrace
62
2
6
CONTINUOUS
10
27.2466795044
20
27.9175955298
11
27.3022715813
21
27.9793367861
12
27.8341083187
22
27.9793367861
13
27.8341083187
23
27.9793367861
0
SOLID
5
25C
100
AcDbEntity
8
___SYMBOL
100
AcDbTrace
62
2
6
CONTINUOUS
10
27.8341083187
20
27.9793367861
11
27.8897003956
21
27.9175955298
12
27.2466795044
22
27.9175955298
13
27.2466795044
23
27.9175955298
0
SOLID
5
25D
100
AcDbEntity
8
___SYMBOL
100
AcDbTrace
62
2
6
CONTINUOUS
10
27.5681899500
20
27.8503637288
11
27.2051389768
21
27.8456452254
12
27.8897003956
22
27.9175955298
13
27.8897003956
23
27.9175955298
0
SOLID
5
25E
100
AcDbEntity
8
___SYMBOL
100
AcDbTrace
62
2
6
CONTINUOUS
10
27.2051389768
20
27.8456452254
11
27.2466795044
21
27.9175955298
12
27.8897003956
22
27.9175955298
13
27.8897003956
23
27.9175955298
0
SOLID
5
25F
100
AcDbEntity
8
___SYMBOL
100
AcDbTrace
62
2
6
CONTINUOUS
10
27.8897003956
20
27.9175955298
11
27.9312409232
21
27.8456452254
12
27.5681899500
22
27.8503637288
13
27.5681899500
23
27.8503637288
0
SOLID
5
260
100
AcDbEntity
8
___SYMBOL
100
AcDbTrace
62
2
6
CONTINUOUS
10
27.5681899500
20
27.8503637288
11
27.5167821267
21
27.8422215295
12
27.2051389768
22
27.8456452254
13
27.2051389768
23
27.8456452254
0
SOLID
5
261
100
AcDbEntity
8
___SYMBOL
100
AcDbTrace
62
2
6
CONTINUOUS
10
27.6195977734
20
27.8422215295
11
27.5681899500
21
27.8503637288
12
27.9312409232
22
27.8456452254
13
27.9312409232
23
27.8456452254
0
SOLID
5
262
100
AcDbEntity
8
___SYMBOL
100
AcDbTrace
62
2
6
CONTINUOUS
10
27.4336025212
20
27.7817880087
11
27.1794655188
21
27.7666304464
12
27.4704064592
22
27.8185919467
13
27.4704064592
23
27.8185919467
0
SOLID
5
263
100
AcDbEntity
8
___SYMBOL
100
AcDbTrace
62
2
6
CONTINUOUS
10
27.4704064592
20
27.8185919467
11
27.1794655188
21
27.7666304464
12
27.5167821267
22
27.8422215295
13
27.5167821267
23
27.8422215295
0
SOLID
5
264
100
AcDbEntity
8
___SYMBOL
100
AcDbTrace
62
2
6
CONTINUOUS
10
27.1794655188
20
27.7666304464
11
27.2051389768
21
27.8456452254
12
27.5167821267
22
27.8422215295
13
27.5167821267
23
27.8422215295
0
SOLID
5
265
100
AcDbEntity
8
___SYMBOL
100
AcDbTrace
62
2
6
CONTINUOUS
10
27.6195977734
20
27.8422215295
11
27.9312409232
21
27.8456452254
12
27.6659734408
22
27.8185919467
13
27.6659734408
23
27.8185919467
0
SOLID
5
266
100
AcDbEntity
8
___SYMBOL
100
AcDbTrace
62
2
6
CONTINUOUS
10
27.6659734408
20
27.8185919467
11
27.9312409232
21
27.8456452254
12
27.7027773789
22
27.7817880087
13
27.7027773789
23
27.7817880087
0
SOLID
5
267
100
AcDbEntity
8
___SYMBOL
100
AcDbTrace
62
2
6
CONTINUOUS
10
27.9312409232
20
27.8456452254
11
27.9569143812
21
27.7666304464
12
27.7027773789
22
27.7817880087
13
27.7027773789
23
27.7817880087
0
SOLID
5
268
100
AcDbEntity
8
___SYMBOL
100
AcDbTrace
62
2
6
CONTINUOUS
10
27.4336025212
20
27.7817880087
11
27.4099729384
21
27.7354123412
12
27.1794655188
22
27.7666304464
13
27.1794655188
23
27.7666304464
0
SOLID
5
269
100
AcDbEntity
8
___SYMBOL
100
AcDbTrace
62
2
6
CONTINUOUS
10
27.7264069617
20
27.7354123412
11
27.7027773789
21
27.7817880087
12
27.9569143812
22
27.7666304464
13
27.9569143812
23
27.7666304464
0
SOLID
5
26A
100
AcDbEntity
8
___SYMBOL
100
AcDbTrace
62
2
6
CONTINUOUS
10
27.1707811838
20
27.6840045179
11
27.1794655188
21
27.7666304464
12
27.4099729384
22
27.7354123412
13
27.4099729384
23
27.7354123412
0
SOLID
5
26B
100
AcDbEntity
8
___SYMBOL
100
AcDbTrace
62
2
6
CONTINUOUS
10
27.4099729384
20
27.7354123412
11
27.4018307390
21
27.6840045179
12
27.1707811838
22
27.6840045179
13
27.1707811838
23
27.6840045179
0
SOLID
5
26C
100
AcDbEntity
8
___SYMBOL
100
AcDbTrace
62
2
6
CONTINUOUS
10
27.7264069617
20
27.7354123412
11
27.9569143812
21
27.7666304464
12
27.7345491610
22
27.6840045179
13
27.7345491610
23
27.6840045179
0
SOLID
5
26D
100
AcDbEntity
8
___SYMBOL
100
AcDbTrace
62
2
6
CONTINUOUS
10
27.9569143812
20
27.7666304464
11
27.9655987163
21
27.6840045179
12
27.7345491610
22
27.6840045179
13
27.7345491610
23
27.6840045179
0
SOLID
5
26E
100
AcDbEntity
8
___SYMBOL
100
AcDbTrace
62
2
6
CONTINUOUS
10
27.7264069617
20
27.6325966945
11
27.7345491610
21
27.6840045179
12
27.9655987163
22
27.6840045179
13
27.9655987163
23
27.6840045179
0
SOLID
5
26F
100
AcDbEntity
8
___SYMBOL
100
AcDbTrace
62
2
6
CONTINUOUS
10
27.4099729384
20
27.6325966945
11
27.1794655188
21
27.6013785893
12
27.4018307390
22
27.6840045179
13
27.4018307390
23
27.6840045179
0
SOLID
5
270
100
AcDbEntity
8
___SYMBOL
100
AcDbTrace
62
2
6
CONTINUOUS
10
27.1794655188
20
27.6013785893
11
27.1707811838
21
27.6840045179
12
27.4018307390
22
27.6840045179
13
27.4018307390
23
27.6840045179
0
SOLID
5
271
100
AcDbEntity
8
___SYMBOL
100
AcDbTrace
62
2
6
CONTINUOUS
10
27.9655987163
20
27.6840045179
11
27.9569143812
21
27.6013785893
12
27.7264069617
22
27.6325966945
13
27.7264069617
23
27.6325966945
0
SOLID
5
272
100
AcDbEntity
8
___SYMBOL
100
AcDbTrace
62
2
6
CONTINUOUS
10
27.4099729384
20
27.6325966945
11
27.4336025212
21
27.5862210270
12
27.1794655188
22
27.6013785893
13
27.1794655188
23
27.6013785893
0
SOLID
5
273
100
AcDbEntity
8
___SYMBOL
100
AcDbTrace
62
2
6
CONTINUOUS
10
27.7027773789
20
27.5862210270
11
27.7264069617
21
27.6325966945
12
27.9569143812
22
27.6013785893
13
27.9569143812
23
27.6013785893
0
SOLID
5
274
100
AcDbEntity
8
___SYMBOL
100
AcDbTrace
62
2
6
CONTINUOUS
10
27.5167821267
20
27.5257875062
11
27.2051389768
21
27.5223638104
12
27.4704064592
22
27.5494170890
13
27.4704064592
23
27.5494170890
0
SOLID
5
275
100
AcDbEntity
8
___SYMBOL
100
AcDbTrace
62
2
6
CONTINUOUS
10
27.4704064592
20
27.5494170890
11
27.2051389768
21
27.5223638104
12
27.4336025212
22
27.5862210270
13
27.4336025212
23
27.5862210270
0
SOLID
5
276
100
AcDbEntity
8
___SYMBOL
100
AcDbTrace
62
2
6
CONTINUOUS
10
27.2051389768
20
27.5223638104
11
27.1794655188
21
27.6013785893
12
27.4336025212
22
27.5862210270
13
27.4336025212
23
27.5862210270
0
SOLID
5
277
100
AcDbEntity
8
___SYMBOL
100
AcDbTrace
62
2
6
CONTINUOUS
10
27.7027773789
20
27.5862210270
11
27.9569143812
21
27.6013785893
12
27.6659734408
22
27.5494170890
13
27.6659734408
23
27.5494170890
0
SOLID
5
278
100
AcDbEntity
8
___SYMBOL
100
AcDbTrace
62
2
6
CONTINUOUS
10
27.6659734408
20
27.5494170890
11
27.9569143812
21
27.6013785893
12
27.6195977734
22
27.5257875062
13
27.6195977734
23
27.5257875062
0
SOLID
5
279
100
AcDbEntity
8
___SYMBOL
100
AcDbTrace
62
2
6
CONTINUOUS
10
27.9569143812
20
27.6013785893
11
27.9312409232
21
27.5223638104
12
27.6195977734
22
27.5257875062
13
27.6195977734
23
27.5257875062
0
SOLID
5
27A
100
AcDbEntity
8
___SYMBOL
100
AcDbTrace
62
2
6
CONTINUOUS
10
27.5167821267
20
27.5257875062
11
27.5681899500
21
27.5176453069
12
27.2051389768
22
27.5223638104
13
27.2051389768
23
27.5223638104
0
SOLID
5
27B
100
AcDbEntity
8
___SYMBOL
100
AcDbTrace
62
2
6
CONTINUOUS
10
27.5681899500
20
27.5176453069
11
27.6195977734
21
27.5257875062
12
27.9312409232
22
27.5223638104
13
27.9312409232
23
27.5223638104
0
SOLID
5
27C
100
AcDbEntity
8
___SYMBOL
100
AcDbTrace
62
2
6
CONTINUOUS
10
27.2466795044
20
27.4504135059
11
27.2051389768
21
27.5223638104
12
27.5681899500
22
27.5176453069
13
27.5681899500
23
27.5176453069
0
SOLID
5
27D
100
AcDbEntity
8
___SYMBOL
100
AcDbTrace
62
2
6
CONTINUOUS
10
27.5681899500
20
27.5176453069
11
27.9312409232
21
27.5223638104
12
27.2466795044
22
27.4504135059
13
27.2466795044
23
27.4504135059
0
SOLID
5
27E
100
AcDbEntity
8
___SYMBOL
100
AcDbTrace
62
2
6
CONTINUOUS
10
27.9312409232
20
27.5223638104
11
27.8897003956
21
27.4504135059
12
27.2466795044
22
27.4504135059
13
27.2466795044
23
27.4504135059
0
SOLID
5
27F
100
AcDbEntity
8
___SYMBOL
100
AcDbTrace
62
2
6
CONTINUOUS
10
27.3022715813
20
27.3886722496
11
27.2466795044
21
27.4504135059
12
27.8897003956
22
27.4504135059
13
27.8897003956
23
27.4504135059
0
SOLID
5
280
100
AcDbEntity
8
___SYMBOL
100
AcDbTrace
62
2
6
CONTINUOUS
10
27.8897003956
20
27.4504135059
11
27.8341083187
21
27.3886722496
12
27.3022715813
22
27.3886722496
13
27.3022715813
23
27.3886722496
0
SOLID
5
281
100
AcDbEntity
8
___SYMBOL
100
AcDbTrace
62
2
6
CONTINUOUS
10
27.3694855669
20
27.3398384306
11
27.3022715813
21
27.3886722496
12
27.8341083187
22
27.3886722496
13
27.8341083187
23
27.3886722496
0
SOLID
5
282
100
AcDbEntity
8
___SYMBOL
100
AcDbTrace
62
2
6
CONTINUOUS
10
27.8341083187
20
27.3886722496
11
27.7668943331
21
27.3398384306
12
27.3694855669
22
27.3398384306
13
27.3694855669
23
27.3398384306
0
SOLID
5
283
100
AcDbEntity
8
___SYMBOL
100
AcDbTrace
62
2
6
CONTINUOUS
10
27.4453838876
20
27.3060463211
11
27.3694855669
21
27.3398384306
12
27.7668943331
22
27.3398384306
13
27.7668943331
23
27.3398384306
0
SOLID
5
284
100
AcDbEntity
8
___SYMBOL
100
AcDbTrace
62
2
6
CONTINUOUS
10
27.7668943331
20
27.3398384306
11
27.6909960125
21
27.3060463211
12
27.4453838876
22
27.3060463211
13
27.4453838876
23
27.3060463211
0
SOLID
5
285
100
AcDbEntity
8
___SYMBOL
100
AcDbTrace
62
2
6
CONTINUOUS
10
27.5266494224
20
27.2887727984
11
27.4453838876
21
27.3060463211
12
27.6909960125
22
27.3060463211
13
27.6909960125
23
27.3060463211
0
SOLID
5
286
100
AcDbEntity
8
___SYMBOL
100
AcDbTrace
62
2
6
CONTINUOUS
10
27.6909960125
20
27.3060463211
11
27.6097304777
21
27.2887727984
12
27.5266494224
22
27.2887727984
13
27.5266494224
23
27.2887727984
0
LINE
5
287
100
AcDbEntity
8
___SYMBOL
100
AcDbLine
62
2
6
CONTINUOUS
10
28.6250379044
20
28.0761085984
11
28.6250379044
21
27.2948904421
0
LINE
5
288
100
AcDbEntity
8
___SYMBOL
100
AcDbLine
62
2
6
CONTINUOUS
10
28.6250379044
20
27.2948904421
11
28.4053930100
21
27.2948904421
0
LINE
5
289
100
AcDbEntity
8
___SYMBOL
100
AcDbLine
62
2
6
CONTINUOUS
10
28.4053930100
20
27.5993232385
11
28.4053930100
21
27.2948904421
0
LINE
5
28A
100
AcDbEntity
8
___SYMBOL
100
AcDbLine
62
2
6
CONTINUOUS
10
28.2080639393
20
27.5993232385
11
28.4053930100
21
27.5993232385
0
LINE
5
28B
100
AcDbEntity
8
___SYMBOL
100
AcDbLine
62
2
6
CONTINUOUS
10
28.2080639393
20
27.5993232385
11
28.2080639393
21
27.2948904421
0
LINE
5
28C
100
AcDbEntity
8
___SYMBOL
100
AcDbLine
62
2
6
CONTINUOUS
10
28.2080639393
20
27.2948904421
11
27.9884190449
21
27.2948904421
0
LINE
5
28D
100
AcDbEntity
8
___SYMBOL
100
AcDbLine
62
2
6
CONTINUOUS
10
27.9884190449
20
28.0761085984
11
27.9884190449
21
27.2948904421
0
LINE
5
28E
100
AcDbEntity
8
___SYMBOL
100
AcDbLine
62
2
6
CONTINUOUS
10
27.9884190449
20
28.0761085984
11
28.2080639393
21
28.0761085984
0
LINE
5
28F
100
AcDbEntity
8
___SYMBOL
100
AcDbLine
62
2
6
CONTINUOUS
10
28.2080639393
20
28.0761085984
11
28.2080639393
21
27.7822636017
0
LINE
5
290
100
AcDbEntity
8
___SYMBOL
100
AcDbLine
62
2
6
CONTINUOUS
10
28.2080639393
20
27.7822636017
11
28.4053930100
21
27.7822636017
0
LINE
5
291
100
AcDbEntity
8
___SYMBOL
100
AcDbLine
62
2
6
CONTINUOUS
10
28.4053930100
20
28.0761085984
11
28.4053930100
21
27.7822636017
0
LINE
5
292
100
AcDbEntity
8
___SYMBOL
100
AcDbLine
62
2
6
CONTINUOUS
10
28.4053930100
20
28.0761085984
11
28.6250379044
21
28.0761085984
0
SOLID
5
293
100
AcDbEntity
8
___SYMBOL
100
AcDbTrace
62
2
6
CONTINUOUS
10
28.4053930100
20
27.7822636017
11
28.4053930100
21
28.0761085984
12
28.6250379044
22
28.0761085984
13
28.6250379044
23
28.0761085984
0
SOLID
5
294
100
AcDbEntity
8
___SYMBOL
100
AcDbTrace
62
2
6
CONTINUOUS
10
28.4053930100
20
27.7822636017
11
28.2080639393
21
27.5993232385
12
28.2080639393
22
27.7822636017
13
28.2080639393
23
27.7822636017
0
SOLID
5
295
100
AcDbEntity
8
___SYMBOL
100
AcDbTrace
62
2
6
CONTINUOUS
10
28.2080639393
20
27.5993232385
11
27.9884190449
21
27.2948904421
12
28.2080639393
22
27.7822636017
13
28.2080639393
23
27.7822636017
0
SOLID
5
296
100
AcDbEntity
8
___SYMBOL
100
AcDbTrace
62
2
6
CONTINUOUS
10
28.2080639393
20
27.7822636017
11
27.9884190449
21
27.2948904421
12
28.2080639393
22
28.0761085984
13
28.2080639393
23
28.0761085984
0
SOLID
5
297
100
AcDbEntity
8
___SYMBOL
100
AcDbTrace
62
2
6
CONTINUOUS
10
27.9884190449
20
27.2948904421
11
27.9884190449
21
28.0761085984
12
28.2080639393
22
28.0761085984
13
28.2080639393
23
28.0761085984
0
SOLID
5
298
100
AcDbEntity
8
___SYMBOL
100
AcDbTrace
62
2
6
CONTINUOUS
10
28.2080639393
20
27.5993232385
11
28.2080639393
21
27.2948904421
12
27.9884190449
22
27.2948904421
13
27.9884190449
23
27.2948904421
0
SOLID
5
299
100
AcDbEntity
8
___SYMBOL
100
AcDbTrace
62
2
6
CONTINUOUS
10
28.2080639393
20
27.5993232385
11
28.4053930100
21
27.7822636017
12
28.4053930100
22
27.5993232385
13
28.4053930100
23
27.5993232385
0
SOLID
5
29A
100
AcDbEntity
8
___SYMBOL
100
AcDbTrace
62
2
6
CONTINUOUS
10
28.4053930100
20
27.7822636017
11
28.6250379044
21
28.0761085984
12
28.4053930100
22
27.5993232385
13
28.4053930100
23
27.5993232385
0
SOLID
5
29B
100
AcDbEntity
8
___SYMBOL
100
AcDbTrace
62
2
6
CONTINUOUS
10
28.4053930100
20
27.5993232385
11
28.6250379044
21
28.0761085984
12
28.4053930100
22
27.2948904421
13
28.4053930100
23
27.2948904421
0
SOLID
5
29C
100
AcDbEntity
8
___SYMBOL
100
AcDbTrace
62
2
6
CONTINUOUS
10
28.6250379044
20
28.0761085984
11
28.6250379044
21
27.2948904421
12
28.4053930100
22
27.2948904421
13
28.4053930100
23
27.2948904421
0
LINE
5
29D
100
AcDbEntity
8
___SYMBOL
100
AcDbLine
62
2
6
CONTINUOUS
10
28.8851590994
20
27.2948904421
11
29.1020711808
21
27.2948904421
0
LINE
5
29E
100
AcDbEntity
8
___SYMBOL
100
AcDbLine
62
2
6
CONTINUOUS
10
28.8851590994
20
27.2948904421
11
28.6850976934
21
27.2948904421
0
LINE
5
29F
100
AcDbEntity
8
___SYMBOL
100
AcDbLine
62
2
6
CONTINUOUS
10
28.6850976934
20
27.2948904421
11
28.6850976934
21
28.0761085984
0
LINE
5
2A0
100
AcDbEntity
8
___SYMBOL
100
AcDbLine
62
2
6
CONTINUOUS
10
28.6850976934
20
28.0761085984
11
28.8851590994
21
28.0761085984
0
LINE
5
2A1
100
AcDbEntity
8
___SYMBOL
100
AcDbLine
62
2
6
CONTINUOUS
10
28.8851590994
20
28.0761085984
11
28.8851590994
21
27.4831927746
0
LINE
5
2A2
100
AcDbEntity
8
___SYMBOL
100
AcDbLine
62
2
6
CONTINUOUS
10
28.8851590994
20
27.4831927746
11
29.1020711808
21
27.4831927746
0
LINE
5
2A3
100
AcDbEntity
8
___SYMBOL
100
AcDbLine
62
2
6
CONTINUOUS
10
29.1020711808
20
27.4831927746
11
29.1020711808
21
27.2948904421
0
SOLID
5
2A4
100
AcDbEntity
8
___SYMBOL
100
AcDbTrace
62
2
6
CONTINUOUS
10
29.1020711808
20
27.4831927746
11
28.6850976934
21
27.2948904421
12
28.8851590994
22
27.4831927746
13
28.8851590994
23
27.4831927746
0
SOLID
5
2A5
100
AcDbEntity
8
___SYMBOL
100
AcDbTrace
62
2
6
CONTINUOUS
10
28.8851590994
20
27.4831927746
11
28.6850976934
21
27.2948904421
12
28.8851590994
22
28.0761085984
13
28.8851590994
23
28.0761085984
0
SOLID
5
2A6
100
AcDbEntity
8
___SYMBOL
100
AcDbTrace
62
2
6
CONTINUOUS
10
28.6850976934
20
27.2948904421
11
28.6850976934
21
28.0761085984
12
28.8851590994
22
28.0761085984
13
28.8851590994
23
28.0761085984
0
SOLID
5
2A7
100
AcDbEntity
8
___SYMBOL
100
AcDbTrace
62
2
6
CONTINUOUS
10
28.6850976934
20
27.2948904421
11
29.1020711808
21
27.4831927746
12
28.8851590994
22
27.2948904421
13
28.8851590994
23
27.2948904421
0
SOLID
5
2A8
100
AcDbEntity
8
___SYMBOL
100
AcDbTrace
62
2
6
CONTINUOUS
10
29.1020711808
20
27.4831927746
11
29.1020711808
21
27.2948904421
12
28.8851590994
22
27.2948904421
13
28.8851590994
23
27.2948904421
0
LINE
5
2A9
100
AcDbEntity
8
___SYMBOL
100
AcDbLine
62
2
6
CONTINUOUS
10
29.5530737082
20
27.5897548101
11
29.5530737082
21
27.7822636017
0
LINE
5
2AA
100
AcDbEntity
8
___SYMBOL
100
AcDbLine
62
2
6
CONTINUOUS
10
29.3519303547
20
27.7822636017
11
29.5530737082
21
27.7822636017
0
LINE
5
2AB
100
AcDbEntity
8
___SYMBOL
100
AcDbLine
62
2
6
CONTINUOUS
10
29.3519303547
20
27.8857627465
11
29.3519303547
21
27.7822636017
0
LINE
5
2AC
100
AcDbEntity
8
___SYMBOL
100
AcDbLine
62
2
6
CONTINUOUS
10
29.3519303547
20
27.8857627465
11
29.5530737082
21
27.8857627465
0
LINE
5
2AD
100
AcDbEntity
8
___SYMBOL
100
AcDbLine
62
2
6
CONTINUOUS
10
29.5530737082
20
27.8857627465
11
29.5530737082
21
28.0761085984
0
LINE
5
2AE
100
AcDbEntity
8
___SYMBOL
100
AcDbLine
62
2
6
CONTINUOUS
10
29.3708694514
20
28.0761085984
11
29.5530737082
21
28.0761085984
0
LINE
5
2AF
100
AcDbEntity
8
___SYMBOL
100
AcDbLine
62
2
6
CONTINUOUS
10
29.1409348303
20
28.0761085984
11
29.3708694514
21
28.0761085984
0
LINE
5
2B0
100
AcDbEntity
8
___SYMBOL
100
AcDbLine
62
2
6
CONTINUOUS
10
29.1409348303
20
27.2948904421
11
29.1409348303
21
28.0761085984
0
LINE
5
2B1
100
AcDbEntity
8
___SYMBOL
100
AcDbLine
62
2
6
CONTINUOUS
10
29.1409348303
20
27.2948904421
11
29.5530737082
21
27.2948904421
0
LINE
5
2B2
100
AcDbEntity
8
___SYMBOL
100
AcDbLine
62
2
6
CONTINUOUS
10
29.5530737082
20
27.2948904421
11
29.5530737082
21
27.4831927746
0
LINE
5
2B3
100
AcDbEntity
8
___SYMBOL
100
AcDbLine
62
2
6
CONTINUOUS
10
29.3519303547
20
27.4831927746
11
29.5530737082
21
27.4831927746
0
LINE
5
2B4
100
AcDbEntity
8
___SYMBOL
100
AcDbLine
62
2
6
CONTINUOUS
10
29.3519303547
20
27.5897548101
11
29.3519303547
21
27.4831927746
0
LINE
5
2B5
100
AcDbEntity
8
___SYMBOL
100
AcDbLine
62
2
6
CONTINUOUS
10
29.3519303547
20
27.5897548101
11
29.5530737082
21
27.5897548101
0
SOLID
5
2B6
100
AcDbEntity
8
___SYMBOL
100
AcDbTrace
62
2
6
CONTINUOUS
10
29.5530737082
20
28.0761085984
11
29.5530737082
21
27.8857627465
12
29.3519303547
22
27.8857627465
13
29.3519303547
23
27.8857627465
0
SOLID
5
2B7
100
AcDbEntity
8
___SYMBOL
100
AcDbTrace
62
2
6
CONTINUOUS
10
29.5530737082
20
27.7822636017
11
29.5530737082
21
27.5897548101
12
29.3519303547
22
27.5897548101
13
29.3519303547
23
27.5897548101
0
SOLID
5
2B8
100
AcDbEntity
8
___SYMBOL
100
AcDbTrace
62
2
6
CONTINUOUS
10
29.5530737082
20
27.4831927746
11
29.1409348303
21
27.2948904421
12
29.3519303547
22
27.4831927746
13
29.3519303547
23
27.4831927746
0
SOLID
5
2B9
100
AcDbEntity
8
___SYMBOL
100
AcDbTrace
62
2
6
CONTINUOUS
10
29.3519303547
20
27.4831927746
11
29.1409348303
21
27.2948904421
12
29.3519303547
22
27.5897548101
13
29.3519303547
23
27.5897548101
0
SOLID
5
2BA
100
AcDbEntity
8
___SYMBOL
100
AcDbTrace
62
2
6
CONTINUOUS
10
29.5530737082
20
27.7822636017
11
29.3519303547
21
27.5897548101
12
29.3519303547
22
27.7822636017
13
29.3519303547
23
27.7822636017
0
SOLID
5
2BB
100
AcDbEntity
8
___SYMBOL
100
AcDbTrace
62
2
6
CONTINUOUS
10
29.3519303547
20
27.5897548101
11
29.1409348303
21
27.2948904421
12
29.3519303547
22
27.7822636017
13
29.3519303547
23
27.7822636017
0
SOLID
5
2BC
100
AcDbEntity
8
___SYMBOL
100
AcDbTrace
62
2
6
CONTINUOUS
10
29.3519303547
20
27.7822636017
11
29.1409348303
21
27.2948904421
12
29.3519303547
22
27.8857627465
13
29.3519303547
23
27.8857627465
0
SOLID
5
2BD
100
AcDbEntity
8
___SYMBOL
100
AcDbTrace
62
2
6
CONTINUOUS
10
29.5530737082
20
28.0761085984
11
29.3519303547
21
27.8857627465
12
29.3708694514
22
28.0761085984
13
29.3708694514
23
28.0761085984
0
SOLID
5
2BE
100
AcDbEntity
8
___SYMBOL
100
AcDbTrace
62
2
6
CONTINUOUS
10
29.3519303547
20
27.8857627465
11
29.1409348303
21
27.2948904421
12
29.3708694514
22
28.0761085984
13
29.3708694514
23
28.0761085984
0
SOLID
5
2BF
100
AcDbEntity
8
___SYMBOL
100
AcDbTrace
62
2
6
CONTINUOUS
10
29.1409348303
20
27.2948904421
11
29.1409348303
21
28.0761085984
12
29.3708694514
22
28.0761085984
13
29.3708694514
23
28.0761085984
0
SOLID
5
2C0
100
AcDbEntity
8
___SYMBOL
100
AcDbTrace
62
2
6
CONTINUOUS
10
29.5530737082
20
27.4831927746
11
29.5530737082
21
27.2948904421
12
29.1409348303
22
27.2948904421
13
29.1409348303
23
27.2948904421
0
LINE
5
2C1
100
AcDbEntity
8
___SYMBOL
100
AcDbLine
62
2
6
CONTINUOUS
10
30.2334075455
20
27.2948904421
11
30.0208165666
21
27.6303338121
0
ARC
5
2C2
100
AcDbEntity
8
___SYMBOL
100
AcDbCircle
62
2
6
CONTINUOUS
10
29.9242309083
20
27.8427625969
40
0.2333554757
100
AcDbArc
50
294.4500166359
51
90.0000000000
0
LINE
5
2C3
100
AcDbEntity
8
___SYMBOL
100
AcDbLine
62
2
6
CONTINUOUS
10
29.6128339912
20
28.0761085984
11
29.9242309083
21
28.0761085984
0
LINE
5
2C4
100
AcDbEntity
8
___SYMBOL
100
AcDbLine
62
2
6
CONTINUOUS
10
29.6128339912
20
27.2948904421
11
29.6128339912
21
28.0761085984
0
LINE
5
2C5
100
AcDbEntity
8
___SYMBOL
100
AcDbLine
62
2
6
CONTINUOUS
10
29.6128339912
20
27.2948904421
11
29.8137084103
21
27.2948904421
0
LINE
5
2C6
100
AcDbEntity
8
___SYMBOL
100
AcDbLine
62
2
6
CONTINUOUS
10
29.8137084103
20
27.5574989221
11
29.8137084103
21
27.2948904421
0
LINE
5
2C7
100
AcDbEntity
8
___SYMBOL
100
AcDbLine
62
2
6
CONTINUOUS
10
29.9801396400
20
27.2948904421
11
29.8137084103
21
27.5574989221
0
LINE
5
2C8
100
AcDbEntity
8
___SYMBOL
100
AcDbLine
62
2
6
CONTINUOUS
10
29.9801396400
20
27.2948904421
11
30.2334075455
21
27.2948904421
0
LINE
5
2C9
100
AcDbEntity
8
___SYMBOL
100
AcDbLine
62
2
6
CONTINUOUS
10
29.8137084103
20
27.7431993262
11
29.8834947400
21
27.7431993262
0
ARC
5
2CA
100
AcDbEntity
8
___SYMBOL
100
AcDbCircle
62
2
6
CONTINUOUS
10
29.8882814455
20
27.8145211883
40
0.0714823094
100
AcDbArc
50
266.1604009902
51
89.9998910512
0
LINE
5
2CB
100
AcDbEntity
8
___SYMBOL
100
AcDbLine
62
2
6
CONTINUOUS
10
29.8882815814
20
27.8860034977
11
29.8137084103
21
27.8860034977
0
LINE
5
2CC
100
AcDbEntity
8
___SYMBOL
100
AcDbLine
62
2
6
CONTINUOUS
10
29.8137084103
20
27.8860034977
11
29.8137084103
21
27.7431993262
0
SOLID
5
2CD
100
AcDbEntity
8
___SYMBOL
100
AcDbTrace
62
2
6
CONTINUOUS
10
29.9242309083
20
28.0761180726
11
29.9868082696
21
28.0675710751
12
29.6128339912
22
28.0761085984
13
29.6128339912
23
28.0761085984
0
SOLID
5
2CE
100
AcDbEntity
8
___SYMBOL
100
AcDbTrace
62
2
6
CONTINUOUS
10
29.8137084103
20
27.8860034977
11
30.1522947131
21
27.8921759447
12
29.8882815814
22
27.8860034977
13
29.8882815814
23
27.8860034977
0
SOLID
5
2CF
100
AcDbEntity
8
___SYMBOL
100
AcDbTrace
62
2
6
CONTINUOUS
10
29.8882815814
20
27.8860034977
11
30.1522947131
21
27.8921759447
12
29.9199116885
22
27.8786246070
13
29.9199116885
23
27.8786246070
0
SOLID
5
2D0
100
AcDbEntity
8
___SYMBOL
100
AcDbTrace
62
2
6
CONTINUOUS
10
29.9199116885
20
27.8786246070
11
30.1522947131
21
27.8921759447
12
29.9450116707
22
27.8580114414
13
29.9450116707
23
27.8580114414
0
SOLID
5
2D1
100
AcDbEntity
8
___SYMBOL
100
AcDbTrace
62
2
6
CONTINUOUS
10
30.1522947131
20
27.8921759447
11
30.1571923748
21
27.8292077764
12
29.9450116707
22
27.8580114414
13
29.9450116707
23
27.8580114414
0
SOLID
5
2D2
100
AcDbEntity
8
___SYMBOL
100
AcDbTrace
62
2
6
CONTINUOUS
10
29.9583995880
20
27.8284196289
11
29.9450116707
21
27.8580114414
12
30.1571923748
22
27.8292077764
13
30.1571923748
23
27.8292077764
0
SOLID
5
2D3
100
AcDbEntity
8
___SYMBOL
100
AcDbTrace
62
2
6
CONTINUOUS
10
29.9583995880
20
27.8284196289
11
30.1571923748
21
27.8292077764
12
29.9573114792
22
27.7959584564
13
29.9573114792
23
27.7959584564
0
SOLID
5
2D4
100
AcDbEntity
8
___SYMBOL
100
AcDbTrace
62
2
6
CONTINUOUS
10
29.9573114792
20
27.7959584564
11
30.1571923748
21
27.8292077764
12
29.9419719862
22
27.7673295958
13
29.9419719862
23
27.7673295958
0
SOLID
5
2D5
100
AcDbEntity
8
___SYMBOL
100
AcDbTrace
62
2
6
CONTINUOUS
10
30.1571923748
20
27.8292077764
11
30.1450249039
21
27.7672325397
12
29.9419719862
22
27.7673295958
13
29.9419719862
23
27.7673295958
0
SOLID
5
2D6
100
AcDbEntity
8
___SYMBOL
100
AcDbTrace
62
2
6
CONTINUOUS
10
29.9155479773
20
27.7484435309
11
29.9419719862
21
27.7673295958
12
30.1450249039
22
27.7672325397
13
30.1450249039
23
27.7672325397
0
SOLID
5
2D7
100
AcDbEntity
8
___SYMBOL
100
AcDbTrace
62
2
6
CONTINUOUS
10
29.9155479773
20
27.7484435309
11
30.1450249039
21
27.7672325397
12
29.8834947400
22
27.7431993262
13
29.8834947400
23
27.7431993262
0
SOLID
5
2D8
100
AcDbEntity
8
___SYMBOL
100
AcDbTrace
62
2
6
CONTINUOUS
10
30.1450249039
20
27.7672325397
11
30.1166836045
21
27.7107901084
12
29.8834947400
22
27.7431993262
13
29.8834947400
23
27.7431993262
0
SOLID
5
2D9
100
AcDbEntity
8
___SYMBOL
100
AcDbTrace
62
2
6
CONTINUOUS
10
30.0208165666
20
27.6303338121
11
29.8137084103
21
27.5574989221
12
30.0742445627
22
27.6640150612
13
30.0742445627
23
27.6640150612
0
SOLID
5
2DA
100
AcDbEntity
8
___SYMBOL
100
AcDbTrace
62
2
6
CONTINUOUS
10
30.0742445627
20
27.6640150612
11
29.8137084103
21
27.5574989221
12
30.1166836045
22
27.7107901084
13
30.1166836045
23
27.7107901084
0
SOLID
5
2DB
100
AcDbEntity
8
___SYMBOL
100
AcDbTrace
62
2
6
CONTINUOUS
10
30.1166836045
20
27.7107901084
11
29.8137084103
21
27.5574989221
12
29.8834947400
22
27.7431993262
13
29.8834947400
23
27.7431993262
0
SOLID
5
2DC
100
AcDbEntity
8
___SYMBOL
100
AcDbTrace
62
2
6
CONTINUOUS
10
29.8137084103
20
27.5574989221
11
29.6128339912
21
27.2948904421
12
29.8834947400
22
27.7431993262
13
29.8834947400
23
27.7431993262
0
SOLID
5
2DD
100
AcDbEntity
8
___SYMBOL
100
AcDbTrace
62
2
6
CONTINUOUS
10
29.8834947400
20
27.7431993262
11
29.6128339912
21
27.2948904421
12
29.8137084103
22
27.7431993262
13
29.8137084103
23
27.7431993262
0
SOLID
5
2DE
100
AcDbEntity
8
___SYMBOL
100
AcDbTrace
62
2
6
CONTINUOUS
10
29.8137084103
20
27.7431993262
11
29.6128339912
21
27.2948904421
12
29.8137084103
22
27.8860034977
13
29.8137084103
23
27.8860034977
0
SOLID
5
2DF
100
AcDbEntity
8
___SYMBOL
100
AcDbTrace
62
2
6
CONTINUOUS
10
30.1522947131
20
27.8921759447
11
29.8137084103
21
27.8860034977
12
30.1306906875
22
27.9515244358
13
30.1306906875
23
27.9515244358
0
SOLID
5
2E0
100
AcDbEntity
8
___SYMBOL
100
AcDbTrace
62
2
6
CONTINUOUS
10
30.1306906875
20
27.9515244358
11
29.8137084103
21
27.8860034977
12
30.0939628582
22
28.0029057929
13
30.0939628582
23
28.0029057929
0
SOLID
5
2E1
100
AcDbEntity
8
___SYMBOL
100
AcDbTrace
62
2
6
CONTINUOUS
10
30.0939628582
20
28.0029057929
11
29.8137084103
21
27.8860034977
12
30.0448016498
22
28.0425561762
13
30.0448016498
23
28.0425561762
0
SOLID
5
2E2
100
AcDbEntity
8
___SYMBOL
100
AcDbTrace
62
2
6
CONTINUOUS
10
30.0448016498
20
28.0425561762
11
29.8137084103
21
27.8860034977
12
29.9868082696
22
28.0675710751
13
29.9868082696
23
28.0675710751
0
SOLID
5
2E3
100
AcDbEntity
8
___SYMBOL
100
AcDbTrace
62
2
6
CONTINUOUS
10
29.9868082696
20
28.0675710751
11
29.8137084103
21
27.8860034977
12
29.6128339912
22
28.0761085984
13
29.6128339912
23
28.0761085984
0
SOLID
5
2E4
100
AcDbEntity
8
___SYMBOL
100
AcDbTrace
62
2
6
CONTINUOUS
10
29.6128339912
20
27.2948904421
11
29.6128339912
21
28.0761085984
12
29.8137084103
22
27.8860034977
13
29.8137084103
23
27.8860034977
0
SOLID
5
2E5
100
AcDbEntity
8
___SYMBOL
100
AcDbTrace
62
2
6
CONTINUOUS
10
29.8137084103
20
27.5574989221
11
29.8137084103
21
27.2948904421
12
29.6128339912
22
27.2948904421
13
29.6128339912
23
27.2948904421
0
SOLID
5
2E6
100
AcDbEntity
8
___SYMBOL
100
AcDbTrace
62
2
6
CONTINUOUS
10
29.8137084103
20
27.5574989221
11
30.0208165666
21
27.6303338121
12
29.9801396400
22
27.2948904421
13
29.9801396400
23
27.2948904421
0
SOLID
5
2E7
100
AcDbEntity
8
___SYMBOL
100
AcDbTrace
62
2
6
CONTINUOUS
10
30.0208165666
20
27.6303338121
11
30.2334075455
21
27.2948904421
12
29.9801396400
22
27.2948904421
13
29.9801396400
23
27.2948904421
0
CIRCLE
5
2E8
100
AcDbEntity
8
___SYMBOL
100
AcDbCircle
62
2
6
CONTINUOUS
10
30.4211008348
20
27.2948904421
40
0.0871438247
0
LINE
5
2E9
100
AcDbEntity
8
___SYMBOL
100
AcDbLine
62
2
6
CONTINUOUS
10
30.4153834708
20
27.2941734429
11
30.4578741521
21
27.2511028568
0
LINE
5
2EA
100
AcDbEntity
8
___SYMBOL
100
AcDbLine
62
2
6
CONTINUOUS
10
30.3999195034
20
27.2511028568
11
30.3999195034
21
27.3390577838
0
LINE
5
2EB
100
AcDbEntity
8
___SYMBOL
100
AcDbLine
62
2
6
CONTINUOUS
10
30.3999195034
20
27.3390577838
11
30.4322919455
21
27.3390577838
0
ARC
5
2EC
100
AcDbEntity
8
___SYMBOL
100
AcDbCircle
62
2
6
CONTINUOUS
10
30.4322919455
20
27.3166158522
40
0.0224419316
100
AcDbArc
50
270.0000000000
51
90.0000000000
0
LINE
5
2ED
100
AcDbEntity
8
___SYMBOL
100
AcDbLine
62
2
6
CONTINUOUS
10
30.4322919455
20
27.2941734429
11
30.3999195034
21
27.2941734429
0
ENDBLK
5
2EE
100
AcDbEntity
8
0
6
BYBLOCK
62
0
100
AcDbBlockEnd
0
BLOCK
5
2EF
100
AcDbEntity
8
0
100
AcDbBlockBegin
2
_FILLED
70
64
10
0.0000000000
20
0.0000000000
3
_FILLED
1

0
SOLID
5
2F0
100
AcDbEntity
8
0
6
BYBLOCK
62
0
100
AcDbTrace
10
0.0000000000
20
0.0000000000
11
-1.0000000000
21
0.1666666667
12
-1.0000000000
22
-0.1666666667
13
-1.0000000000
23
-0.1666666667
0
ENDBLK
5
2F1
100
AcDbEntity
8
0
6
BYBLOCK
62
0
100
AcDbBlockEnd
0
ENDSEC
0
SECTION
2
ENTITIES
0
SOLID
5
2F2
100
AcDbEntity
8
0
100
AcDbTrace
62
2
6
CONTINUOUS
10
24.2660407738
20
15.4226002945
11
24.2660407738
21
15.5577502945
12
25.2168241071
22
15.5577502945
13
25.2168241071
23
15.5577502945
0
SOLID
5
2F3
100
AcDbEntity
8
0
100
AcDbTrace
62
2
6
CONTINUOUS
10
25.2168241071
20
15.5577502945
11
25.2168241071
21
15.4226002945
12
24.2660407738
22
15.4226002945
13
24.2660407738
23
15.4226002945
0
SOLID
5
2F4
100
AcDbEntity
8
0
100
AcDbTrace
62
2
6
CONTINUOUS
10
24.2660407738
20
15.1041419612
11
24.2660407738
21
15.1430086278
12
25.2168241071
22
15.1430086278
13
25.2168241071
23
15.1430086278
0
SOLID
5
2F5
100
AcDbEntity
8
0
100
AcDbTrace
62
2
6
CONTINUOUS
10
25.2168241071
20
15.1430086278
11
25.2168241071
21
15.1041419612
12
24.2660407738
22
15.1041419612
13
24.2660407738
23
15.1041419612
0
SOLID
5
2F6
100
AcDbEntity
8
0
100
AcDbTrace
62
2
6
CONTINUOUS
10
24.3178741071
20
15.6077502945
11
24.3178741071
21
15.6762502945
12
25.2686574404
22
15.6762502945
13
25.2686574404
23
15.6762502945
0
SOLID
5
2F7
100
AcDbEntity
8
0
100
AcDbTrace
62
2
6
CONTINUOUS
10
25.2686574404
20
15.6762502945
11
25.2686574404
21
15.6077502945
12
24.3178741071
22
15.6077502945
13
24.3178741071
23
15.6077502945
0
SOLID
5
2F8
100
AcDbEntity
8
0
100
AcDbTrace
62
2
6
CONTINUOUS
10
24.3178741071
20
15.7484669612
11
24.3178741071
21
15.8169586278
12
25.2686574404
22
15.8169586278
13
25.2686574404
23
15.8169586278
0
SOLID
5
2F9
100
AcDbEntity
8
0
100
AcDbTrace
62
2
6
CONTINUOUS
10
25.2686574404
20
15.8169586278
11
25.2686574404
21
15.7484669612
12
24.3178741071
22
15.7484669612
13
24.3178741071
23
15.7484669612
0
SOLID
5
2FA
100
AcDbEntity
8
0
100
AcDbTrace
62
2
6
CONTINUOUS
10
24.3178741071
20
15.8595586278
11
24.3178741071
21
15.9280502945
12
25.2686574404
22
15.9280502945
13
25.2686574404
23
15.9280502945
0
SOLID
5
2FB
100
AcDbEntity
8
0
100
AcDbTrace
62
2
6
CONTINUOUS
10
25.2686574404
20
15.9280502945
11
25.2686574404
21
15.8595586278
12
24.3178741071
22
15.8595586278
13
24.3178741071
23
15.8595586278
0
SOLID
5
2FC
100
AcDbEntity
8
0
100
AcDbTrace
62
2
6
CONTINUOUS
10
24.3178741071
20
15.9706419612
11
24.3178741071
21
16.0391419612
12
25.2686574404
22
16.0391419612
13
25.2686574404
23
16.0391419612
0
SOLID
5
2FD
100
AcDbEntity
8
0
100
AcDbTrace
62
2
6
CONTINUOUS
10
25.2686574404
20
16.0391419612
11
25.2686574404
21
15.9706419612
12
24.3178741071
22
15.9706419612
13
24.3178741071
23
15.9706419612
0
SOLID
5
2FE
100
AcDbEntity
8
0
100
AcDbTrace
62
2
6
CONTINUOUS
10
24.3178741071
20
16.0817336278
11
24.3178741071
21
16.1502336278
12
25.2686574404
22
16.1502336278
13
25.2686574404
23
16.1502336278
0
SOLID
5
2FF
100
AcDbEntity
8
0
100
AcDbTrace
62
2
6
CONTINUOUS
10
25.2686574404
20
16.1502336278
11
25.2686574404
21
16.0817336278
12
24.3178741071
22
16.0817336278
13
24.3178741071
23
16.0817336278
0
SOLID
5
300
100
AcDbEntity
8
0
100
AcDbTrace
62
2
6
CONTINUOUS
10
26.0307157738
20
15.4226002945
11
26.0307157738
21
15.5577502945
12
26.4117741071
22
15.5577502945
13
26.4117741071
23
15.5577502945
0
SOLID
5
301
100
AcDbEntity
8
0
100
AcDbTrace
62
2
6
CONTINUOUS
10
26.4117741071
20
15.5577502945
11
26.4117741071
21
15.4226002945
12
26.0307157738
22
15.4226002945
13
26.0307157738
23
15.4226002945
0
DIMENSION
5
302
100
AcDbEntity
8
0
100
AcDbDimension
62
2
6
CONTINUOUS
2
*D0
10
21.7326915090
20
29.3038283889
11
21.7326915090
21
14.8658289730
70
160
1
<>"\P(54,6 cm)
3
DIMSTYLE_1
100
AcDbAlignedDimension
13
21.6076915090
23
7.8038288917
14
21.6076915090
24
29.3038283889
50
90.000000
100
AcDbRotatedDimension
0
DIMENSION
5
303
100
AcDbEntity
8
0
100
AcDbDimension
62
2
6
CONTINUOUS
2
*D1
10
5.5593187246
20
18.5559328212
11
19.7897424448
21
18.3996828212
70
160
1
<>"\P(82,6 cm)
3
DIMSTYLE_1
100
AcDbAlignedDimension
13
38.0593179645
23
18.6809328212
14
5.5593187246
24
18.6809328212
50
180.000000
100
AcDbRotatedDimension
0
DIMENSION
5
304
100
AcDbEntity
8
0
100
AcDbDimension
62
2
6
CONTINUOUS
2
*D2
10
7.0593175689
20
9.3038277360
11
8.1913074412
21
9.4679047092
70
164
1
<>"\P[4 cm]
3
DIMSTYLE_2
100
AcDbRadialDimension
15
6.2225037378
25
8.0589425425
0
TEXT
5
305
100
AcDbEntity
8
0
100
AcDbText
62
2
6
CONTINUOUS
10
24.2609416316
20
15.2438314139
7
STANDARD
40
0.1066666667
1
XXXXX-XX-X-XX
41
0.8500000000
72
0
100
AcDbText
0
TEXT
5
306
100
AcDbEntity
8
0
100
AcDbText
62
2
6
CONTINUOUS
10
26.2172509104
20
15.1067165445
7
STANDARD
40
0.0516666667
1
xxxxxx-xx
41
0.8000000000
72
0
100
AcDbText
0
TEXT
5
307
100
AcDbEntity
8
___NOTE
100
AcDbText
62
2
6
CONTINUOUS
10
28.6966802792
20
23.6481004101
7
STANDARD
40
0.1253333333
1
TM
41
1.0000000000
72
0
100
AcDbText
0
TEXT
5
308
100
AcDbEntity
8
___NOTE
100
AcDbText
62
2
6
CONTINUOUS
10
28.6816982906
20
22.8542740388
7
STANDARD
40
0.1253333333
1
TM
41
1.0000000000
72
0
100
AcDbText
0
TEXT
5
309
100
AcDbEntity
8
___NOTE
100
AcDbText
62
2
6
CONTINUOUS
10
28.4407379739
20
22.1436590542
7
STANDARD
40
0.1253333333
1
TM
41
1.0000000000
72
0
100
AcDbText
0
TEXT
5
30A
100
AcDbEntity
8
___NOTE
100
AcDbText
62
2
6
CONTINUOUS
10
28.3987638063
20
24.3867561404
7
STANDARD
40
0.1253333333
1
TM
41
1.0000000000
72
0
100
AcDbText
0
MTEXT
5
30B
100
AcDbEntity
8
0
100
AcDbMText
62
2
6
CONTINUOUS
7
TEXTSTYLE_1
71
1
72
1
10
23.9417247298
20
14.7695962413
30
0.0000000000
11
1.0000000000
21
0.0000000000
31
0.0000000000
3
The template and the label suffixes circled\Pmust match for proper cut-out\PA fin de realizar el corte apropiado, la plantilla y \Pos sufijos de la etiqueta demarcados deben concordar.\PA fin de découper l'ouverture correctement, le gabarit\Pet les suffix
1
es encerclés doivent correspondre.
40
0.1560000000
41
8.4240000000
0
MTEXT
5
30C
100
AcDbEntity
8
0
100
AcDbMText
62
2
6
CONTINUOUS
7
TEXTSTYLE_1
71
1
72
1
10
23.9330034148
20
17.1089230038
30
0.0000000000
11
1.0000000000
21
0.0000000000
31
0.0000000000
1
PACKAGING/UPC LABEL ON BOX\PETIQUETA DE EMBALAJE / UPC EN LA CAJA\PETIQUETTE D'EMBALLAGE / UPC SUR LA BOÎTE
40
0.1560000000
41
6.2400000000
0
MTEXT
5
30D
100
AcDbEntity
8
0
100
AcDbMText
62
2
6
CONTINUOUS
7
TEXTSTYLE_1
71
1
72
1
10
10.5171287385
20
25.8210954097
30
0.0000000000
11
1.0000000000
21
0.0000000000
31
0.0000000000
3
WHEN PLOTTING TEMPLATE FULL SIZE:\PMake sure horizontal and vertical dimensions\Pmatch the dimensions labeled on the template.\P \PAL TRAZAR UNA PLANTILLA A ESCALA,\Pasegúrese de que las dimensiones horizontales\Py verticales concuerden con las dimensione
1
s \Pmarcadas en la plantilla.\P \PAU MOMENT DE TRACER UN GABARIT À L'ÉCHELLE,\Ps'assurer que les dimensions horizotales et \Pverticales correspondent avec les dimensions \Psur le gabarit.
40
0.1560000000
41
7.0200000000
0
TEXT
5
30E
100
AcDbEntity
8
0
100
AcDbText
62
2
6
CONTINUOUS
10
8.1307926645
20
8.2685348798
7
STANDARD
40
0.0940000000
1
111029-7-AD
41
1.0000000000
72
0
100
AcDbText
0
MTEXT
5
30F
100
AcDbEntity
8
0
100
AcDbMText
62
2
6
CONTINUOUS
7
TEXTSTYLE_1
71
1
72
1
10
26.6383712316
20
27.0607604443
30
0.0000000000
11
1.0000000000
21
0.0000000000
31
0.0000000000
1
CUT-OUT TEMPLATE\PSELF-RIMMING SINK\PPLANTILLA DE RECORTE\PFREGADERO CON BORDE TERMINADO\PGABARIT\PÉVIER AVEC REBORD INTÉGRÉ\P \PRAVINIA  3224-**-NA-AB\P \PSTACCATO  3369-**-NA-AA\P \PSTACCATO  3361-**-NA-AB\P \PRAVINIA  3228-**-NA-AB
40
0.2500000000
41
7.2500000000
0
TEXT
5
310
100
AcDbEntity
8
0
100
AcDbText
62
2
6
CONTINUOUS
10
8.1307926645
20
6.7895409143
7
STANDARD
40
0.0940000000
1
111029-7-AD
41
1.0000000000
72
0
100
AcDbText
0
TEXT
5
311
100
AcDbEntity
8
0
100
AcDbText
62
2
6
CONTINUOUS
10
34.4716850484
20
8.2685348798
7
STANDARD
40
0.0940000000
1
2006 KOHLER CO.
41
1.0000000000
72
0
100
AcDbText
0
TEXT
5
312
100
AcDbEntity
8
0
100
AcDbText
62
2
6
CONTINUOUS
10
34.3962160502
20
8.2905148797
7
STANDARD
40
0.0562500000
1
C
41
1.0000000000
72
0
100
AcDbText
0
MTEXT
5
313
100
AcDbEntity
8
___NOTE
100
AcDbMText
62
2
6
CONTINUOUS
7
STANDARD
71
1
72
1
10
7.3179220915
20
12.3969570388
30
0.0000000000
11
1.0000000000
21
0.0000000000
31
0.0000000000
1
CUT ALONG THIS LINE\PCORTE A LO LARGO DE ESTA LÍNEA\PDÉCOUPER AU LONG DE CETTE LIGNE
40
0.1562500000
41
3.8750000000
0
LINE
5
314
100
AcDbEntity
8
___NOTE
100
AcDbLine
62
2
6
CONTINUOUS
10
5.5593187246
20
10.6031435627
11
7.0679220915
21
12.3188320388
0
LINE
5
315
100
AcDbEntity
8
___NOTE
100
AcDbLine
62
2
6
CONTINUOUS
10
7.0679220915
20
12.3188320388
11
7.3179220915
21
12.3188320388
0
SOLID
5
316
100
AcDbEntity
8
___NOTE
100
AcDbTrace
62
2
6
CONTINUOUS
10
5.6596628738
20
10.7645866307
11
5.5593187246
21
10.6031435627
12
5.7065987797
22
10.7233159300
13
5.7065987797
23
10.7233159300
0
MTEXT
5
317
100
AcDbEntity
8
___NOTE
100
AcDbMText
62
2
6
CONTINUOUS
7
STANDARD
71
1
72
1
10
7.0497598375
20
15.0785795782
30
0.0000000000
11
1.0000000000
21
0.0000000000
31
0.0000000000
1
RIM OF SINK\PREBORDE DE FREGADERO\PREBORD D'ÉVIER
40
0.1562500000
41
2.5000000000
0
LINE
5
318
100
AcDbEntity
8
___NOTE
100
AcDbLine
62
2
6
CONTINUOUS
10
5.3093187304
20
12.6728657640
11
6.7997598375
21
15.0004545782
0
LINE
5
319
100
AcDbEntity
8
___NOTE
100
AcDbLine
62
2
6
CONTINUOUS
10
6.7997598375
20
15.0004545782
11
7.0497598375
21
15.0004545782
0
SOLID
5
31A
100
AcDbEntity
8
___NOTE
100
AcDbTrace
62
2
6
CONTINUOUS
10
5.3841120852
20
12.8476192091
11
5.3093187304
21
12.6728657640
12
5.4367459941
22
12.8139157727
13
5.4367459941
23
12.8139157727
0
INSERT
5
31B
100
AcDbEntity
8
___SYMBOL
100
AcDbBlockReference
62
2
6
CONTINUOUS
2
KOHLER_BL0
10
28.5575243809
20
27.6445799507
0
LINE
5
31C
100
AcDbEntity
8
DEFAULT_2
100
AcDbLine
62
8
6
DASHED
10
5.3093187304
20
28.0538284182
11
5.3093187304
21
9.0538288625
0
LINE
5
31D
100
AcDbEntity
8
0
100
AcDbLine
62
7
6
CONTINUOUS
10
5.5593187246
20
27.8038284240
11
5.5593187246
21
9.3038288566
0
LINE
5
31E
100
AcDbEntity
8
DEFAULT_2
100
AcDbLine
62
8
6
DASHED
10
6.8093186954
20
7.5538288976
11
36.8093179938
21
7.5538288976
0
LINE
5
31F
100
AcDbEntity
8
0
100
AcDbLine
62
7
6
CONTINUOUS
10
7.0593186895
20
7.8038288917
11
36.5593179996
21
7.8038288917
0
LINE
5
320
100
AcDbEntity
8
0
100
AcDbLine
62
2
6
CONTINUOUS
10
26.6777074404
20
15.0032086278
11
24.1748574404
21
15.0032086278
0
LINE
5
321
100
AcDbEntity
8
0
100
AcDbLine
62
2
6
CONTINUOUS
10
26.6397574404
20
15.0781169612
11
24.2119324404
21
15.0781169612
0
LINE
5
322
100
AcDbEntity
8
DEFAULT_1
100
AcDbLine
62
2
6
CENTER
10
21.7311883464
20
30.7232653557
11
21.7311883464
21
29.3038283889
0
LINE
5
323
100
AcDbEntity
8
DEFAULT_1
100
AcDbLine
62
2
6
CENTER
10
21.7311883464
20
7.8038288917
11
21.7311883464
21
6.3843919249
0
LINE
5
324
100
AcDbEntity
8
0
100
AcDbLine
62
2
6
CONTINUOUS
10
24.2119324404
20
16.1814836278
11
26.6397574404
21
16.1814836278
0
LINE
5
325
100
AcDbEntity
8
0
100
AcDbLine
62
2
6
CONTINUOUS
10
24.1748574404
20
16.2175502945
11
26.6777074404
21
16.2175502945
0
LINE
5
326
100
AcDbEntity
8
DEFAULT_1
100
AcDbLine
62
2
6
CENTER
10
39.3416069345
20
18.5538286403
11
38.0593179645
21
18.5538286403
0
LINE
5
327
100
AcDbEntity
8
DEFAULT_1
100
AcDbLine
62
2
6
CENTER
10
5.5593187246
20
18.5538286403
11
4.2770307546
21
18.5538286403
0
LINE
5
328
100
AcDbEntity
8
0
100
AcDbLine
62
2
6
CONTINUOUS
10
24.1748574404
20
15.0032086278
11
24.1748574404
21
16.2175502945
0
LINE
5
329
100
AcDbEntity
8
0
100
AcDbLine
62
2
6
CONTINUOUS
10
24.2119324404
20
15.0781169612
11
24.2119324404
21
16.1814836278
0
LINE
5
32A
100
AcDbEntity
8
0
100
AcDbLine
62
2
6
CONTINUOUS
10
26.6397574404
20
16.1814836278
11
26.6397574404
21
15.0781169612
0
LINE
5
32B
100
AcDbEntity
8
0
100
AcDbLine
62
2
6
CONTINUOUS
10
26.6777074404
20
16.2175502945
11
26.6777074404
21
15.0032086278
0
LINE
5
32C
100
AcDbEntity
8
0
100
AcDbLine
62
7
6
CONTINUOUS
10
36.5593179996
20
29.3038283889
11
7.0593186895
21
29.3038283889
0
LINE
5
32D
100
AcDbEntity
8
DEFAULT_2
100
AcDbLine
62
8
6
DASHED
10
36.8093179938
20
29.5538283831
11
6.8093186954
21
29.5538283831
0
LINE
5
32E
100
AcDbEntity
8
0
100
AcDbLine
62
7
6
CONTINUOUS
10
38.0593179645
20
9.3038288566
11
38.0593179645
21
27.8038284240
0
LINE
5
32F
100
AcDbEntity
8
DEFAULT_2
100
AcDbLine
62
8
6
DASHED
10
38.3093179587
20
9.0538288625
11
38.3093179587
21
28.0538284182
0
ARC
5
330
100
AcDbEntity
8
DEFAULT_2
100
AcDbCircle
62
8
6
DASHED
10
6.8093175747
20
9.0538277419
40
1.4999988443
100
AcDbArc
50
179.9999571957
51
270.0000428043
0
ARC
5
331
100
AcDbEntity
8
DEFAULT_2
100
AcDbCircle
62
8
6
DASHED
10
36.8093191144
20
9.0538277419
40
1.4999988443
100
AcDbArc
50
269.9999571957
51
0.0000428043
0
ARC
5
332
100
AcDbEntity
8
DEFAULT_2
100
AcDbCircle
62
8
6
DASHED
10
36.8093191144
20
28.0538295388
40
1.4999988443
100
AcDbArc
50
359.9999571957
51
90.0000428043
0
ARC
5
333
100
AcDbEntity
8
DEFAULT_2
100
AcDbCircle
62
8
6
DASHED
10
6.8093175747
20
28.0538295388
40
1.4999988443
100
AcDbArc
50
89.9999571957
51
180.0000428043
0
CIRCLE
5
334
100
AcDbEntity
8
0
100
AcDbCircle
62
2
6
CONTINUOUS
10
34.4151960498
20
8.3188298797
40
0.0437679990
0
CIRCLE
5
335
100
AcDbEntity
8
0
100
AcDbCircle
62
2
6
CONTINUOUS
10
32.1419432325
20
23.5351934705
40
0.3350697208
0
CIRCLE
5
336
100
AcDbEntity
8
0
100
AcDbCircle
62
2
6
CONTINUOUS
10
32.1447578262
20
22.8040877640
40
0.3350697208
0
CIRCLE
5
337
100
AcDbEntity
8
0
100
AcDbCircle
62
2
6
CONTINUOUS
10
31.9054621749
20
22.0473987686
40
0.3350697208
0
CIRCLE
5
338
100
AcDbEntity
8
0
100
AcDbCircle
62
2
6
CONTINUOUS
10
31.8894288287
20
24.3051012184
40
0.3350697208
0
ARC
5
339
100
AcDbEntity
8
0
100
AcDbCircle
62
7
6
CONTINUOUS
10
7.0593175689
20
9.3038277360
40
1.4999988443
100
AcDbArc
50
179.9999571957
51
270.0000428043
0
ARC
5
33A
100
AcDbEntity
8
0
100
AcDbCircle
62
7
6
CONTINUOUS
10
36.5593191202
20
9.3038277360
40
1.4999988443
100
AcDbArc
50
269.9999571957
51
0.0000428043
0
ARC
5
33B
100
AcDbEntity
8
0
100
AcDbCircle
62
7
6
CONTINUOUS
10
36.5593191202
20
27.8038295446
40
1.4999988443
100
AcDbArc
50
359.9999571957
51
90.0000428043
0
ARC
5
33C
100
AcDbEntity
8
0
100
AcDbCircle
62
7
6
CONTINUOUS
10
7.0593175689
20
27.8038295446
40
1.4999988443
100
AcDbArc
50
89.9999571957
51
180.0000428043
0
CIRCLE
5
33D
100
AcDbEntity
8
0
100
AcDbCircle
62
7
6
CONTINUOUS
10
25.3507492899
20
15.3001159995
40
0.1077122644
0
ENDSEC
0
SECTION
2
OBJECTS
0
DICTIONARY
5
C
100
AcDbDictionary
280
0
281
1
3
ACAD_GROUP
350
D
3
ACAD_MLINESTYLE
350
17
3
ACAD_LAYOUT
350
1A
3
ACAD_PLOTSETTINGS
350
19
3
ACAD_PLOTSTYLENAME
350
E
0
DICTIONARY
5
D
102
{ACAD_REACTORS
330
C
102
}
100
AcDbDictionary
280
0
281
1
0
ACDBDICTIONARYWDFLT
5
E
102
{ACAD_REACTORS
330
C
102
}
100
AcDbDictionary
281
1
3
Normal
350
F
100
AcDbDictionaryWithDefault
340
F
0
DICTIONARY
5
17
102
{ACAD_REACTORS
330
C
102
}
100
AcDbDictionary
280
0
281
1
3
Standard
350
18
0
DICTIONARY
5
19
102
{ACAD_REACTORS
330
C
102
}
100
AcDbDictionary
281
1
0
DICTIONARY
5
1A
102
{ACAD_REACTORS
330
C
102
}
100
AcDbDictionary
281
1
3
Layout1
350
1E
3
Model
350
22
0
ACDBPLACEHOLDER
5
F
102
{ACAD_REACTORS
330
E
102
}
0
MLINESTYLE
5
18
102
{ACAD_REACTORS
330
17
102
}
100
AcDbMlineStyle
2
STANDARD
70
0
3

62
256
51
90.0
52
90.0
71
2
49
0.5
62
256
6
BYLAYER
49
-0.5
62
256
6
BYLAYER
0
LAYOUT
5
1E
102
{ACAD_REACTORS
330
1A
102
}
100
AcDbPlotSettings
1

2

4

6

40
0.0
41
0.0
42
0.0
43
0.0
44
0.0
45
0.0
46
0.0
47
0.0
48
0.0
49
0.0
140
0.0
141
0.0
142
1.0
143
1.0
70
0
72
0
73
0
74
0
7

75
0
147
1.0
148
0.0
149
0.0
100
AcDbLayout
1
Layout1
70
0
71
0
10
0.0
20
0.0
11
0.0
21
0.0
12
0.0
22
0.0
32
0.0
14
0.0
24
0.0
34
0.0
15
0.0
25
0.0
35
0.0
146
0.0
13
0.0
23
0.0
33
0.0
16
0.0
26
0.0
36
0.0
17
0.0
27
0.0
37
0.0
76
0
330
1B
331
0
345
0
346
0
0
LAYOUT
5
22
102
{ACAD_REACTORS
330
1A
102
}
100
AcDbPlotSettings
1

2

4

6

40
0.0
41
0.0
42
0.0
43
0.0
44
0.0
45
0.0
46
0.0
47
0.0
48
0.0
49
0.0
140
0.0
141
0.0
142
1.0
143
1.0
70
0
72
0
73
0
74
0
7

75
0
147
1.0
148
0.0
149
0.0
100
AcDbLayout
1
Model
70
0
71
0
10
0.0
20
0.0
11
0.0
21
0.0
12
0.0
22
0.0
32
0.0
14
0.0
24
0.0
34
0.0
15
0.0
25
0.0
35
0.0
146
0.0
13
0.0
23
0.0
33
0.0
16
0.0
26
0.0
36
0.0
17
0.0
27
0.0
37
0.0
76
0
330
1F
331
0
345
0
346
0
0
ENDSEC
0
EOF
