999
DXF file: 1032302_7_a.dxf
999
Pro/ENGINEER 2001490 by Parametric Technology Corporation
0
SECTION
2
HEADER
9
$ACADVER
1
AC1014
9
$EXTMAX
10
28.0000000000
20
25.0000000000
9
$EXTMIN
10
0.0000000000
20
0.0000000000
9
$LIMMIN
10
0.0000000000
20
0.0000000000
9
$LIMMAX
10
28.0000000000
20
25.0000000000
9
$VIEWCTR
10
14.0000000000
20
12.5000000000
9
$VIEWSIZE
40
25.0000000000
9
$CLAYER
8
0
9
$LTSCALE
40
1.6296296296
9
$CELTYPE
6
BYLAYER
9
$DIMSCALE
40
1
9
$DIMASZ
40
0.1875000000
9
$DIMEXO
40
0.1851851852
9
$DIMDLI
40
1.1259259259
9
$DIMEXE
40
0.5333333333
9
$DIMCEN
40
0.2666666667
9
$DIMLFAC
40
1.0000000000
9
$DIMTXT
40
0.1562500000
9
$DIMTOL
70
1
9
$DIMLIM
70
0
9
$DIMTFAC
40
1.0000000000
9
$DIMTP
40
0.0100000000
9
$DIMTM
40
0.0100000000
9
$HANDSEED
5
3CF
0
ENDSEC
0
SECTION
2
CLASSES
0
ENDSEC
0
SECTION
2
TABLES
0
TABLE
2
VPORT
5
8
100
AcDbSymbolTable
70
2
0
VPORT
5
1F4
100
AcDbSymbolTableRecord
100
AcDbViewportTableRecord
2
*ACTIVE
70
0
10
0.0
20
0.0
11
1.0
21
1.0
12
14.0000000000
22
12.5000000000
13
0.0
23
0.0
14
1.0
24
1.0
15
0.0
25
0.0
16
0.0
26
0.0
36
1.0
17
0.0
27
0.0
37
0.0
40
25.0000000000
41
1.1200000000
42
50.0
43
0.0
44
0.0
50
0.0
51
0.0
71
0
72
100
73
1
74
1
75
0
76
0
77
0
78
0
0
ENDTAB
0
TABLE
2
LTYPE
5
5
100
AcDbSymbolTable
70
6
0
LTYPE
5
14
100
AcDbSymbolTableRecord
100
AcDbLinetypeTableRecord
2
BYBLOCK
70
0
3

72
65
73
0
40
0.0
0
LTYPE
5
15
100
AcDbSymbolTableRecord
100
AcDbLinetypeTableRecord
2
BYLAYER
70
0
3

72
65
73
0
40
0.0
0
LTYPE
5
16
100
AcDbSymbolTableRecord
100
AcDbLinetypeTableRecord
2
CONTINUOUS
70
64
3
Solid line
72
65
73
0
40
0
0
LTYPE
5
1F5
100
AcDbSymbolTableRecord
100
AcDbLinetypeTableRecord
2
CENTER
70
64
3
____ _ ____ _ ____ _ ____ _ ____ _ ____ _ ____
72
65
73
4
40
0.6
49
0.375
74
0
49
-0.075
74
0
49
0.075
74
0
49
-0.075
74
0
0
LTYPE
5
1F6
100
AcDbSymbolTableRecord
100
AcDbLinetypeTableRecord
2
HIDDEN
70
64
3
- - - - - - - - - - - - - - - - - - - -
72
65
73
2
40
0.2
49
0.1
74
0
49
-0.1
74
0
0
LTYPE
5
1F7
100
AcDbSymbolTableRecord
100
AcDbLinetypeTableRecord
2
PHANTOM
70
64
3
_____ _ _ _____ _ _ _____ _ _ _____
72
65
73
6
40
0.8
49
0.45
74
0
49
-0.05
74
0
49
0.1
74
0
49
-0.05
74
0
49
0.1
74
0
49
-0.05
74
0
0
LTYPE
5
1F8
100
AcDbSymbolTableRecord
100
AcDbLinetypeTableRecord
2
DOT
70
64
3
. . . . . . . . . . . . . . . . . . . .
72
65
73
2
40
0.2
49
0.1
74
0
49
-0.1
74
0
0
LTYPE
5
1F9
100
AcDbSymbolTableRecord
100
AcDbLinetypeTableRecord
2
DASHED
70
64
3
- - - - - - - - - - - - - - - - - - - -
72
65
73
2
40
0.2
49
0.1
74
0
49
-0.1
74
0
0
ENDTAB
0
TABLE
2
LAYER
5
2
100
AcDbSymbolTable
70
36
0
LAYER
5
10
100
AcDbSymbolTableRecord
100
AcDbLayerTableRecord
2
0
70
0
62
7
6
CONTINUOUS
0
LAYER
5
1FA
100
AcDbSymbolTableRecord
100
AcDbLayerTableRecord
2
DEFAULT_1
70
0
62
7
6
CENTER
0
LAYER
5
1FB
100
AcDbSymbolTableRecord
100
AcDbLayerTableRecord
2
DEFAULT_2
70
0
62
8
6
HIDDEN
0
LAYER
5
1FC
100
AcDbSymbolTableRecord
100
AcDbLayerTableRecord
2
DEFAULT_3
70
0
62
7
6
PHANTOM
0
LAYER
5
1FD
100
AcDbSymbolTableRecord
100
AcDbLayerTableRecord
2
0
70
0
62
7
6
CONTINUOUS
0
LAYER
5
1FE
100
AcDbSymbolTableRecord
100
AcDbLayerTableRecord
2
ADM
70
0
62
7
6
CONTINUOUS
0
LAYER
5
1FF
100
AcDbSymbolTableRecord
100
AcDbLayerTableRecord
2
AUX
70
0
62
7
6
CONTINUOUS
0
LAYER
5
200
100
AcDbSymbolTableRecord
100
AcDbLayerTableRecord
2
BAK
70
0
62
7
6
CONTINUOUS
0
LAYER
5
201
100
AcDbSymbolTableRecord
100
AcDbLayerTableRecord
2
BOT
70
0
62
7
6
CONTINUOUS
0
LAYER
5
202
100
AcDbSymbolTableRecord
100
AcDbLayerTableRecord
2
BOTDIM
70
0
62
7
6
CONTINUOUS
0
LAYER
5
203
100
AcDbSymbolTableRecord
100
AcDbLayerTableRecord
2
FRN
70
0
62
7
6
CONTINUOUS
0
LAYER
5
204
100
AcDbSymbolTableRecord
100
AcDbLayerTableRecord
2
FRNDIM
70
0
62
7
6
CONTINUOUS
0
LAYER
5
205
100
AcDbSymbolTableRecord
100
AcDbLayerTableRecord
2
ISO
70
0
62
7
6
CONTINUOUS
0
LAYER
5
206
100
AcDbSymbolTableRecord
100
AcDbLayerTableRecord
2
LSD
70
0
62
7
6
CONTINUOUS
0
LAYER
5
207
100
AcDbSymbolTableRecord
100
AcDbLayerTableRecord
2
LSDDIM
70
0
62
7
6
CONTINUOUS
0
LAYER
5
208
100
AcDbSymbolTableRecord
100
AcDbLayerTableRecord
2
MDL
70
0
62
7
6
CONTINUOUS
0
LAYER
5
209
100
AcDbSymbolTableRecord
100
AcDbLayerTableRecord
2
PSPTBK
70
0
62
7
6
CONTINUOUS
0
LAYER
5
20A
100
AcDbSymbolTableRecord
100
AcDbLayerTableRecord
2
PSPTXT
70
0
62
7
6
CONTINUOUS
0
LAYER
5
20B
100
AcDbSymbolTableRecord
100
AcDbLayerTableRecord
2
PSPWIN
70
0
62
7
6
CONTINUOUS
0
LAYER
5
20C
100
AcDbSymbolTableRecord
100
AcDbLayerTableRecord
2
RSD
70
0
62
7
6
CONTINUOUS
0
LAYER
5
20D
100
AcDbSymbolTableRecord
100
AcDbLayerTableRecord
2
RSDDIM
70
0
62
7
6
CONTINUOUS
0
LAYER
5
20E
100
AcDbSymbolTableRecord
100
AcDbLayerTableRecord
2
SEC
70
0
62
7
6
CONTINUOUS
0
LAYER
5
20F
100
AcDbSymbolTableRecord
100
AcDbLayerTableRecord
2
TOP
70
0
62
7
6
CONTINUOUS
0
LAYER
5
210
100
AcDbSymbolTableRecord
100
AcDbLayerTableRecord
2
TOPDIM
70
0
62
7
6
CONTINUOUS
0
LAYER
5
211
100
AcDbSymbolTableRecord
100
AcDbLayerTableRecord
2
VEW
70
0
62
7
6
CONTINUOUS
0
LAYER
5
212
100
AcDbSymbolTableRecord
100
AcDbLayerTableRecord
2
___NOTE
70
0
62
7
6
CONTINUOUS
0
LAYER
5
213
100
AcDbSymbolTableRecord
100
AcDbLayerTableRecord
2
___SYMBOL
70
0
62
7
6
CONTINUOUS
0
ENDTAB
0
TABLE
2
STYLE
5
3
100
AcDbSymbolTable
70
1
0
STYLE
5
11
100
AcDbSymbolTableRecord
100
AcDbTextStyleTableRecord
2
STANDARD
70
0
40
0.0
41
0.8000000000
50
0.0
71
0
42
0.0
3
txt
4

0
STYLE
5
214
100
AcDbSymbolTableRecord
100
AcDbTextStyleTableRecord
2
TEXTSTYLE_0
70
0
40
0.0
41
0.80
50
0.0
71
0
42
0.2
3
txt
4

0
ENDTAB
0
TABLE
2
VIEW
5
6
100
AcDbSymbolTable
70
0
0
ENDTAB
0
TABLE
2
UCS
5
7
100
AcDbSymbolTable
70
0
0
ENDTAB
0
TABLE
2
APPID
5
9
100
AcDbSymbolTable
70
1
0
APPID
5
215
100
AcDbSymbolTableRecord
100
AcDbRegAppTableRecord
2
ACAD
70
0
0
ENDTAB
0
TABLE
2
DIMSTYLE
5
A
100
AcDbSymbolTable
70
1
0
DIMSTYLE
105
216
100
AcDbSymbolTableRecord
100
AcDbDimStyleTableRecord
2
STANDARD
70
0
3

4

5

6

7

40
1.0
41
0.1875000000
42
0.0625
43
0.38
44
0.18
45
0.0
46
0.0
47
0.0100000000
48
0.0100000000
140
0.1562500000
141
0.09
142
0.0
143
25.4
144
1.0000000000
145
0.0
146
1.0000000000
147
0.09
71
1
72
0
73
1
74
1
75
0
76
0
77
0
78
0
170
0
171
2
172
0
173
0
174
0
175
0
176
0
177
0
178
0
270
2
271
3
272
3
273
2
274
2
340
11
275
0
280
0
281
0
282
0
283
1
284
0
285
0
286
0
287
3
288
0
0
DIMSTYLE
105
217
100
AcDbSymbolTableRecord
100
AcDbDimStyleTableRecord
2
DIMSTYLE_1
70
0
3

4

5

6

7

40
1.0
41
0.1875000000
42
0.0625
43
0.38
44
0.18
45
0.0
46
0.0
47
0.0000000000
48
0.0000000000
140
0.2083333333
141
0.09
142
0.0
143
25.4
144
1.0000000000
145
0.0
146
1.0000000000
147
0.09
71
0
72
0
73
1
74
1
75
0
76
0
77
0
78
0
170
0
171
2
172
0
173
0
174
0
175
0
176
0
177
0
178
0
270
2
271
5
272
5
273
2
274
2
340
11
275
0
280
0
281
0
282
0
283
1
284
0
285
0
286
0
287
3
288
0
0
ENDTAB
0
TABLE
2
BLOCK_RECORD
5
1
100
AcDbSymbolTable
70
0
0
BLOCK_RECORD
5
1B
100
AcDbSymbolTableRecord
100
AcDbBlockTableRecord
2
*MODEL_SPACE
0
BLOCK_RECORD
5
1C
100
AcDbSymbolTableRecord
100
AcDbBlockTableRecord
2
*PAPER_SPACE
0
BLOCK_RECORD
5
218
100
AcDbSymbolTableRecord
100
AcDbBlockTableRecord
2
*D0
0
BLOCK_RECORD
5
219
100
AcDbSymbolTableRecord
100
AcDbBlockTableRecord
2
*D1
0
BLOCK_RECORD
5
21A
100
AcDbSymbolTableRecord
100
AcDbBlockTableRecord
2
KOHLER_BL0
0
ENDTAB
0
ENDSEC
0
SECTION
2
BLOCKS
0
BLOCK
5
1E
100
AcDbEntity
8
0
100
AcDbBlockBegin
2
*MODEL_SPACE
70
0
10
0.0
20
0.0
30
0.0
3
*MODEL_SPACE
1

0
ENDBLK
5
1F
100
AcDbEntity
8
0
100
AcDbBlockEnd
0
BLOCK
5
20
100
AcDbEntity
8
0
100
AcDbBlockBegin
2
*PAPER_SPACE
70
0
10
0.0
20
0.0
30
0.0
3
*PAPER_SPACE
1

0
ENDBLK
5
21
100
AcDbEntity
8
0
100
AcDbBlockEnd
0
BLOCK
5
21B
100
AcDbEntity
8
0
100
AcDbBlockBegin
62
2
6
CONTINUOUS
2
*D0
70
65
10
0.0000000000
20
0.0000000000
3
*D0
1

0
TEXT
5
21C
100
AcDbEntity
8
0
100
AcDbText
62
2
6
CONTINUOUS
10
9.5428076071
20
12.3579478094
7
TEXTSTYLE_0
40
0.2083333333
1
"
72
5
11
9.7094742737
21
12.3579478094
100
AcDbText
0
TEXT
5
21D
100
AcDbEntity
8
0
100
AcDbText
62
2
6
CONTINUOUS
10
8.3761409404
20
12.0454478094
7
TEXTSTYLE_0
40
0.2083333333
1
(62,2 cm)
72
5
11
9.8761409404
21
12.0454478094
100
AcDbText
0
TEXT
5
21E
100
AcDbEntity
8
0
100
AcDbText
62
2
6
CONTINUOUS
10
8.5428076071
20
12.3579478094
7
TEXTSTYLE_0
40
0.2083333333
1
24-1/2
72
5
11
9.5428076071
21
12.3579478094
100
AcDbText
0
LINE
5
21F
100
AcDbEntity
8
0
100
AcDbLine
62
2
6
CONTINUOUS
10
1.9871509905
20
12.4324785578
11
1.9871509905
21
12.5871144760
0
LINE
5
220
100
AcDbEntity
8
0
100
AcDbLine
62
2
6
CONTINUOUS
10
26.4871507028
20
12.5110711369
11
26.4871507028
21
12.5871144760
0
LINE
5
221
100
AcDbEntity
8
0
100
AcDbLine
62
2
6
CONTINUOUS
10
1.9871509905
20
12.4621144760
11
8.2719742737
21
12.4621144760
0
LINE
5
222
100
AcDbEntity
8
0
100
AcDbLine
62
2
6
CONTINUOUS
10
26.4871507028
20
12.4621144760
11
9.9803076071
21
12.4621144760
0
SOLID
5
223
100
AcDbEntity
8
0
100
AcDbTrace
62
2
6
CONTINUOUS
10
2.1746509905
20
12.4933644760
11
1.9871509905
21
12.4621144760
12
2.1746509905
22
12.4308644760
13
2.1746509905
23
12.4308644760
0
SOLID
5
224
100
AcDbEntity
8
0
100
AcDbTrace
62
2
6
CONTINUOUS
10
26.2996507028
20
12.4308644760
11
26.4871507028
21
12.4621144760
12
26.2996507028
22
12.4933644760
13
26.2996507028
23
12.4933644760
0
ENDBLK
5
225
100
AcDbEntity
8
0
100
AcDbBlockEnd
0
BLOCK
5
226
100
AcDbEntity
8
0
100
AcDbBlockBegin
62
2
6
CONTINUOUS
2
*D1
70
65
10
0.0000000000
20
0.0000000000
3
*D1
1

0
TEXT
5
227
100
AcDbEntity
8
0
100
AcDbText
62
2
6
CONTINUOUS
10
14.6549179362
20
8.2676640676
7
TEXTSTYLE_0
40
0.2083333333
1
"
72
5
11
14.8215846029
21
8.2676640676
100
AcDbText
0
TEXT
5
228
100
AcDbEntity
8
0
100
AcDbText
62
2
6
CONTINUOUS
10
13.4882512695
20
7.9551640676
7
TEXTSTYLE_0
40
0.2083333333
1
(54,6 cm)
72
5
11
14.9882512695
21
7.9551640676
100
AcDbText
0
TEXT
5
229
100
AcDbEntity
8
0
100
AcDbText
62
2
6
CONTINUOUS
10
13.6549179362
20
8.2676640676
7
TEXTSTYLE_0
40
0.2083333333
1
21-1/2
72
5
11
14.6549179362
21
8.2676640676
100
AcDbText
0
LINE
5
22A
100
AcDbEntity
8
0
100
AcDbLine
62
2
6
CONTINUOUS
10
14.2996508466
20
1.6985712631
11
14.3632512695
21
1.6985712631
0
LINE
5
22B
100
AcDbEntity
8
0
100
AcDbLine
62
2
6
CONTINUOUS
10
14.2996508466
20
23.1985710107
11
14.3632512695
21
23.1985710107
0
LINE
5
22C
100
AcDbEntity
8
0
100
AcDbLine
62
2
6
CONTINUOUS
10
14.2382512695
20
1.6985712631
11
14.2382512695
21
7.8509974009
0
LINE
5
22D
100
AcDbEntity
8
0
100
AcDbLine
62
2
6
CONTINUOUS
10
14.2382512695
20
23.1985710107
11
14.2382512695
21
8.5801640676
0
SOLID
5
22E
100
AcDbEntity
8
0
100
AcDbTrace
62
2
6
CONTINUOUS
10
14.2070012695
20
1.8860712631
11
14.2382512695
21
1.6985712631
12
14.2695012695
22
1.8860712631
13
14.2695012695
23
1.8860712631
0
SOLID
5
22F
100
AcDbEntity
8
0
100
AcDbTrace
62
2
6
CONTINUOUS
10
14.2695012695
20
23.0110710107
11
14.2382512695
21
23.1985710107
12
14.2070012695
22
23.0110710107
13
14.2070012695
23
23.0110710107
0
ENDBLK
5
230
100
AcDbEntity
8
0
100
AcDbBlockEnd
0
BLOCK
5
231
100
AcDbEntity
8
___SYMBOL
100
AcDbBlockBegin
62
2
6
CONTINUOUS
2
KOHLER_BL0
70
64
10
0.0000000000
20
0.0000000000
3
KOHLER_BL0
1

0
LINE
5
232
100
AcDbEntity
8
___SYMBOL
100
AcDbLine
62
2
6
CONTINUOUS
10
18.4151100969
20
21.0854069708
11
18.1307055100
21
20.7472092921
0
LINE
5
233
100
AcDbEntity
8
___SYMBOL
100
AcDbLine
62
2
6
CONTINUOUS
10
18.1590276948
20
21.0854069708
11
18.4151100969
21
21.0854069708
0
LINE
5
234
100
AcDbEntity
8
___SYMBOL
100
AcDbLine
62
2
6
CONTINUOUS
10
18.1590276948
20
21.0854069708
11
17.9753421493
21
20.8669787299
0
LINE
5
235
100
AcDbEntity
8
___SYMBOL
100
AcDbLine
62
2
6
CONTINUOUS
10
17.9753421493
20
21.0854069708
11
17.9753421493
21
20.8669787299
0
LINE
5
236
100
AcDbEntity
8
___SYMBOL
100
AcDbLine
62
2
6
CONTINUOUS
10
17.7426751927
20
21.0854069708
11
17.9753421493
21
21.0854069708
0
LINE
5
237
100
AcDbEntity
8
___SYMBOL
100
AcDbLine
62
2
6
CONTINUOUS
10
17.7426751927
20
21.0854069708
11
17.7426751927
21
20.3041568098
0
LINE
5
238
100
AcDbEntity
8
___SYMBOL
100
AcDbLine
62
2
6
CONTINUOUS
10
17.9753421493
20
20.3041888145
11
17.7426751927
21
20.3041568098
0
LINE
5
239
100
AcDbEntity
8
___SYMBOL
100
AcDbLine
62
2
6
CONTINUOUS
10
17.9753421493
20
20.5728552451
11
17.9753421493
21
20.3041888145
0
LINE
5
23A
100
AcDbEntity
8
___SYMBOL
100
AcDbLine
62
2
6
CONTINUOUS
10
18.1803260581
20
20.3041888145
11
17.9753421493
21
20.5728552451
0
LINE
5
23B
100
AcDbEntity
8
___SYMBOL
100
AcDbLine
62
2
6
CONTINUOUS
10
18.1803260581
20
20.3041888145
11
18.4687159377
21
20.3041888145
0
LINE
5
23C
100
AcDbEntity
8
___SYMBOL
100
AcDbLine
62
2
6
CONTINUOUS
10
18.4687159377
20
20.3041888145
11
18.1307055100
21
20.7472092921
0
SOLID
5
23D
100
AcDbEntity
8
___SYMBOL
100
AcDbTrace
62
2
6
CONTINUOUS
10
17.9753421493
20
20.8669787299
11
18.1590276948
21
21.0854069708
12
18.4151100969
22
21.0854069708
13
18.4151100969
23
21.0854069708
0
SOLID
5
23E
100
AcDbEntity
8
___SYMBOL
100
AcDbTrace
62
2
6
CONTINUOUS
10
18.4151100969
20
21.0854069708
11
18.1307055100
21
20.7472092921
12
17.9753421493
22
20.8669787299
13
17.9753421493
23
20.8669787299
0
SOLID
5
23F
100
AcDbEntity
8
___SYMBOL
100
AcDbTrace
62
2
6
CONTINUOUS
10
17.9753421493
20
20.5728552451
11
18.1307055100
21
20.7472092921
12
18.1803260581
22
20.3041888145
13
18.1803260581
23
20.3041888145
0
SOLID
5
240
100
AcDbEntity
8
___SYMBOL
100
AcDbTrace
62
2
6
CONTINUOUS
10
18.1307055100
20
20.7472092921
11
18.4687159377
21
20.3041888145
12
18.1803260581
22
20.3041888145
13
18.1803260581
23
20.3041888145
0
SOLID
5
241
100
AcDbEntity
8
___SYMBOL
100
AcDbTrace
62
2
6
CONTINUOUS
10
17.9753421493
20
20.3041888145
11
17.7426751927
21
20.3041568098
12
17.9753421493
22
20.5728552451
13
17.9753421493
23
20.5728552451
0
SOLID
5
242
100
AcDbEntity
8
___SYMBOL
100
AcDbTrace
62
2
6
CONTINUOUS
10
18.1307055100
20
20.7472092921
11
17.9753421493
21
20.5728552451
12
17.9753421493
22
20.8669787299
13
17.9753421493
23
20.8669787299
0
SOLID
5
243
100
AcDbEntity
8
___SYMBOL
100
AcDbTrace
62
2
6
CONTINUOUS
10
17.9753421493
20
20.5728552451
11
17.7426751927
21
20.3041568098
12
17.9753421493
22
20.8669787299
13
17.9753421493
23
20.8669787299
0
SOLID
5
244
100
AcDbEntity
8
___SYMBOL
100
AcDbTrace
62
2
6
CONTINUOUS
10
17.9753421493
20
20.8669787299
11
17.7426751927
21
20.3041568098
12
17.9753421493
22
21.0854069708
13
17.9753421493
23
21.0854069708
0
SOLID
5
245
100
AcDbEntity
8
___SYMBOL
100
AcDbTrace
62
2
6
CONTINUOUS
10
17.7426751927
20
20.3041568098
11
17.7426751927
21
21.0854069708
12
17.9753421493
22
21.0854069708
13
17.9753421493
23
21.0854069708
0
CIRCLE
5
246
100
AcDbEntity
8
___SYMBOL
100
AcDbCircle
62
2
6
CONTINUOUS
10
18.7040610404
20
20.6933028902
40
0.3974087662
0
CIRCLE
5
247
100
AcDbEntity
8
___SYMBOL
100
AcDbCircle
62
2
6
CONTINUOUS
10
18.7040610404
20
20.6933028902
40
0.1663592110
0
SOLID
5
248
100
AcDbEntity
8
___SYMBOL
100
AcDbTrace
62
2
6
CONTINUOUS
10
18.5812549779
20
21.0712610870
11
18.6625205127
21
21.0885346096
12
18.7456015680
22
21.0885346096
13
18.7456015680
23
21.0885346096
0
SOLID
5
249
100
AcDbEntity
8
___SYMBOL
100
AcDbTrace
62
2
6
CONTINUOUS
10
18.7456015680
20
21.0885346096
11
18.8268671028
21
21.0712610870
12
18.5812549779
22
21.0712610870
13
18.5812549779
23
21.0712610870
0
SOLID
5
24A
100
AcDbEntity
8
___SYMBOL
100
AcDbTrace
62
2
6
CONTINUOUS
10
18.5053566572
20
21.0374689775
11
18.5812549779
21
21.0712610870
12
18.8268671028
22
21.0712610870
13
18.8268671028
23
21.0712610870
0
SOLID
5
24B
100
AcDbEntity
8
___SYMBOL
100
AcDbTrace
62
2
6
CONTINUOUS
10
18.8268671028
20
21.0712610870
11
18.9027654235
21
21.0374689775
12
18.5053566572
22
21.0374689775
13
18.5053566572
23
21.0374689775
0
SOLID
5
24C
100
AcDbEntity
8
___SYMBOL
100
AcDbTrace
62
2
6
CONTINUOUS
10
18.4381426716
20
20.9886351584
11
18.5053566572
21
21.0374689775
12
18.9027654235
22
21.0374689775
13
18.9027654235
23
21.0374689775
0
SOLID
5
24D
100
AcDbEntity
8
___SYMBOL
100
AcDbTrace
62
2
6
CONTINUOUS
10
18.9027654235
20
21.0374689775
11
18.9699794091
21
20.9886351584
12
18.4381426716
22
20.9886351584
13
18.4381426716
23
20.9886351584
0
SOLID
5
24E
100
AcDbEntity
8
___SYMBOL
100
AcDbTrace
62
2
6
CONTINUOUS
10
18.3825505948
20
20.9268939021
11
18.4381426716
21
20.9886351584
12
18.9699794091
22
20.9886351584
13
18.9699794091
23
20.9886351584
0
SOLID
5
24F
100
AcDbEntity
8
___SYMBOL
100
AcDbTrace
62
2
6
CONTINUOUS
10
18.9699794091
20
20.9886351584
11
19.0255714859
21
20.9268939021
12
18.3825505948
22
20.9268939021
13
18.3825505948
23
20.9268939021
0
SOLID
5
250
100
AcDbEntity
8
___SYMBOL
100
AcDbTrace
62
2
6
CONTINUOUS
10
18.7040610404
20
20.8596621012
11
18.3410100671
21
20.8549435977
12
19.0255714859
22
20.9268939021
13
19.0255714859
23
20.9268939021
0
SOLID
5
251
100
AcDbEntity
8
___SYMBOL
100
AcDbTrace
62
2
6
CONTINUOUS
10
18.3410100671
20
20.8549435977
11
18.3825505948
21
20.9268939021
12
19.0255714859
22
20.9268939021
13
19.0255714859
23
20.9268939021
0
SOLID
5
252
100
AcDbEntity
8
___SYMBOL
100
AcDbTrace
62
2
6
CONTINUOUS
10
19.0255714859
20
20.9268939021
11
19.0671120136
21
20.8549435977
12
18.7040610404
22
20.8596621012
13
18.7040610404
23
20.8596621012
0
SOLID
5
253
100
AcDbEntity
8
___SYMBOL
100
AcDbTrace
62
2
6
CONTINUOUS
10
18.7040610404
20
20.8596621012
11
18.6526532170
21
20.8515199019
12
18.3410100671
22
20.8549435977
13
18.3410100671
23
20.8549435977
0
SOLID
5
254
100
AcDbEntity
8
___SYMBOL
100
AcDbTrace
62
2
6
CONTINUOUS
10
18.7554688637
20
20.8515199019
11
18.7040610404
21
20.8596621012
12
19.0671120136
22
20.8549435977
13
19.0671120136
23
20.8549435977
0
SOLID
5
255
100
AcDbEntity
8
___SYMBOL
100
AcDbTrace
62
2
6
CONTINUOUS
10
18.5694736115
20
20.7910863810
11
18.3153366092
21
20.7759288188
12
18.6062775495
22
20.8278903191
13
18.6062775495
23
20.8278903191
0
SOLID
5
256
100
AcDbEntity
8
___SYMBOL
100
AcDbTrace
62
2
6
CONTINUOUS
10
18.6062775495
20
20.8278903191
11
18.3153366092
21
20.7759288188
12
18.6526532170
22
20.8515199019
13
18.6526532170
23
20.8515199019
0
SOLID
5
257
100
AcDbEntity
8
___SYMBOL
100
AcDbTrace
62
2
6
CONTINUOUS
10
18.3153366092
20
20.7759288188
11
18.3410100671
21
20.8549435977
12
18.6526532170
22
20.8515199019
13
18.6526532170
23
20.8515199019
0
SOLID
5
258
100
AcDbEntity
8
___SYMBOL
100
AcDbTrace
62
2
6
CONTINUOUS
10
18.7554688637
20
20.8515199019
11
19.0671120136
21
20.8549435977
12
18.8018445312
22
20.8278903191
13
18.8018445312
23
20.8278903191
0
SOLID
5
259
100
AcDbEntity
8
___SYMBOL
100
AcDbTrace
62
2
6
CONTINUOUS
10
18.8018445312
20
20.8278903191
11
19.0671120136
21
20.8549435977
12
18.8386484692
22
20.7910863810
13
18.8386484692
23
20.7910863810
0
SOLID
5
25A
100
AcDbEntity
8
___SYMBOL
100
AcDbTrace
62
2
6
CONTINUOUS
10
19.0671120136
20
20.8549435977
11
19.0927854715
21
20.7759288188
12
18.8386484692
22
20.7910863810
13
18.8386484692
23
20.7910863810
0
SOLID
5
25B
100
AcDbEntity
8
___SYMBOL
100
AcDbTrace
62
2
6
CONTINUOUS
10
18.5694736115
20
20.7910863810
11
18.5458440287
21
20.7447107136
12
18.3153366092
22
20.7759288188
13
18.3153366092
23
20.7759288188
0
SOLID
5
25C
100
AcDbEntity
8
___SYMBOL
100
AcDbTrace
62
2
6
CONTINUOUS
10
18.8622780520
20
20.7447107136
11
18.8386484692
21
20.7910863810
12
19.0927854715
22
20.7759288188
13
19.0927854715
23
20.7759288188
0
SOLID
5
25D
100
AcDbEntity
8
___SYMBOL
100
AcDbTrace
62
2
6
CONTINUOUS
10
18.3066522741
20
20.6933028902
11
18.3153366092
21
20.7759288188
12
18.5458440287
22
20.7447107136
13
18.5458440287
23
20.7447107136
0
SOLID
5
25E
100
AcDbEntity
8
___SYMBOL
100
AcDbTrace
62
2
6
CONTINUOUS
10
18.5458440287
20
20.7447107136
11
18.5377018294
21
20.6933028902
12
18.3066522741
22
20.6933028902
13
18.3066522741
23
20.6933028902
0
SOLID
5
25F
100
AcDbEntity
8
___SYMBOL
100
AcDbTrace
62
2
6
CONTINUOUS
10
18.8622780520
20
20.7447107136
11
19.0927854715
21
20.7759288188
12
18.8704202513
22
20.6933028902
13
18.8704202513
23
20.6933028902
0
SOLID
5
260
100
AcDbEntity
8
___SYMBOL
100
AcDbTrace
62
2
6
CONTINUOUS
10
19.0927854715
20
20.7759288188
11
19.1014698066
21
20.6933028902
12
18.8704202513
22
20.6933028902
13
18.8704202513
23
20.6933028902
0
SOLID
5
261
100
AcDbEntity
8
___SYMBOL
100
AcDbTrace
62
2
6
CONTINUOUS
10
18.8622780520
20
20.6418950669
11
18.8704202513
21
20.6933028902
12
19.1014698066
22
20.6933028902
13
19.1014698066
23
20.6933028902
0
SOLID
5
262
100
AcDbEntity
8
___SYMBOL
100
AcDbTrace
62
2
6
CONTINUOUS
10
18.5458440287
20
20.6418950669
11
18.3153366092
21
20.6106769617
12
18.5377018294
22
20.6933028902
13
18.5377018294
23
20.6933028902
0
SOLID
5
263
100
AcDbEntity
8
___SYMBOL
100
AcDbTrace
62
2
6
CONTINUOUS
10
18.3153366092
20
20.6106769617
11
18.3066522741
21
20.6933028902
12
18.5377018294
22
20.6933028902
13
18.5377018294
23
20.6933028902
0
SOLID
5
264
100
AcDbEntity
8
___SYMBOL
100
AcDbTrace
62
2
6
CONTINUOUS
10
19.1014698066
20
20.6933028902
11
19.0927854715
21
20.6106769617
12
18.8622780520
22
20.6418950669
13
18.8622780520
23
20.6418950669
0
SOLID
5
265
100
AcDbEntity
8
___SYMBOL
100
AcDbTrace
62
2
6
CONTINUOUS
10
18.5458440287
20
20.6418950669
11
18.5694736115
21
20.5955193994
12
18.3153366092
22
20.6106769617
13
18.3153366092
23
20.6106769617
0
SOLID
5
266
100
AcDbEntity
8
___SYMBOL
100
AcDbTrace
62
2
6
CONTINUOUS
10
18.8386484692
20
20.5955193994
11
18.8622780520
21
20.6418950669
12
19.0927854715
22
20.6106769617
13
19.0927854715
23
20.6106769617
0
SOLID
5
267
100
AcDbEntity
8
___SYMBOL
100
AcDbTrace
62
2
6
CONTINUOUS
10
18.6526532170
20
20.5350858786
11
18.3410100671
21
20.5316621827
12
18.6062775495
22
20.5587154614
13
18.6062775495
23
20.5587154614
0
SOLID
5
268
100
AcDbEntity
8
___SYMBOL
100
AcDbTrace
62
2
6
CONTINUOUS
10
18.6062775495
20
20.5587154614
11
18.3410100671
21
20.5316621827
12
18.5694736115
22
20.5955193994
13
18.5694736115
23
20.5955193994
0
SOLID
5
269
100
AcDbEntity
8
___SYMBOL
100
AcDbTrace
62
2
6
CONTINUOUS
10
18.3410100671
20
20.5316621827
11
18.3153366092
21
20.6106769617
12
18.5694736115
22
20.5955193994
13
18.5694736115
23
20.5955193994
0
SOLID
5
26A
100
AcDbEntity
8
___SYMBOL
100
AcDbTrace
62
2
6
CONTINUOUS
10
18.8386484692
20
20.5955193994
11
19.0927854715
21
20.6106769617
12
18.8018445312
22
20.5587154614
13
18.8018445312
23
20.5587154614
0
SOLID
5
26B
100
AcDbEntity
8
___SYMBOL
100
AcDbTrace
62
2
6
CONTINUOUS
10
18.8018445312
20
20.5587154614
11
19.0927854715
21
20.6106769617
12
18.7554688637
22
20.5350858786
13
18.7554688637
23
20.5350858786
0
SOLID
5
26C
100
AcDbEntity
8
___SYMBOL
100
AcDbTrace
62
2
6
CONTINUOUS
10
19.0927854715
20
20.6106769617
11
19.0671120136
21
20.5316621827
12
18.7554688637
22
20.5350858786
13
18.7554688637
23
20.5350858786
0
SOLID
5
26D
100
AcDbEntity
8
___SYMBOL
100
AcDbTrace
62
2
6
CONTINUOUS
10
18.6526532170
20
20.5350858786
11
18.7040610404
21
20.5269436792
12
18.3410100671
22
20.5316621827
13
18.3410100671
23
20.5316621827
0
SOLID
5
26E
100
AcDbEntity
8
___SYMBOL
100
AcDbTrace
62
2
6
CONTINUOUS
10
18.7040610404
20
20.5269436792
11
18.7554688637
21
20.5350858786
12
19.0671120136
22
20.5316621827
13
19.0671120136
23
20.5316621827
0
SOLID
5
26F
100
AcDbEntity
8
___SYMBOL
100
AcDbTrace
62
2
6
CONTINUOUS
10
18.3825505948
20
20.4597118783
11
18.3410100671
21
20.5316621827
12
18.7040610404
22
20.5269436792
13
18.7040610404
23
20.5269436792
0
SOLID
5
270
100
AcDbEntity
8
___SYMBOL
100
AcDbTrace
62
2
6
CONTINUOUS
10
18.7040610404
20
20.5269436792
11
19.0671120136
21
20.5316621827
12
18.3825505948
22
20.4597118783
13
18.3825505948
23
20.4597118783
0
SOLID
5
271
100
AcDbEntity
8
___SYMBOL
100
AcDbTrace
62
2
6
CONTINUOUS
10
19.0671120136
20
20.5316621827
11
19.0255714859
21
20.4597118783
12
18.3825505948
22
20.4597118783
13
18.3825505948
23
20.4597118783
0
SOLID
5
272
100
AcDbEntity
8
___SYMBOL
100
AcDbTrace
62
2
6
CONTINUOUS
10
18.4381426716
20
20.3979706220
11
18.3825505948
21
20.4597118783
12
19.0255714859
22
20.4597118783
13
19.0255714859
23
20.4597118783
0
SOLID
5
273
100
AcDbEntity
8
___SYMBOL
100
AcDbTrace
62
2
6
CONTINUOUS
10
19.0255714859
20
20.4597118783
11
18.9699794091
21
20.3979706220
12
18.4381426716
22
20.3979706220
13
18.4381426716
23
20.3979706220
0
SOLID
5
274
100
AcDbEntity
8
___SYMBOL
100
AcDbTrace
62
2
6
CONTINUOUS
10
18.5053566572
20
20.3491368030
11
18.4381426716
21
20.3979706220
12
18.9699794091
22
20.3979706220
13
18.9699794091
23
20.3979706220
0
SOLID
5
275
100
AcDbEntity
8
___SYMBOL
100
AcDbTrace
62
2
6
CONTINUOUS
10
18.9699794091
20
20.3979706220
11
18.9027654235
21
20.3491368030
12
18.5053566572
22
20.3491368030
13
18.5053566572
23
20.3491368030
0
SOLID
5
276
100
AcDbEntity
8
___SYMBOL
100
AcDbTrace
62
2
6
CONTINUOUS
10
18.5812549779
20
20.3153446935
11
18.5053566572
21
20.3491368030
12
18.9027654235
22
20.3491368030
13
18.9027654235
23
20.3491368030
0
SOLID
5
277
100
AcDbEntity
8
___SYMBOL
100
AcDbTrace
62
2
6
CONTINUOUS
10
18.9027654235
20
20.3491368030
11
18.8268671028
21
20.3153446935
12
18.5812549779
22
20.3153446935
13
18.5812549779
23
20.3153446935
0
SOLID
5
278
100
AcDbEntity
8
___SYMBOL
100
AcDbTrace
62
2
6
CONTINUOUS
10
18.6625205127
20
20.2980711708
11
18.5812549779
21
20.3153446935
12
18.8268671028
22
20.3153446935
13
18.8268671028
23
20.3153446935
0
SOLID
5
279
100
AcDbEntity
8
___SYMBOL
100
AcDbTrace
62
2
6
CONTINUOUS
10
18.8268671028
20
20.3153446935
11
18.7456015680
21
20.2980711708
12
18.6625205127
22
20.2980711708
13
18.6625205127
23
20.2980711708
0
LINE
5
27A
100
AcDbEntity
8
___SYMBOL
100
AcDbLine
62
2
6
CONTINUOUS
10
19.7609089947
20
21.0854069708
11
19.7609089947
21
20.3041888145
0
LINE
5
27B
100
AcDbEntity
8
___SYMBOL
100
AcDbLine
62
2
6
CONTINUOUS
10
19.7609089947
20
20.3041888145
11
19.5412641003
21
20.3041888145
0
LINE
5
27C
100
AcDbEntity
8
___SYMBOL
100
AcDbLine
62
2
6
CONTINUOUS
10
19.5412641003
20
20.6086216108
11
19.5412641003
21
20.3041888145
0
LINE
5
27D
100
AcDbEntity
8
___SYMBOL
100
AcDbLine
62
2
6
CONTINUOUS
10
19.3439350296
20
20.6086216108
11
19.5412641003
21
20.6086216108
0
LINE
5
27E
100
AcDbEntity
8
___SYMBOL
100
AcDbLine
62
2
6
CONTINUOUS
10
19.3439350296
20
20.6086216108
11
19.3439350296
21
20.3041888145
0
LINE
5
27F
100
AcDbEntity
8
___SYMBOL
100
AcDbLine
62
2
6
CONTINUOUS
10
19.3439350296
20
20.3041888145
11
19.1242901352
21
20.3041888145
0
LINE
5
280
100
AcDbEntity
8
___SYMBOL
100
AcDbLine
62
2
6
CONTINUOUS
10
19.1242901352
20
21.0854069708
11
19.1242901352
21
20.3041888145
0
LINE
5
281
100
AcDbEntity
8
___SYMBOL
100
AcDbLine
62
2
6
CONTINUOUS
10
19.1242901352
20
21.0854069708
11
19.3439350296
21
21.0854069708
0
LINE
5
282
100
AcDbEntity
8
___SYMBOL
100
AcDbLine
62
2
6
CONTINUOUS
10
19.3439350296
20
21.0854069708
11
19.3439350296
21
20.7915619740
0
LINE
5
283
100
AcDbEntity
8
___SYMBOL
100
AcDbLine
62
2
6
CONTINUOUS
10
19.3439350296
20
20.7915619740
11
19.5412641003
21
20.7915619740
0
LINE
5
284
100
AcDbEntity
8
___SYMBOL
100
AcDbLine
62
2
6
CONTINUOUS
10
19.5412641003
20
21.0854069708
11
19.5412641003
21
20.7915619740
0
LINE
5
285
100
AcDbEntity
8
___SYMBOL
100
AcDbLine
62
2
6
CONTINUOUS
10
19.5412641003
20
21.0854069708
11
19.7609089947
21
21.0854069708
0
SOLID
5
286
100
AcDbEntity
8
___SYMBOL
100
AcDbTrace
62
2
6
CONTINUOUS
10
19.5412641003
20
20.7915619740
11
19.5412641003
21
21.0854069708
12
19.7609089947
22
21.0854069708
13
19.7609089947
23
21.0854069708
0
SOLID
5
287
100
AcDbEntity
8
___SYMBOL
100
AcDbTrace
62
2
6
CONTINUOUS
10
19.5412641003
20
20.7915619740
11
19.3439350296
21
20.6086216108
12
19.3439350296
22
20.7915619740
13
19.3439350296
23
20.7915619740
0
SOLID
5
288
100
AcDbEntity
8
___SYMBOL
100
AcDbTrace
62
2
6
CONTINUOUS
10
19.3439350296
20
20.6086216108
11
19.1242901352
21
20.3041888145
12
19.3439350296
22
20.7915619740
13
19.3439350296
23
20.7915619740
0
SOLID
5
289
100
AcDbEntity
8
___SYMBOL
100
AcDbTrace
62
2
6
CONTINUOUS
10
19.3439350296
20
20.7915619740
11
19.1242901352
21
20.3041888145
12
19.3439350296
22
21.0854069708
13
19.3439350296
23
21.0854069708
0
SOLID
5
28A
100
AcDbEntity
8
___SYMBOL
100
AcDbTrace
62
2
6
CONTINUOUS
10
19.1242901352
20
20.3041888145
11
19.1242901352
21
21.0854069708
12
19.3439350296
22
21.0854069708
13
19.3439350296
23
21.0854069708
0
SOLID
5
28B
100
AcDbEntity
8
___SYMBOL
100
AcDbTrace
62
2
6
CONTINUOUS
10
19.3439350296
20
20.6086216108
11
19.3439350296
21
20.3041888145
12
19.1242901352
22
20.3041888145
13
19.1242901352
23
20.3041888145
0
SOLID
5
28C
100
AcDbEntity
8
___SYMBOL
100
AcDbTrace
62
2
6
CONTINUOUS
10
19.3439350296
20
20.6086216108
11
19.5412641003
21
20.7915619740
12
19.5412641003
22
20.6086216108
13
19.5412641003
23
20.6086216108
0
SOLID
5
28D
100
AcDbEntity
8
___SYMBOL
100
AcDbTrace
62
2
6
CONTINUOUS
10
19.5412641003
20
20.7915619740
11
19.7609089947
21
21.0854069708
12
19.5412641003
22
20.6086216108
13
19.5412641003
23
20.6086216108
0
SOLID
5
28E
100
AcDbEntity
8
___SYMBOL
100
AcDbTrace
62
2
6
CONTINUOUS
10
19.5412641003
20
20.6086216108
11
19.7609089947
21
21.0854069708
12
19.5412641003
22
20.3041888145
13
19.5412641003
23
20.3041888145
0
SOLID
5
28F
100
AcDbEntity
8
___SYMBOL
100
AcDbTrace
62
2
6
CONTINUOUS
10
19.7609089947
20
21.0854069708
11
19.7609089947
21
20.3041888145
12
19.5412641003
22
20.3041888145
13
19.5412641003
23
20.3041888145
0
LINE
5
290
100
AcDbEntity
8
___SYMBOL
100
AcDbLine
62
2
6
CONTINUOUS
10
20.0210301898
20
20.3041888145
11
20.2379422711
21
20.3041888145
0
LINE
5
291
100
AcDbEntity
8
___SYMBOL
100
AcDbLine
62
2
6
CONTINUOUS
10
20.0210301898
20
20.3041888145
11
19.8209687837
21
20.3041888145
0
LINE
5
292
100
AcDbEntity
8
___SYMBOL
100
AcDbLine
62
2
6
CONTINUOUS
10
19.8209687837
20
20.3041888145
11
19.8209687837
21
21.0854069708
0
LINE
5
293
100
AcDbEntity
8
___SYMBOL
100
AcDbLine
62
2
6
CONTINUOUS
10
19.8209687837
20
21.0854069708
11
20.0210301898
21
21.0854069708
0
LINE
5
294
100
AcDbEntity
8
___SYMBOL
100
AcDbLine
62
2
6
CONTINUOUS
10
20.0210301898
20
21.0854069708
11
20.0210301898
21
20.4924911470
0
LINE
5
295
100
AcDbEntity
8
___SYMBOL
100
AcDbLine
62
2
6
CONTINUOUS
10
20.0210301898
20
20.4924911470
11
20.2379422711
21
20.4924911470
0
LINE
5
296
100
AcDbEntity
8
___SYMBOL
100
AcDbLine
62
2
6
CONTINUOUS
10
20.2379422711
20
20.4924911470
11
20.2379422711
21
20.3041888145
0
SOLID
5
297
100
AcDbEntity
8
___SYMBOL
100
AcDbTrace
62
2
6
CONTINUOUS
10
20.2379422711
20
20.4924911470
11
19.8209687837
21
20.3041888145
12
20.0210301898
22
20.4924911470
13
20.0210301898
23
20.4924911470
0
SOLID
5
298
100
AcDbEntity
8
___SYMBOL
100
AcDbTrace
62
2
6
CONTINUOUS
10
20.0210301898
20
20.4924911470
11
19.8209687837
21
20.3041888145
12
20.0210301898
22
21.0854069708
13
20.0210301898
23
21.0854069708
0
SOLID
5
299
100
AcDbEntity
8
___SYMBOL
100
AcDbTrace
62
2
6
CONTINUOUS
10
19.8209687837
20
20.3041888145
11
19.8209687837
21
21.0854069708
12
20.0210301898
22
21.0854069708
13
20.0210301898
23
21.0854069708
0
SOLID
5
29A
100
AcDbEntity
8
___SYMBOL
100
AcDbTrace
62
2
6
CONTINUOUS
10
19.8209687837
20
20.3041888145
11
20.2379422711
21
20.4924911470
12
20.0210301898
22
20.3041888145
13
20.0210301898
23
20.3041888145
0
SOLID
5
29B
100
AcDbEntity
8
___SYMBOL
100
AcDbTrace
62
2
6
CONTINUOUS
10
20.2379422711
20
20.4924911470
11
20.2379422711
21
20.3041888145
12
20.0210301898
22
20.3041888145
13
20.0210301898
23
20.3041888145
0
LINE
5
29C
100
AcDbEntity
8
___SYMBOL
100
AcDbLine
62
2
6
CONTINUOUS
10
20.6889447985
20
20.5990531825
11
20.6889447985
21
20.7915619740
0
LINE
5
29D
100
AcDbEntity
8
___SYMBOL
100
AcDbLine
62
2
6
CONTINUOUS
10
20.4878014450
20
20.7915619740
11
20.6889447985
21
20.7915619740
0
LINE
5
29E
100
AcDbEntity
8
___SYMBOL
100
AcDbLine
62
2
6
CONTINUOUS
10
20.4878014450
20
20.8950611189
11
20.4878014450
21
20.7915619740
0
LINE
5
29F
100
AcDbEntity
8
___SYMBOL
100
AcDbLine
62
2
6
CONTINUOUS
10
20.4878014450
20
20.8950611189
11
20.6889447985
21
20.8950611189
0
LINE
5
2A0
100
AcDbEntity
8
___SYMBOL
100
AcDbLine
62
2
6
CONTINUOUS
10
20.6889447985
20
20.8950611189
11
20.6889447985
21
21.0854069708
0
LINE
5
2A1
100
AcDbEntity
8
___SYMBOL
100
AcDbLine
62
2
6
CONTINUOUS
10
20.5067405417
20
21.0854069708
11
20.6889447985
21
21.0854069708
0
LINE
5
2A2
100
AcDbEntity
8
___SYMBOL
100
AcDbLine
62
2
6
CONTINUOUS
10
20.2768059206
20
21.0854069708
11
20.5067405417
21
21.0854069708
0
LINE
5
2A3
100
AcDbEntity
8
___SYMBOL
100
AcDbLine
62
2
6
CONTINUOUS
10
20.2768059206
20
20.3041888145
11
20.2768059206
21
21.0854069708
0
LINE
5
2A4
100
AcDbEntity
8
___SYMBOL
100
AcDbLine
62
2
6
CONTINUOUS
10
20.2768059206
20
20.3041888145
11
20.6889447985
21
20.3041888145
0
LINE
5
2A5
100
AcDbEntity
8
___SYMBOL
100
AcDbLine
62
2
6
CONTINUOUS
10
20.6889447985
20
20.3041888145
11
20.6889447985
21
20.4924911470
0
LINE
5
2A6
100
AcDbEntity
8
___SYMBOL
100
AcDbLine
62
2
6
CONTINUOUS
10
20.4878014450
20
20.4924911470
11
20.6889447985
21
20.4924911470
0
LINE
5
2A7
100
AcDbEntity
8
___SYMBOL
100
AcDbLine
62
2
6
CONTINUOUS
10
20.4878014450
20
20.5990531825
11
20.4878014450
21
20.4924911470
0
LINE
5
2A8
100
AcDbEntity
8
___SYMBOL
100
AcDbLine
62
2
6
CONTINUOUS
10
20.4878014450
20
20.5990531825
11
20.6889447985
21
20.5990531825
0
SOLID
5
2A9
100
AcDbEntity
8
___SYMBOL
100
AcDbTrace
62
2
6
CONTINUOUS
10
20.6889447985
20
21.0854069708
11
20.6889447985
21
20.8950611189
12
20.4878014450
22
20.8950611189
13
20.4878014450
23
20.8950611189
0
SOLID
5
2AA
100
AcDbEntity
8
___SYMBOL
100
AcDbTrace
62
2
6
CONTINUOUS
10
20.6889447985
20
20.7915619740
11
20.6889447985
21
20.5990531825
12
20.4878014450
22
20.5990531825
13
20.4878014450
23
20.5990531825
0
SOLID
5
2AB
100
AcDbEntity
8
___SYMBOL
100
AcDbTrace
62
2
6
CONTINUOUS
10
20.6889447985
20
20.4924911470
11
20.2768059206
21
20.3041888145
12
20.4878014450
22
20.4924911470
13
20.4878014450
23
20.4924911470
0
SOLID
5
2AC
100
AcDbEntity
8
___SYMBOL
100
AcDbTrace
62
2
6
CONTINUOUS
10
20.4878014450
20
20.4924911470
11
20.2768059206
21
20.3041888145
12
20.4878014450
22
20.5990531825
13
20.4878014450
23
20.5990531825
0
SOLID
5
2AD
100
AcDbEntity
8
___SYMBOL
100
AcDbTrace
62
2
6
CONTINUOUS
10
20.6889447985
20
20.7915619740
11
20.4878014450
21
20.5990531825
12
20.4878014450
22
20.7915619740
13
20.4878014450
23
20.7915619740
0
SOLID
5
2AE
100
AcDbEntity
8
___SYMBOL
100
AcDbTrace
62
2
6
CONTINUOUS
10
20.4878014450
20
20.5990531825
11
20.2768059206
21
20.3041888145
12
20.4878014450
22
20.7915619740
13
20.4878014450
23
20.7915619740
0
SOLID
5
2AF
100
AcDbEntity
8
___SYMBOL
100
AcDbTrace
62
2
6
CONTINUOUS
10
20.4878014450
20
20.7915619740
11
20.2768059206
21
20.3041888145
12
20.4878014450
22
20.8950611189
13
20.4878014450
23
20.8950611189
0
SOLID
5
2B0
100
AcDbEntity
8
___SYMBOL
100
AcDbTrace
62
2
6
CONTINUOUS
10
20.6889447985
20
21.0854069708
11
20.4878014450
21
20.8950611189
12
20.5067405417
22
21.0854069708
13
20.5067405417
23
21.0854069708
0
SOLID
5
2B1
100
AcDbEntity
8
___SYMBOL
100
AcDbTrace
62
2
6
CONTINUOUS
10
20.4878014450
20
20.8950611189
11
20.2768059206
21
20.3041888145
12
20.5067405417
22
21.0854069708
13
20.5067405417
23
21.0854069708
0
SOLID
5
2B2
100
AcDbEntity
8
___SYMBOL
100
AcDbTrace
62
2
6
CONTINUOUS
10
20.2768059206
20
20.3041888145
11
20.2768059206
21
21.0854069708
12
20.5067405417
22
21.0854069708
13
20.5067405417
23
21.0854069708
0
SOLID
5
2B3
100
AcDbEntity
8
___SYMBOL
100
AcDbTrace
62
2
6
CONTINUOUS
10
20.6889447985
20
20.4924911470
11
20.6889447985
21
20.3041888145
12
20.2768059206
22
20.3041888145
13
20.2768059206
23
20.3041888145
0
LINE
5
2B4
100
AcDbEntity
8
___SYMBOL
100
AcDbLine
62
2
6
CONTINUOUS
10
21.3692786359
20
20.3041888145
11
21.1566876569
21
20.6396321844
0
ARC
5
2B5
100
AcDbEntity
8
___SYMBOL
100
AcDbCircle
62
2
6
CONTINUOUS
10
21.0601019986
20
20.8520609693
40
0.2333554757
100
AcDbArc
50
294.4500166359
51
90.0000000000
0
LINE
5
2B6
100
AcDbEntity
8
___SYMBOL
100
AcDbLine
62
2
6
CONTINUOUS
10
20.7487050815
20
21.0854069708
11
21.0601019986
21
21.0854069708
0
LINE
5
2B7
100
AcDbEntity
8
___SYMBOL
100
AcDbLine
62
2
6
CONTINUOUS
10
20.7487050815
20
20.3041888145
11
20.7487050815
21
21.0854069708
0
LINE
5
2B8
100
AcDbEntity
8
___SYMBOL
100
AcDbLine
62
2
6
CONTINUOUS
10
20.7487050815
20
20.3041888145
11
20.9495795006
21
20.3041888145
0
LINE
5
2B9
100
AcDbEntity
8
___SYMBOL
100
AcDbLine
62
2
6
CONTINUOUS
10
20.9495795006
20
20.5667972945
11
20.9495795006
21
20.3041888145
0
LINE
5
2BA
100
AcDbEntity
8
___SYMBOL
100
AcDbLine
62
2
6
CONTINUOUS
10
21.1160107303
20
20.3041888145
11
20.9495795006
21
20.5667972945
0
LINE
5
2BB
100
AcDbEntity
8
___SYMBOL
100
AcDbLine
62
2
6
CONTINUOUS
10
21.1160107303
20
20.3041888145
11
21.3692786359
21
20.3041888145
0
LINE
5
2BC
100
AcDbEntity
8
___SYMBOL
100
AcDbLine
62
2
6
CONTINUOUS
10
20.9495795006
20
20.7524976986
11
21.0193658303
21
20.7524976986
0
ARC
5
2BD
100
AcDbEntity
8
___SYMBOL
100
AcDbCircle
62
2
6
CONTINUOUS
10
21.0241525358
20
20.8238195607
40
0.0714823094
100
AcDbArc
50
266.1604009902
51
89.9998910512
0
LINE
5
2BE
100
AcDbEntity
8
___SYMBOL
100
AcDbLine
62
2
6
CONTINUOUS
10
21.0241526717
20
20.8953018701
11
20.9495795006
21
20.8953018701
0
LINE
5
2BF
100
AcDbEntity
8
___SYMBOL
100
AcDbLine
62
2
6
CONTINUOUS
10
20.9495795006
20
20.8953018701
11
20.9495795006
21
20.7524976986
0
SOLID
5
2C0
100
AcDbEntity
8
___SYMBOL
100
AcDbTrace
62
2
6
CONTINUOUS
10
21.0601019986
20
21.0854164450
11
21.1226793599
21
21.0768694475
12
20.7487050815
22
21.0854069708
13
20.7487050815
23
21.0854069708
0
SOLID
5
2C1
100
AcDbEntity
8
___SYMBOL
100
AcDbTrace
62
2
6
CONTINUOUS
10
20.9495795006
20
20.8953018701
11
21.2881658035
21
20.9014743171
12
21.0241526717
22
20.8953018701
13
21.0241526717
23
20.8953018701
0
SOLID
5
2C2
100
AcDbEntity
8
___SYMBOL
100
AcDbTrace
62
2
6
CONTINUOUS
10
21.0241526717
20
20.8953018701
11
21.2881658035
21
20.9014743171
12
21.0557827788
22
20.8879229794
13
21.0557827788
23
20.8879229794
0
SOLID
5
2C3
100
AcDbEntity
8
___SYMBOL
100
AcDbTrace
62
2
6
CONTINUOUS
10
21.0557827788
20
20.8879229794
11
21.2881658035
21
20.9014743171
12
21.0808827610
22
20.8673098138
13
21.0808827610
23
20.8673098138
0
SOLID
5
2C4
100
AcDbEntity
8
___SYMBOL
100
AcDbTrace
62
2
6
CONTINUOUS
10
21.2881658035
20
20.9014743171
11
21.2930634651
21
20.8385061488
12
21.0808827610
22
20.8673098138
13
21.0808827610
23
20.8673098138
0
SOLID
5
2C5
100
AcDbEntity
8
___SYMBOL
100
AcDbTrace
62
2
6
CONTINUOUS
10
21.0942706784
20
20.8377180013
11
21.0808827610
21
20.8673098138
12
21.2930634651
22
20.8385061488
13
21.2930634651
23
20.8385061488
0
SOLID
5
2C6
100
AcDbEntity
8
___SYMBOL
100
AcDbTrace
62
2
6
CONTINUOUS
10
21.0942706784
20
20.8377180013
11
21.2930634651
21
20.8385061488
12
21.0931825695
22
20.8052568288
13
21.0931825695
23
20.8052568288
0
SOLID
5
2C7
100
AcDbEntity
8
___SYMBOL
100
AcDbTrace
62
2
6
CONTINUOUS
10
21.0931825695
20
20.8052568288
11
21.2930634651
21
20.8385061488
12
21.0778430766
22
20.7766279682
13
21.0778430766
23
20.7766279682
0
SOLID
5
2C8
100
AcDbEntity
8
___SYMBOL
100
AcDbTrace
62
2
6
CONTINUOUS
10
21.2930634651
20
20.8385061488
11
21.2808959942
21
20.7765309121
12
21.0778430766
22
20.7766279682
13
21.0778430766
23
20.7766279682
0
SOLID
5
2C9
100
AcDbEntity
8
___SYMBOL
100
AcDbTrace
62
2
6
CONTINUOUS
10
21.0514190676
20
20.7577419033
11
21.0778430766
21
20.7766279682
12
21.2808959942
22
20.7765309121
13
21.2808959942
23
20.7765309121
0
SOLID
5
2CA
100
AcDbEntity
8
___SYMBOL
100
AcDbTrace
62
2
6
CONTINUOUS
10
21.0514190676
20
20.7577419033
11
21.2808959942
21
20.7765309121
12
21.0193658303
22
20.7524976986
13
21.0193658303
23
20.7524976986
0
SOLID
5
2CB
100
AcDbEntity
8
___SYMBOL
100
AcDbTrace
62
2
6
CONTINUOUS
10
21.2808959942
20
20.7765309121
11
21.2525546948
21
20.7200884807
12
21.0193658303
22
20.7524976986
13
21.0193658303
23
20.7524976986
0
SOLID
5
2CC
100
AcDbEntity
8
___SYMBOL
100
AcDbTrace
62
2
6
CONTINUOUS
10
21.1566876569
20
20.6396321844
11
20.9495795006
21
20.5667972945
12
21.2101156530
22
20.6733134336
13
21.2101156530
23
20.6733134336
0
SOLID
5
2CD
100
AcDbEntity
8
___SYMBOL
100
AcDbTrace
62
2
6
CONTINUOUS
10
21.2101156530
20
20.6733134336
11
20.9495795006
21
20.5667972945
12
21.2525546948
22
20.7200884807
13
21.2525546948
23
20.7200884807
0
SOLID
5
2CE
100
AcDbEntity
8
___SYMBOL
100
AcDbTrace
62
2
6
CONTINUOUS
10
21.2525546948
20
20.7200884807
11
20.9495795006
21
20.5667972945
12
21.0193658303
22
20.7524976986
13
21.0193658303
23
20.7524976986
0
SOLID
5
2CF
100
AcDbEntity
8
___SYMBOL
100
AcDbTrace
62
2
6
CONTINUOUS
10
20.9495795006
20
20.5667972945
11
20.7487050815
21
20.3041888145
12
21.0193658303
22
20.7524976986
13
21.0193658303
23
20.7524976986
0
SOLID
5
2D0
100
AcDbEntity
8
___SYMBOL
100
AcDbTrace
62
2
6
CONTINUOUS
10
21.0193658303
20
20.7524976986
11
20.7487050815
21
20.3041888145
12
20.9495795006
22
20.7524976986
13
20.9495795006
23
20.7524976986
0
SOLID
5
2D1
100
AcDbEntity
8
___SYMBOL
100
AcDbTrace
62
2
6
CONTINUOUS
10
20.9495795006
20
20.7524976986
11
20.7487050815
21
20.3041888145
12
20.9495795006
22
20.8953018701
13
20.9495795006
23
20.8953018701
0
SOLID
5
2D2
100
AcDbEntity
8
___SYMBOL
100
AcDbTrace
62
2
6
CONTINUOUS
10
21.2881658035
20
20.9014743171
11
20.9495795006
21
20.8953018701
12
21.2665617778
22
20.9608228081
13
21.2665617778
23
20.9608228081
0
SOLID
5
2D3
100
AcDbEntity
8
___SYMBOL
100
AcDbTrace
62
2
6
CONTINUOUS
10
21.2665617778
20
20.9608228081
11
20.9495795006
21
20.8953018701
12
21.2298339485
22
21.0122041653
13
21.2298339485
23
21.0122041653
0
SOLID
5
2D4
100
AcDbEntity
8
___SYMBOL
100
AcDbTrace
62
2
6
CONTINUOUS
10
21.2298339485
20
21.0122041653
11
20.9495795006
21
20.8953018701
12
21.1806727401
22
21.0518545486
13
21.1806727401
23
21.0518545486
0
SOLID
5
2D5
100
AcDbEntity
8
___SYMBOL
100
AcDbTrace
62
2
6
CONTINUOUS
10
21.1806727401
20
21.0518545486
11
20.9495795006
21
20.8953018701
12
21.1226793599
22
21.0768694475
13
21.1226793599
23
21.0768694475
0
SOLID
5
2D6
100
AcDbEntity
8
___SYMBOL
100
AcDbTrace
62
2
6
CONTINUOUS
10
21.1226793599
20
21.0768694475
11
20.9495795006
21
20.8953018701
12
20.7487050815
22
21.0854069708
13
20.7487050815
23
21.0854069708
0
SOLID
5
2D7
100
AcDbEntity
8
___SYMBOL
100
AcDbTrace
62
2
6
CONTINUOUS
10
20.7487050815
20
20.3041888145
11
20.7487050815
21
21.0854069708
12
20.9495795006
22
20.8953018701
13
20.9495795006
23
20.8953018701
0
SOLID
5
2D8
100
AcDbEntity
8
___SYMBOL
100
AcDbTrace
62
2
6
CONTINUOUS
10
20.9495795006
20
20.5667972945
11
20.9495795006
21
20.3041888145
12
20.7487050815
22
20.3041888145
13
20.7487050815
23
20.3041888145
0
SOLID
5
2D9
100
AcDbEntity
8
___SYMBOL
100
AcDbTrace
62
2
6
CONTINUOUS
10
20.9495795006
20
20.5667972945
11
21.1566876569
21
20.6396321844
12
21.1160107303
22
20.3041888145
13
21.1160107303
23
20.3041888145
0
SOLID
5
2DA
100
AcDbEntity
8
___SYMBOL
100
AcDbTrace
62
2
6
CONTINUOUS
10
21.1566876569
20
20.6396321844
11
21.3692786359
21
20.3041888145
12
21.1160107303
22
20.3041888145
13
21.1160107303
23
20.3041888145
0
CIRCLE
5
2DB
100
AcDbEntity
8
___SYMBOL
100
AcDbCircle
62
2
6
CONTINUOUS
10
21.5569719251
20
20.3041888145
40
0.0871438247
0
LINE
5
2DC
100
AcDbEntity
8
___SYMBOL
100
AcDbLine
62
2
6
CONTINUOUS
10
21.5512545611
20
20.3034718153
11
21.5937452425
21
20.2604012291
0
LINE
5
2DD
100
AcDbEntity
8
___SYMBOL
100
AcDbLine
62
2
6
CONTINUOUS
10
21.5357905937
20
20.2604012291
11
21.5357905937
21
20.3483561562
0
LINE
5
2DE
100
AcDbEntity
8
___SYMBOL
100
AcDbLine
62
2
6
CONTINUOUS
10
21.5357905937
20
20.3483561562
11
21.5681630359
21
20.3483561562
0
ARC
5
2DF
100
AcDbEntity
8
___SYMBOL
100
AcDbCircle
62
2
6
CONTINUOUS
10
21.5681630359
20
20.3259142246
40
0.0224419316
100
AcDbArc
50
270.0000000000
51
90.0000000000
0
LINE
5
2E0
100
AcDbEntity
8
___SYMBOL
100
AcDbLine
62
2
6
CONTINUOUS
10
21.5681630359
20
20.3034718153
11
21.5357905937
21
20.3034718153
0
ENDBLK
5
2E1
100
AcDbEntity
8
0
100
AcDbBlockEnd
0
ENDSEC
0
SECTION
2
ENTITIES
0
SOLID
5
2E2
100
AcDbEntity
8
0
100
AcDbTrace
62
2
6
CONTINUOUS
10
18.1640288855
20
8.1412081405
11
18.1640288855
21
8.3214081405
12
19.4317399966
22
8.3214081405
13
19.4317399966
23
8.3214081405
0
SOLID
5
2E3
100
AcDbEntity
8
0
100
AcDbTrace
62
2
6
CONTINUOUS
10
19.4317399966
20
8.3214081405
11
19.4317399966
21
8.1412081405
12
18.1640288855
22
8.1412081405
13
18.1640288855
23
8.1412081405
0
SOLID
5
2E4
100
AcDbEntity
8
0
100
AcDbTrace
62
2
6
CONTINUOUS
10
18.1640288855
20
7.7165970294
11
18.1640288855
21
7.7684192516
12
19.4317399966
22
7.7684192516
13
19.4317399966
23
7.7684192516
0
SOLID
5
2E5
100
AcDbEntity
8
0
100
AcDbTrace
62
2
6
CONTINUOUS
10
19.4317399966
20
7.7684192516
11
19.4317399966
21
7.7165970294
12
18.1640288855
22
7.7165970294
13
18.1640288855
23
7.7165970294
0
SOLID
5
2E6
100
AcDbEntity
8
0
100
AcDbTrace
62
2
6
CONTINUOUS
10
18.2331399966
20
8.3880748072
11
18.2331399966
21
8.4794081405
12
19.5008511077
22
8.4794081405
13
19.5008511077
23
8.4794081405
0
SOLID
5
2E7
100
AcDbEntity
8
0
100
AcDbTrace
62
2
6
CONTINUOUS
10
19.5008511077
20
8.4794081405
11
19.5008511077
21
8.3880748072
12
18.2331399966
22
8.3880748072
13
18.2331399966
23
8.3880748072
0
SOLID
5
2E8
100
AcDbEntity
8
0
100
AcDbTrace
62
2
6
CONTINUOUS
10
18.2331399966
20
8.5756970294
11
18.2331399966
21
8.6670192516
12
19.5008511077
22
8.6670192516
13
19.5008511077
23
8.6670192516
0
SOLID
5
2E9
100
AcDbEntity
8
0
100
AcDbTrace
62
2
6
CONTINUOUS
10
19.5008511077
20
8.6670192516
11
19.5008511077
21
8.5756970294
12
18.2331399966
22
8.5756970294
13
18.2331399966
23
8.5756970294
0
SOLID
5
2EA
100
AcDbEntity
8
0
100
AcDbTrace
62
2
6
CONTINUOUS
10
18.2331399966
20
8.7238192516
11
18.2331399966
21
8.8151414738
12
19.5008511077
22
8.8151414738
13
19.5008511077
23
8.8151414738
0
SOLID
5
2EB
100
AcDbEntity
8
0
100
AcDbTrace
62
2
6
CONTINUOUS
10
19.5008511077
20
8.8151414738
11
19.5008511077
21
8.7238192516
12
18.2331399966
22
8.7238192516
13
18.2331399966
23
8.7238192516
0
SOLID
5
2EC
100
AcDbEntity
8
0
100
AcDbTrace
62
2
6
CONTINUOUS
10
18.2331399966
20
8.8719303627
11
18.2331399966
21
8.9632636961
12
19.5008511077
22
8.9632636961
13
19.5008511077
23
8.9632636961
0
SOLID
5
2ED
100
AcDbEntity
8
0
100
AcDbTrace
62
2
6
CONTINUOUS
10
19.5008511077
20
8.9632636961
11
19.5008511077
21
8.8719303627
12
18.2331399966
22
8.8719303627
13
18.2331399966
23
8.8719303627
0
SOLID
5
2EE
100
AcDbEntity
8
0
100
AcDbTrace
62
2
6
CONTINUOUS
10
18.2331399966
20
9.0200525849
11
18.2331399966
21
9.1113859183
12
19.5008511077
22
9.1113859183
13
19.5008511077
23
9.1113859183
0
SOLID
5
2EF
100
AcDbEntity
8
0
100
AcDbTrace
62
2
6
CONTINUOUS
10
19.5008511077
20
9.1113859183
11
19.5008511077
21
9.0200525849
12
18.2331399966
22
9.0200525849
13
18.2331399966
23
9.0200525849
0
SOLID
5
2F0
100
AcDbEntity
8
0
100
AcDbTrace
62
2
6
CONTINUOUS
10
20.5169288855
20
8.1412081405
11
20.5169288855
21
8.3214081405
12
21.0250066633
22
8.3214081405
13
21.0250066633
23
8.3214081405
0
SOLID
5
2F1
100
AcDbEntity
8
0
100
AcDbTrace
62
2
6
CONTINUOUS
10
21.0250066633
20
8.3214081405
11
21.0250066633
21
8.1412081405
12
20.5169288855
22
8.1412081405
13
20.5169288855
23
8.1412081405
0
DIMENSION
5
2F2
100
AcDbEntity
8
0
100
AcDbDimension
62
2
6
CONTINUOUS
2
*D0
10
26.4871507028
20
12.4621144760
11
9.1261409404
21
12.3058644760
70
160
1
<>"\P(62,2 cm)
3
DIMSTYLE_1
100
AcDbAlignedDimension
13
1.9871509905
23
12.5871144760
14
26.4871507028
24
12.5871144760
100
AcDbRotatedDimension
0
DIMENSION
5
2F3
100
AcDbEntity
8
0
100
AcDbDimension
62
2
6
CONTINUOUS
2
*D1
10
14.2382512695
20
23.1985710107
11
14.2382512695
21
8.2155807343
70
160
1
<>"\P(54,6 cm)
3
DIMSTYLE_1
100
AcDbAlignedDimension
13
14.3632512695
23
1.6985712631
14
14.3632512695
24
23.1985710107
50
90.000000
100
AcDbRotatedDimension
0
TEXT
5
2F4
100
AcDbEntity
8
0
100
AcDbText
62
2
6
CONTINUOUS
10
18.1572300293
20
7.9028496331
7
TEXTSTYLE_0
40
0.1422222222
1
XXXXX-XX-X-XX
72
5
11
19.7287855848
21
7.9028496331
100
AcDbText
0
TEXT
5
2F5
100
AcDbEntity
8
0
100
AcDbText
62
2
6
CONTINUOUS
10
20.7656424011
20
7.7200298072
7
TEXTSTYLE_0
40
0.0688888889
1
xxxxxx-xx
72
5
11
21.2616424011
21
7.7200298072
100
AcDbText
0
TEXT
5
2F6
100
AcDbEntity
8
0
100
AcDbText
62
2
6
CONTINUOUS
10
17.7895904594
20
7.2520723629
7
TEXTSTYLE_0
40
0.1560000000
1
The template and the label suffixes circled 
72
5
11
24.6535904594
21
7.2520723629
100
AcDbText
0
TEXT
5
2F7
100
AcDbEntity
8
0
100
AcDbText
62
2
6
CONTINUOUS
10
17.7895904594
20
7.0180723629
7
TEXTSTYLE_0
40
0.1560000000
1
must match for proper cut-out.
72
5
11
22.4695904594
21
7.0180723629
100
AcDbText
0
TEXT
5
2F8
100
AcDbEntity
8
0
100
AcDbText
62
2
6
CONTINUOUS
10
17.7895904594
20
6.7840723629
7
TEXTSTYLE_0
40
0.1560000000
1
A fin de realizar el corte apropiado, la 
72
5
11
24.1855904594
21
6.7840723629
100
AcDbText
0
TEXT
5
2F9
100
AcDbEntity
8
0
100
AcDbText
62
2
6
CONTINUOUS
10
17.7895904594
20
6.5500723629
7
TEXTSTYLE_0
40
0.1560000000
1
plantilla y los sufijos de la etiqueta 
72
5
11
23.8735904594
21
6.5500723629
100
AcDbText
0
TEXT
5
2FA
100
AcDbEntity
8
0
100
AcDbText
62
2
6
CONTINUOUS
10
17.7895904594
20
6.3160723629
7
TEXTSTYLE_0
40
0.1560000000
1
demarcados deben concordar.
72
5
11
22.0015904594
21
6.3160723629
100
AcDbText
0
TEXT
5
2FB
100
AcDbEntity
8
0
100
AcDbText
62
2
6
CONTINUOUS
10
17.7895904594
20
6.0820723629
7
TEXTSTYLE_0
40
0.1560000000
1
Afin de découper l'ouverture correctement, 
72
5
11
24.4975904594
21
6.0820723629
100
AcDbText
0
TEXT
5
2FC
100
AcDbEntity
8
0
100
AcDbText
62
2
6
CONTINUOUS
10
17.7895904594
20
5.8480723629
7
TEXTSTYLE_0
40
0.1560000000
1
le plan et les suffixes encerclés doivent 
72
5
11
24.3415904594
21
5.8480723629
100
AcDbText
0
TEXT
5
2FD
100
AcDbEntity
8
0
100
AcDbText
62
2
6
CONTINUOUS
10
17.7895904594
20
5.6140723629
7
TEXTSTYLE_0
40
0.1560000000
1
correspondre.
72
5
11
19.8175904594
21
5.6140723629
100
AcDbText
0
TEXT
5
2FE
100
AcDbEntity
8
0
100
AcDbText
62
2
6
CONTINUOUS
10
17.7308836868
20
9.8645237413
7
TEXTSTYLE_0
40
0.1560000000
1
PACKAGING/UPC LABEL ON BOX
72
5
11
21.7868836868
21
9.8645237413
100
AcDbText
0
TEXT
5
2FF
100
AcDbEntity
8
0
100
AcDbText
62
2
6
CONTINUOUS
10
17.7308836868
20
9.6305237413
7
TEXTSTYLE_0
40
0.1560000000
1
ETIQUETA DE EMBALAJE / UPC EN LA CAJA
72
5
11
23.5028836868
21
9.6305237413
100
AcDbText
0
TEXT
5
300
100
AcDbEntity
8
0
100
AcDbText
62
2
6
CONTINUOUS
10
17.7308836868
20
9.3965237413
7
TEXTSTYLE_0
40
0.1560000000
1
ETIQUETTE D'EMBALLAGE / UPC SUR LA BOÎTE
72
5
11
23.9708836868
21
9.3965237413
100
AcDbText
0
TEXT
5
301
100
AcDbEntity
8
0
100
AcDbText
62
2
6
CONTINUOUS
10
4.6406513845
20
18.8096553706
7
TEXTSTYLE_0
40
0.1560000000
1
WHEN PLOTTING TEMPLATE FULL SIZE: 
72
5
11
9.9446513845
21
18.8096553706
100
AcDbText
0
TEXT
5
302
100
AcDbEntity
8
0
100
AcDbText
62
2
6
CONTINUOUS
10
4.6406513845
20
18.5756553706
7
TEXTSTYLE_0
40
0.1560000000
1
Make sure horizontal and vertical dimensions match 
72
5
11
12.5966513845
21
18.5756553706
100
AcDbText
0
TEXT
5
303
100
AcDbEntity
8
0
100
AcDbText
62
2
6
CONTINUOUS
10
4.6406513845
20
18.3416553706
7
TEXTSTYLE_0
40
0.1560000000
1
the dimensions labeled on the template.
72
5
11
10.7246513845
21
18.3416553706
100
AcDbText
0
TEXT
5
304
100
AcDbEntity
8
0
100
AcDbText
62
2
6
CONTINUOUS
10
4.6406513845
20
18.1076553706
7
TEXTSTYLE_0
40
0.1560000000
1
 
72
5
11
4.7966513845
21
18.1076553706
100
AcDbText
0
TEXT
5
305
100
AcDbEntity
8
0
100
AcDbText
62
2
6
CONTINUOUS
10
4.6406513845
20
17.8736553706
7
TEXTSTYLE_0
40
0.1560000000
1
AL TRAZAR LA PLANTILLA A ESCALA,  
72
5
11
9.9446513845
21
17.8736553706
100
AcDbText
0
TEXT
5
306
100
AcDbEntity
8
0
100
AcDbText
62
2
6
CONTINUOUS
10
4.6406513845
20
17.6396553706
7
TEXTSTYLE_0
40
0.1560000000
1
asegúrese de que las dimensiones horizontales y 
72
5
11
12.1286513845
21
17.6396553706
100
AcDbText
0
TEXT
5
307
100
AcDbEntity
8
0
100
AcDbText
62
2
6
CONTINUOUS
10
4.6406513845
20
17.4056553706
7
TEXTSTYLE_0
40
0.1560000000
1
verticales concuerden con las dimensiones marcadas 
72
5
11
12.5966513845
21
17.4056553706
100
AcDbText
0
TEXT
5
308
100
AcDbEntity
8
0
100
AcDbText
62
2
6
CONTINUOUS
10
4.6406513845
20
17.1716553706
7
TEXTSTYLE_0
40
0.1560000000
1
en la plantilla.
72
5
11
7.1366513845
21
17.1716553706
100
AcDbText
0
TEXT
5
309
100
AcDbEntity
8
0
100
AcDbText
62
2
6
CONTINUOUS
10
4.6406513845
20
16.9376553706
7
TEXTSTYLE_0
40
0.1560000000
1
 
72
5
11
4.7966513845
21
16.9376553706
100
AcDbText
0
TEXT
5
30A
100
AcDbEntity
8
0
100
AcDbText
62
2
6
CONTINUOUS
10
4.6406513845
20
16.7036553706
7
TEXTSTYLE_0
40
0.1560000000
1
AU MOMENT DE TRACER LA DÉCOUPE À L'ÉCHELLE,  
72
5
11
11.6606513845
21
16.7036553706
100
AcDbText
0
TEXT
5
30B
100
AcDbEntity
8
0
100
AcDbText
62
2
6
CONTINUOUS
10
4.6406513845
20
16.4696553706
7
TEXTSTYLE_0
40
0.1560000000
1
Assurez vos que les dimensions horizotales et 
72
5
11
11.8166513845
21
16.4696553706
100
AcDbText
0
TEXT
5
30C
100
AcDbEntity
8
0
100
AcDbText
62
2
6
CONTINUOUS
10
4.6406513845
20
16.2356553706
7
TEXTSTYLE_0
40
0.1560000000
1
verticales correspondent avec les dimensions 
72
5
11
11.6606513845
21
16.2356553706
100
AcDbText
0
TEXT
5
30D
100
AcDbEntity
8
0
100
AcDbText
62
2
6
CONTINUOUS
10
4.6406513845
20
16.0016553706
7
TEXTSTYLE_0
40
0.1560000000
1
du plan.
72
5
11
5.8886513845
21
16.0016553706
100
AcDbText
0
TEXT
5
30E
100
AcDbEntity
8
0
100
AcDbText
62
2
6
CONTINUOUS
10
3.2048739762
20
2.2854492557
7
TEXTSTYLE_0
40
0.0940000000
1
1032302-7-A
72
5
11
4.2388739762
21
2.2854492557
100
AcDbText
0
TEXT
5
30F
100
AcDbEntity
8
0
100
AcDbText
62
2
6
CONTINUOUS
10
17.7168910793
20
19.8408431262
7
TEXTSTYLE_0
40
0.2500000000
1
CUT-OUT TEMPLATE
72
5
11
21.7168910793
21
19.8408431262
100
AcDbText
0
TEXT
5
310
100
AcDbEntity
8
0
100
AcDbText
62
2
6
CONTINUOUS
10
17.7168910793
20
19.4658431262
7
TEXTSTYLE_0
40
0.2500000000
1
SELF-RIMMING SINK
72
5
11
21.9668910793
21
19.4658431262
100
AcDbText
0
TEXT
5
311
100
AcDbEntity
8
0
100
AcDbText
62
2
6
CONTINUOUS
10
17.7168910793
20
19.0908431262
7
TEXTSTYLE_0
40
0.2500000000
1
PLANTILLA DE RECORTE
72
5
11
22.7168910793
21
19.0908431262
100
AcDbText
0
TEXT
5
312
100
AcDbEntity
8
0
100
AcDbText
62
2
6
CONTINUOUS
10
17.7168910793
20
18.7158431262
7
TEXTSTYLE_0
40
0.2500000000
1
FREGADERO CON BORDE TERMINADO
72
5
11
24.9668910793
21
18.7158431262
100
AcDbText
0
TEXT
5
313
100
AcDbEntity
8
0
100
AcDbText
62
2
6
CONTINUOUS
10
17.7168910793
20
18.3408431262
7
TEXTSTYLE_0
40
0.2500000000
1
PLAN DE DÉCOUPE
72
5
11
21.4668910793
21
18.3408431262
100
AcDbText
0
TEXT
5
314
100
AcDbEntity
8
0
100
AcDbText
62
2
6
CONTINUOUS
10
17.7168910793
20
17.9658431262
7
TEXTSTYLE_0
40
0.2500000000
1
ÉVIER AVEC REBORD INTÉGRÉ
72
5
11
23.9668910793
21
17.9658431262
100
AcDbText
0
TEXT
5
315
100
AcDbEntity
8
0
100
AcDbText
62
2
6
CONTINUOUS
10
17.7168910793
20
17.5908431262
7
TEXTSTYLE_0
40
0.2500000000
1
 
72
5
11
17.9668910793
21
17.5908431262
100
AcDbText
0
TEXT
5
316
100
AcDbEntity
8
0
100
AcDbText
62
2
6
CONTINUOUS
10
17.7168910793
20
17.2158431262
7
TEXTSTYLE_0
40
0.2500000000
1
BALLAD  3258-**-NA-AA
72
5
11
22.9668910793
21
17.2158431262
100
AcDbText
0
TEXT
5
317
100
AcDbEntity
8
0
100
AcDbText
62
2
6
CONTINUOUS
10
17.7168910793
20
16.8408431262
7
TEXTSTYLE_0
40
0.2500000000
1
 
72
5
11
17.9668910793
21
16.8408431262
100
AcDbText
0
TEXT
5
318
100
AcDbEntity
8
0
100
AcDbText
62
2
6
CONTINUOUS
10
17.7168910793
20
16.4658431262
7
TEXTSTYLE_0
40
0.2500000000
1
LYRIC  3288-**-NA-AA
72
5
11
22.7168910793
21
16.4658431262
100
AcDbText
0
TEXT
5
319
100
AcDbEntity
8
0
100
AcDbText
62
2
6
CONTINUOUS
10
17.7168910793
20
16.0908431262
7
TEXTSTYLE_0
40
0.2500000000
1
 
72
5
11
17.9668910793
21
16.0908431262
100
AcDbText
0
TEXT
5
31A
100
AcDbEntity
8
0
100
AcDbText
62
2
6
CONTINUOUS
10
17.7168910793
20
15.7158431262
7
TEXTSTYLE_0
40
0.2500000000
1
RAVINIA  3300-**-NA-AA
72
5
11
23.2168910793
21
15.7158431262
100
AcDbText
0
TEXT
5
31B
100
AcDbEntity
8
0
100
AcDbText
62
2
6
CONTINUOUS
10
17.7168910793
20
15.3408431262
7
TEXTSTYLE_0
40
0.2500000000
1
 
72
5
11
17.9668910793
21
15.3408431262
100
AcDbText
0
TEXT
5
31C
100
AcDbEntity
8
0
100
AcDbText
62
2
6
CONTINUOUS
10
17.7168910793
20
14.9658431262
7
TEXTSTYLE_0
40
0.2500000000
1
TOCCATA  3348-**-NA-AA
72
5
11
23.2168910793
21
14.9658431262
100
AcDbText
0
TEXT
5
31D
100
AcDbEntity
8
0
100
AcDbText
62
2
6
CONTINUOUS
10
19.2300120844
20
17.4026504951
7
TEXTSTYLE_0
40
0.0940000000
1
TM
72
5
11
19.4180120844
21
17.4026504951
100
AcDbText
0
TEXT
5
31E
100
AcDbEntity
8
0
100
AcDbText
62
2
6
CONTINUOUS
10
3.2048739762
20
0.8064552731
7
TEXTSTYLE_0
40
0.0940000000
1
1032302-7-A
72
5
11
4.2388739762
21
0.8064552731
100
AcDbText
0
TEXT
5
31F
100
AcDbEntity
8
0
100
AcDbText
62
2
6
CONTINUOUS
10
23.7756807346
20
2.2854492557
7
TEXTSTYLE_0
40
0.0940000000
1
2003 KOHLER CO.
72
5
11
25.1856807346
21
2.2854492557
100
AcDbText
0
TEXT
5
320
100
AcDbEntity
8
0
100
AcDbText
62
2
6
CONTINUOUS
10
23.6870967357
20
2.3074285890
7
TEXTSTYLE_0
40
0.0562493333
1
C
72
5
11
23.7433460690
21
2.3074285890
100
AcDbText
0
SOLID
5
321
100
AcDbEntity
8
___NOTE
100
AcDbTrace
62
2
6
CONTINUOUS
10
1.7371509934
20
8.9421268540
11
1.8645997132
21
9.0831574759
12
1.9034502544
22
9.0341994792
13
1.9034502544
23
9.0341994792
0
TEXT
5
322
100
AcDbEntity
8
___NOTE
100
AcDbText
62
2
6
CONTINUOUS
10
3.7091154651
20
10.2044223799
7
TEXTSTYLE_0
40
0.2083333333
1
RIM OF SINK
72
5
11
5.5424487985
21
10.2044223799
100
AcDbText
0
TEXT
5
323
100
AcDbEntity
8
___NOTE
100
AcDbText
62
2
6
CONTINUOUS
10
3.7091154651
20
9.8919223799
7
TEXTSTYLE_0
40
0.2083333333
1
REBORDE DE FREGADERO
72
5
11
7.0424487985
21
9.8919223799
100
AcDbText
0
TEXT
5
324
100
AcDbEntity
8
___NOTE
100
AcDbText
62
2
6
CONTINUOUS
10
3.7091154651
20
9.5794223799
7
TEXTSTYLE_0
40
0.2083333333
1
REBORD D'ÉVIER
72
5
11
6.0424487985
21
9.5794223799
100
AcDbText
0
SOLID
5
325
100
AcDbEntity
8
___NOTE
100
AcDbTrace
62
2
6
CONTINUOUS
10
1.9871509905
20
6.7216257910
11
2.1181577569
21
6.8593575580
12
2.1557460723
22
6.8094239166
13
2.1557460723
23
6.8094239166
0
TEXT
5
326
100
AcDbEntity
8
___NOTE
100
AcDbText
62
2
6
CONTINUOUS
10
3.4041015829
20
7.4958991053
7
TEXTSTYLE_0
40
0.2083333333
1
CUT ALONG THIS LINE
72
5
11
6.5707682495
21
7.4958991053
100
AcDbText
0
TEXT
5
327
100
AcDbEntity
8
___NOTE
100
AcDbText
62
2
6
CONTINUOUS
10
3.4041015829
20
7.1833991053
7
TEXTSTYLE_0
40
0.2083333333
1
CORTE A LO LARGO DE ESTA LÍNEA
72
5
11
8.4041015829
21
7.1833991053
100
AcDbText
0
TEXT
5
328
100
AcDbEntity
8
___NOTE
100
AcDbText
62
2
6
CONTINUOUS
10
3.4041015829
20
6.8708991053
7
TEXTSTYLE_0
40
0.2083333333
1
DÉCOUPEZ LE LONG DE CETTE LIGNE
72
5
11
8.5707682495
21
6.8708991053
100
AcDbText
0
TEXT
5
329
100
AcDbEntity
8
0
100
AcDbText
62
2
6
CONTINUOUS
10
18.9777690814
20
16.6525594598
7
TEXTSTYLE_0
40
0.0940000000
1
TM
72
5
11
19.1657690814
21
16.6525594598
100
AcDbText
0
TEXT
5
32A
100
AcDbEntity
8
0
100
AcDbText
62
2
6
CONTINUOUS
10
19.4756171137
20
15.8825545032
7
TEXTSTYLE_0
40
0.0940000000
1
TM
72
5
11
19.6636171137
21
15.8825545032
100
AcDbText
0
TEXT
5
32B
100
AcDbEntity
8
0
100
AcDbText
62
2
6
CONTINUOUS
10
19.4689791399
20
15.1191875204
7
TEXTSTYLE_0
40
0.0940000000
1
TM
72
5
11
19.6569791399
21
15.1191875204
100
AcDbText
0
INSERT
5
32C
100
AcDbEntity
8
___SYMBOL
100
AcDbBlockReference
62
2
6
CONTINUOUS
2
KOHLER_BL0
10
0.0000000000
20
0.0000000000
0
LINE
5
32D
100
AcDbEntity
8
DEFAULT_2
100
AcDbLine
62
8
6
CONTINUOUS
10
1.7371509934
20
23.4485710078
11
1.7371509934
21
1.4485712661
0
LINE
5
32E
100
AcDbEntity
8
0
100
AcDbLine
62
7
6
CONTINUOUS
10
1.9871509905
20
22.6985710166
11
1.9871509905
21
2.1985712573
0
LINE
5
32F
100
AcDbEntity
8
DEFAULT_2
100
AcDbLine
62
8
6
CONTINUOUS
10
1.7371509934
20
1.4485712661
11
26.7371506999
21
1.4485712661
0
LINE
5
330
100
AcDbEntity
8
0
100
AcDbLine
62
7
6
CONTINUOUS
10
2.4871509846
20
1.6985712631
11
25.9871507087
21
1.6985712631
0
LINE
5
331
100
AcDbEntity
8
0
100
AcDbLine
62
2
6
CONTINUOUS
10
21.3795844410
20
7.5820192516
11
18.0424511077
21
7.5820192516
0
LINE
5
332
100
AcDbEntity
8
0
100
AcDbLine
62
2
6
CONTINUOUS
10
21.3289844410
20
7.6818970294
11
18.0918844410
21
7.6818970294
0
LINE
5
333
100
AcDbEntity
8
0
100
AcDbLine
62
2
6
CONTINUOUS
10
18.0918844410
20
9.1530525849
11
21.3289844410
21
9.1530525849
0
LINE
5
334
100
AcDbEntity
8
0
100
AcDbLine
62
2
6
CONTINUOUS
10
18.0424511077
20
9.2011414738
11
21.3795844410
21
9.2011414738
0
LINE
5
335
100
AcDbEntity
8
0
100
AcDbLine
62
7
6
CONTINUOUS
10
22.6831410168
20
17.6372966705
11
22.6256120174
21
17.6176526707
0
LINE
5
336
100
AcDbEntity
8
0
100
AcDbLine
62
7
6
CONTINUOUS
10
22.4308980138
20
16.8872056352
11
22.3733690144
21
16.8675616354
0
LINE
5
337
100
AcDbEntity
8
0
100
AcDbLine
62
7
6
CONTINUOUS
10
22.8234700151
20
17.0318266776
11
22.8811320144
21
17.0510776774
0
LINE
5
338
100
AcDbEntity
8
0
100
AcDbLine
62
7
6
CONTINUOUS
10
22.6256120174
20
17.6176526707
11
22.5730080181
21
17.5871856711
0
LINE
5
339
100
AcDbEntity
8
0
100
AcDbLine
62
7
6
CONTINUOUS
10
22.9287460460
20
16.1172006786
11
22.8712170467
21
16.0975566788
0
LINE
5
33A
100
AcDbEntity
8
0
100
AcDbLine
62
7
6
CONTINUOUS
10
22.5712270121
20
16.2817356423
11
22.6288890114
21
16.3009866421
0
LINE
5
33B
100
AcDbEntity
8
0
100
AcDbLine
62
7
6
CONTINUOUS
10
23.0690750444
20
15.5117306857
11
23.1267370437
21
15.5309816855
0
LINE
5
33C
100
AcDbEntity
8
DEFAULT_1
100
AcDbLine
62
7
6
CENTER
10
27.7694396877
20
12.4485711369
11
26.4871507028
21
12.4485711369
0
LINE
5
33D
100
AcDbEntity
8
DEFAULT_1
100
AcDbLine
62
7
6
CENTER
10
1.9871509905
20
12.4485711369
11
0.7048630055
21
12.4485711369
0
LINE
5
33E
100
AcDbEntity
8
DEFAULT_1
100
AcDbLine
62
7
6
CENTER
10
14.2371508466
20
24.6180079940
11
14.2371508466
21
23.1985710107
0
LINE
5
33F
100
AcDbEntity
8
DEFAULT_1
100
AcDbLine
62
7
6
CENTER
10
14.2371508466
20
1.6985712631
11
14.2371508466
21
0.2791342798
0
LINE
5
340
100
AcDbEntity
8
0
100
AcDbLine
62
7
6
CONTINUOUS
10
22.3733690144
20
16.8675616354
11
22.3207650150
21
16.8370946358
0
LINE
5
341
100
AcDbEntity
8
0
100
AcDbLine
62
7
6
CONTINUOUS
10
22.8811320144
20
17.0510776774
11
22.9339420138
21
17.0811846770
0
LINE
5
342
100
AcDbEntity
8
0
100
AcDbLine
62
7
6
CONTINUOUS
10
22.6288890114
20
16.3009866421
11
22.6816990108
21
16.3310936417
0
LINE
5
343
100
AcDbEntity
8
0
100
AcDbLine
62
7
6
CONTINUOUS
10
22.9221080723
20
15.3538336958
11
22.8645790729
21
15.3341896960
0
LINE
5
344
100
AcDbEntity
8
0
100
AcDbLine
62
7
6
CONTINUOUS
10
23.0624370706
20
14.7483637029
11
23.1200990699
21
14.7676147026
0
LINE
5
345
100
AcDbEntity
8
0
100
AcDbLine
62
7
6
CONTINUOUS
10
23.0021300713
20
14.7407057030
11
23.0624370706
21
14.7483637029
0
LINE
5
346
100
AcDbEntity
8
0
100
AcDbLine
62
7
6
CONTINUOUS
10
22.5730080181
20
17.5871856711
11
22.5273430186
21
17.5470606715
0
LINE
5
347
100
AcDbEntity
8
0
100
AcDbLine
62
7
6
CONTINUOUS
10
22.8712170467
20
16.0975566788
11
22.8186130473
21
16.0670896792
0
LINE
5
348
100
AcDbEntity
8
0
100
AcDbLine
62
7
6
CONTINUOUS
10
22.8645790729
20
15.3341896960
11
22.8119750736
21
15.3037226964
0
LINE
5
349
100
AcDbEntity
8
0
100
AcDbLine
62
7
6
CONTINUOUS
10
23.1267370437
20
15.5309816855
11
23.1795470431
21
15.5610886851
0
LINE
5
34A
100
AcDbEntity
8
0
100
AcDbLine
62
7
6
CONTINUOUS
10
23.0087680451
20
15.5040726858
11
23.0690750444
21
15.5117306857
0
LINE
5
34B
100
AcDbEntity
8
0
100
AcDbLine
62
7
6
CONTINUOUS
10
22.9866110715
20
15.3620246957
11
22.9262530722
21
15.3547796958
0
LINE
5
34C
100
AcDbEntity
8
0
100
AcDbLine
62
7
6
CONTINUOUS
10
22.3207650150
20
16.8370946358
11
22.2751000156
21
16.7969696362
0
LINE
5
34D
100
AcDbEntity
8
0
100
AcDbLine
62
7
6
CONTINUOUS
10
22.8186130473
20
16.0670896792
11
22.7729480479
21
16.0269646796
0
LINE
5
34E
100
AcDbEntity
8
0
100
AcDbLine
62
7
6
CONTINUOUS
10
22.9339420138
20
17.0811846770
11
22.9798810133
21
17.1209946765
0
LINE
5
34F
100
AcDbEntity
8
0
100
AcDbLine
62
7
6
CONTINUOUS
10
22.6816990108
20
16.3310936417
11
22.7276380103
21
16.3709036412
0
LINE
5
350
100
AcDbEntity
8
0
100
AcDbLine
62
7
6
CONTINUOUS
10
23.1200990699
20
14.7676147026
11
23.1729090693
21
14.7977217023
0
LINE
5
351
100
AcDbEntity
8
0
100
AcDbLine
62
7
6
CONTINUOUS
10
22.5109200128
20
16.2740776424
11
22.5712270121
21
16.2817356423
0
LINE
5
352
100
AcDbEntity
8
0
100
AcDbLine
62
7
6
CONTINUOUS
10
22.9932490453
20
16.1253916785
11
22.9328910460
21
16.1181466786
0
LINE
5
353
100
AcDbEntity
8
0
100
AcDbLine
62
7
6
CONTINUOUS
10
22.9414850720
20
14.7449337029
11
23.0021300713
21
14.7407057030
0
LINE
5
354
100
AcDbEntity
8
0
100
AcDbLine
62
2
6
CONTINUOUS
10
18.0424511077
20
7.5820192516
11
18.0424511077
21
9.2011414738
0
LINE
5
355
100
AcDbEntity
8
0
100
AcDbLine
62
2
6
CONTINUOUS
10
18.0918844410
20
7.6818970294
11
18.0918844410
21
9.1530525849
0
LINE
5
356
100
AcDbEntity
8
0
100
AcDbLine
62
7
6
CONTINUOUS
10
22.5273430186
20
17.5470606715
11
22.4903640190
21
17.4988156721
0
LINE
5
357
100
AcDbEntity
8
0
100
AcDbLine
62
7
6
CONTINUOUS
10
22.2751000156
20
16.7969696362
11
22.2381210160
21
16.7487246368
0
LINE
5
358
100
AcDbEntity
8
0
100
AcDbLine
62
7
6
CONTINUOUS
10
22.9798810133
20
17.1209946765
11
23.0171900128
21
17.1689866760
0
LINE
5
359
100
AcDbEntity
8
0
100
AcDbLine
62
7
6
CONTINUOUS
10
22.8119750736
20
15.3037226964
11
22.7663100741
21
15.2635976968
0
LINE
5
35A
100
AcDbEntity
8
0
100
AcDbLine
62
7
6
CONTINUOUS
10
23.1795470431
20
15.5610886851
11
23.2254860425
21
15.6008986847
0
LINE
5
35B
100
AcDbEntity
8
0
100
AcDbLine
62
7
6
CONTINUOUS
10
23.1729090693
20
14.7977217023
11
23.2188480688
21
14.8375317018
0
LINE
5
35C
100
AcDbEntity
8
0
100
AcDbLine
62
7
6
CONTINUOUS
10
22.7631630158
20
17.0241686777
11
22.8234700151
21
17.0318266776
0
LINE
5
35D
100
AcDbEntity
8
0
100
AcDbLine
62
7
6
CONTINUOUS
10
22.4954010130
20
16.8953966351
11
22.4350430137
21
16.8881516352
0
LINE
5
35E
100
AcDbEntity
8
0
100
AcDbLine
62
7
6
CONTINUOUS
10
22.7476440160
20
17.6454876704
11
22.6872860167
21
17.6382426705
0
LINE
5
35F
100
AcDbEntity
8
0
100
AcDbLine
62
7
6
CONTINUOUS
10
22.9481230458
20
15.5083006857
11
23.0087680451
21
15.5040726858
0
LINE
5
360
100
AcDbEntity
8
0
100
AcDbLine
62
7
6
CONTINUOUS
10
23.0472250708
20
15.3573826957
11
22.9866110715
21
15.3620246957
0
LINE
5
361
100
AcDbEntity
8
0
100
AcDbLine
62
7
6
CONTINUOUS
10
22.7729480479
20
16.0269646796
11
22.7359690483
21
15.9787196802
0
LINE
5
362
100
AcDbEntity
8
0
100
AcDbLine
62
7
6
CONTINUOUS
10
22.7663100741
20
15.2635976968
11
22.7293310745
21
15.2153526974
0
LINE
5
363
100
AcDbEntity
8
0
100
AcDbLine
62
7
6
CONTINUOUS
10
22.7276380103
20
16.3709036412
11
22.7649470098
21
16.4188956407
0
LINE
5
364
100
AcDbEntity
8
0
100
AcDbLine
62
7
6
CONTINUOUS
10
22.4502750135
20
16.2783056423
11
22.5109200128
21
16.2740776424
0
LINE
5
365
100
AcDbEntity
8
0
100
AcDbLine
62
7
6
CONTINUOUS
10
22.7025180165
20
17.0283966776
11
22.7631630158
21
17.0241686777
0
LINE
5
366
100
AcDbEntity
8
0
100
AcDbLine
62
7
6
CONTINUOUS
10
23.0538630446
20
16.1207496785
11
22.9932490453
21
16.1253916785
0
LINE
5
367
100
AcDbEntity
8
0
100
AcDbLine
62
7
6
CONTINUOUS
10
22.5560150123
20
16.8907546351
11
22.4954010130
21
16.8953966351
0
LINE
5
368
100
AcDbEntity
8
0
100
AcDbLine
62
7
6
CONTINUOUS
10
22.8828230727
20
14.7608857027
11
22.9414850720
21
14.7449337029
0
LINE
5
369
100
AcDbEntity
8
0
100
AcDbLine
62
7
6
CONTINUOUS
10
22.8894610465
20
15.5242526856
11
22.9481230458
21
15.5083006857
0
LINE
5
36A
100
AcDbEntity
8
0
100
AcDbLine
62
7
6
CONTINUOUS
10
23.1057770701
20
15.3410296959
11
23.0472250708
21
15.3573826957
0
LINE
5
36B
100
AcDbEntity
8
0
100
AcDbLine
62
7
6
CONTINUOUS
10
22.4903640190
20
17.4988156721
11
22.4634850193
21
17.4442936727
0
LINE
5
36C
100
AcDbEntity
8
0
100
AcDbLine
62
7
6
CONTINUOUS
10
22.2381210160
20
16.7487246368
11
22.2112420163
21
16.6942026374
0
LINE
5
36D
100
AcDbEntity
8
0
100
AcDbLine
62
7
6
CONTINUOUS
10
22.7359690483
20
15.9787196802
11
22.7090900486
21
15.9241976809
0
LINE
5
36E
100
AcDbEntity
8
0
100
AcDbLine
62
7
6
CONTINUOUS
10
23.0171900128
20
17.1689866760
11
23.0444410125
21
17.2233226753
0
LINE
5
36F
100
AcDbEntity
8
0
100
AcDbLine
62
7
6
CONTINUOUS
10
22.7649470098
20
16.4188956407
11
22.7921980095
21
16.4732316400
0
LINE
5
370
100
AcDbEntity
8
0
100
AcDbLine
62
7
6
CONTINUOUS
10
23.2254860425
20
15.6008986847
11
23.2627950421
21
15.6488906841
0
LINE
5
371
100
AcDbEntity
8
0
100
AcDbLine
62
7
6
CONTINUOUS
10
23.2188480688
20
14.8375317018
11
23.2561570683
21
14.8855237013
0
LINE
5
372
100
AcDbEntity
8
0
100
AcDbLine
62
7
6
CONTINUOUS
10
22.8082580153
20
17.6408456704
11
22.7476440160
21
17.6454876704
0
LINE
5
373
100
AcDbEntity
8
0
100
AcDbLine
62
7
6
CONTINUOUS
10
22.3916130142
20
16.2942576421
11
22.4502750135
21
16.2783056423
0
LINE
5
374
100
AcDbEntity
8
0
100
AcDbLine
62
7
6
CONTINUOUS
10
23.1124150439
20
16.1043966787
11
23.0538630446
21
16.1207496785
0
LINE
5
375
100
AcDbEntity
8
0
100
AcDbLine
62
7
6
CONTINUOUS
10
22.8283890734
20
14.7879507024
11
22.8828230727
21
14.7608857027
0
LINE
5
376
100
AcDbEntity
8
0
100
AcDbLine
62
2
6
CONTINUOUS
10
21.3289844410
20
9.1530525849
11
21.3289844410
21
7.6818970294
0
LINE
5
377
100
AcDbEntity
8
0
100
AcDbLine
62
7
6
CONTINUOUS
10
22.2112420163
20
16.6942026374
11
22.1954920165
21
16.6354916381
0
LINE
5
378
100
AcDbEntity
8
0
100
AcDbLine
62
7
6
CONTINUOUS
10
22.4634850193
20
17.4442936727
11
22.4477350195
21
17.3855826734
0
LINE
5
379
100
AcDbEntity
8
0
100
AcDbLine
62
7
6
CONTINUOUS
10
22.7293310745
20
15.2153526974
11
22.7024520748
21
15.1608306980
0
LINE
5
37A
100
AcDbEntity
8
0
100
AcDbLine
62
7
6
CONTINUOUS
10
23.2627950421
20
15.6488906841
11
23.2900460418
21
15.7032266834
0
LINE
5
37B
100
AcDbEntity
8
0
100
AcDbLine
62
7
6
CONTINUOUS
10
23.2561570683
20
14.8855237013
11
23.2834080680
21
14.9398597006
0
LINE
5
37C
100
AcDbEntity
8
0
100
AcDbLine
62
7
6
CONTINUOUS
10
22.6438560172
20
17.0443486774
11
22.7025180165
21
17.0283966776
0
LINE
5
37D
100
AcDbEntity
8
0
100
AcDbLine
62
7
6
CONTINUOUS
10
22.6145670116
20
16.8744016353
11
22.5560150123
21
16.8907546351
0
LINE
5
37E
100
AcDbEntity
8
0
100
AcDbLine
62
7
6
CONTINUOUS
10
22.8668100146
20
17.6244926706
11
22.8082580153
21
17.6408456704
0
LINE
5
37F
100
AcDbEntity
8
0
100
AcDbLine
62
7
6
CONTINUOUS
10
22.8350270471
20
15.5513176852
11
22.8894610465
21
15.5242526856
0
LINE
5
380
100
AcDbEntity
8
0
100
AcDbLine
62
7
6
CONTINUOUS
10
22.3371790149
20
16.3213226418
11
22.3916130142
21
16.2942576421
0
LINE
5
381
100
AcDbEntity
8
0
100
AcDbLine
62
7
6
CONTINUOUS
10
23.1600240695
20
15.3135926962
11
23.1057770701
21
15.3410296959
0
LINE
5
382
100
AcDbEntity
8
0
100
AcDbLine
62
7
6
CONTINUOUS
10
23.1666620432
20
16.0769596791
11
23.1124150439
21
16.1043966787
0
LINE
5
383
100
AcDbEntity
8
0
100
AcDbLine
62
7
6
CONTINUOUS
10
22.7802650739
20
14.8250937020
11
22.8283890734
21
14.7879507024
0
LINE
5
384
100
AcDbEntity
8
0
100
AcDbLine
62
2
6
CONTINUOUS
10
21.3795844410
20
9.2011414738
11
21.3795844410
21
7.5820192516
0
LINE
5
385
100
AcDbEntity
8
0
100
AcDbLine
62
7
6
CONTINUOUS
10
22.1954920165
20
16.6354916381
11
22.1914730166
21
16.5748386388
0
LINE
5
386
100
AcDbEntity
8
0
100
AcDbLine
62
7
6
CONTINUOUS
10
22.4477350195
20
17.3855826734
11
22.4437160196
21
17.3249296741
0
LINE
5
387
100
AcDbEntity
8
0
100
AcDbLine
62
7
6
CONTINUOUS
10
22.7090900486
20
15.9241976809
11
22.6933400488
21
15.8654866815
0
LINE
5
388
100
AcDbEntity
8
0
100
AcDbLine
62
7
6
CONTINUOUS
10
22.7024520748
20
15.1608306980
11
22.6867020750
21
15.1021196987
0
LINE
5
389
100
AcDbEntity
8
0
100
AcDbLine
62
7
6
CONTINUOUS
10
22.7921980095
20
16.4732316400
11
22.8083490093
21
16.5318336393
0
LINE
5
38A
100
AcDbEntity
8
0
100
AcDbLine
62
7
6
CONTINUOUS
10
23.0444410125
20
17.2233226753
11
23.0605920123
21
17.2819246746
0
LINE
5
38B
100
AcDbEntity
8
0
100
AcDbLine
62
7
6
CONTINUOUS
10
23.2900460418
20
15.7032266834
11
23.3061970416
21
15.7618286828
0
LINE
5
38C
100
AcDbEntity
8
0
100
AcDbLine
62
7
6
CONTINUOUS
10
23.2834080680
20
14.9398597006
11
23.2995590678
21
14.9984616999
0
LINE
5
38D
100
AcDbEntity
8
0
100
AcDbLine
62
7
6
CONTINUOUS
10
22.5894220179
20
17.0714136771
11
22.6438560172
21
17.0443486774
0
LINE
5
38E
100
AcDbEntity
8
0
100
AcDbLine
62
7
6
CONTINUOUS
10
22.6688140110
20
16.8469646356
11
22.6145670116
21
16.8744016353
0
LINE
5
38F
100
AcDbEntity
8
0
100
AcDbLine
62
7
6
CONTINUOUS
10
22.7869030477
20
15.5884606848
11
22.8350270471
21
15.5513176852
0
LINE
5
390
100
AcDbEntity
8
0
100
AcDbLine
62
7
6
CONTINUOUS
10
22.2890550154
20
16.3584656414
11
22.3371790149
21
16.3213226418
0
LINE
5
391
100
AcDbEntity
8
0
100
AcDbLine
62
7
6
CONTINUOUS
10
23.2078930689
20
15.2761216967
11
23.1600240695
21
15.3135926962
0
LINE
5
392
100
AcDbEntity
8
0
100
AcDbLine
62
7
6
CONTINUOUS
10
22.7402930744
20
14.8708937014
11
22.7802650739
21
14.8250937020
0
LINE
5
393
100
AcDbEntity
8
0
100
AcDbLine
62
7
6
CONTINUOUS
10
22.6933400488
20
15.8654866815
11
22.6893210488
21
15.8048336823
0
LINE
5
394
100
AcDbEntity
8
0
100
AcDbLine
62
7
6
CONTINUOUS
10
22.6867020750
20
15.1021196987
11
22.6826830751
21
15.0414666994
0
LINE
5
395
100
AcDbEntity
8
0
100
AcDbLine
62
7
6
CONTINUOUS
10
22.8083490093
20
16.5318336393
11
22.8127830093
21
16.5924586386
0
LINE
5
396
100
AcDbEntity
8
0
100
AcDbLine
62
7
6
CONTINUOUS
10
23.0605920123
20
17.2819246746
11
23.0650260123
21
17.3425496739
0
LINE
5
397
100
AcDbEntity
8
0
100
AcDbLine
62
7
6
CONTINUOUS
10
23.3061970416
20
15.7618286828
11
23.3106310415
21
15.8224536820
0
LINE
5
398
100
AcDbEntity
8
0
100
AcDbLine
62
7
6
CONTINUOUS
10
23.2995590678
20
14.9984616999
11
23.3039930678
21
15.0590866992
0
LINE
5
399
100
AcDbEntity
8
0
100
AcDbLine
62
7
6
CONTINUOUS
10
22.9210570140
20
17.5970556709
11
22.8668100146
21
17.6244926706
0
LINE
5
39A
100
AcDbEntity
8
0
100
AcDbLine
62
7
6
CONTINUOUS
10
22.5412980184
20
17.1085566767
11
22.5894220179
21
17.0714136771
0
LINE
5
39B
100
AcDbEntity
8
0
100
AcDbLine
62
7
6
CONTINUOUS
10
23.2145310427
20
16.0394886795
11
23.1666620432
21
16.0769596791
0
LINE
5
39C
100
AcDbEntity
8
0
100
AcDbLine
62
7
6
CONTINUOUS
10
22.7166830104
20
16.8094936361
11
22.6688140110
21
16.8469646356
0
LINE
5
39D
100
AcDbEntity
8
0
100
AcDbLine
62
7
6
CONTINUOUS
10
22.7469310482
20
15.6342606843
11
22.7869030477
21
15.5884606848
0
LINE
5
39E
100
AcDbEntity
8
0
100
AcDbLine
62
7
6
CONTINUOUS
10
22.2490830159
20
16.4042656408
11
22.2890550154
21
16.3584656414
0
LINE
5
39F
100
AcDbEntity
8
0
100
AcDbLine
62
7
6
CONTINUOUS
10
23.2475510684
20
15.2300486972
11
23.2078930689
21
15.2761216967
0
LINE
5
3A0
100
AcDbEntity
8
0
100
AcDbLine
62
7
6
CONTINUOUS
10
23.2541890422
20
15.9934156800
11
23.2145310427
21
16.0394886795
0
LINE
5
3A1
100
AcDbEntity
8
0
100
AcDbLine
62
7
6
CONTINUOUS
10
22.7563410099
20
16.7634206366
11
22.7166830104
21
16.8094936361
0
LINE
5
3A2
100
AcDbEntity
8
0
100
AcDbLine
62
7
6
CONTINUOUS
10
22.7100010748
20
14.9235977008
11
22.7402930744
21
14.8708937014
0
LINE
5
3A3
100
AcDbEntity
8
0
100
AcDbLine
62
7
6
CONTINUOUS
10
22.2187910162
20
16.4569696402
11
22.2490830159
21
16.4042656408
0
LINE
5
3A4
100
AcDbEntity
8
0
100
AcDbLine
62
7
6
CONTINUOUS
10
22.7166390485
20
15.6869646836
11
22.7469310482
21
15.6342606843
0
LINE
5
3A5
100
AcDbEntity
8
0
100
AcDbLine
62
7
6
CONTINUOUS
10
23.2774820681
20
15.1771386978
11
23.2475510684
21
15.2300486972
0
LINE
5
3A6
100
AcDbEntity
8
0
100
AcDbLine
62
7
6
CONTINUOUS
10
22.6905500750
20
14.9811897001
11
22.7100010748
21
14.9235977008
0
LINE
5
3A7
100
AcDbEntity
8
0
100
AcDbLine
62
7
6
CONTINUOUS
10
22.1993400165
20
16.5145616395
11
22.2187910162
21
16.4569696402
0
LINE
5
3A8
100
AcDbEntity
8
0
100
AcDbLine
62
7
6
CONTINUOUS
10
22.6971880487
20
15.7445566830
11
22.7166390485
21
15.6869646836
0
LINE
5
3A9
100
AcDbEntity
8
0
100
AcDbLine
62
7
6
CONTINUOUS
10
22.1914730166
20
16.5748386388
11
22.1993400165
21
16.5145616395
0
LINE
5
3AA
100
AcDbEntity
8
0
100
AcDbLine
62
7
6
CONTINUOUS
10
22.6826830751
20
15.0414666994
11
22.6905500750
21
14.9811897001
0
LINE
5
3AB
100
AcDbEntity
8
0
100
AcDbLine
62
7
6
CONTINUOUS
10
22.4437160196
20
17.3249296741
11
22.4515830195
21
17.2646526748
0
LINE
5
3AC
100
AcDbEntity
8
0
100
AcDbLine
62
7
6
CONTINUOUS
10
22.6893210488
20
15.8048336823
11
22.6971880487
21
15.7445566830
0
LINE
5
3AD
100
AcDbEntity
8
0
100
AcDbLine
62
7
6
CONTINUOUS
10
22.8127830093
20
16.5924586386
11
22.8053280094
21
16.6527866379
0
LINE
5
3AE
100
AcDbEntity
8
0
100
AcDbLine
62
7
6
CONTINUOUS
10
22.9689260134
20
17.5595846714
11
22.9210570140
21
17.5970556709
0
LINE
5
3AF
100
AcDbEntity
8
0
100
AcDbLine
62
7
6
CONTINUOUS
10
22.5013260189
20
17.1543566761
11
22.5412980184
21
17.1085566767
0
LINE
5
3B0
100
AcDbEntity
8
0
100
AcDbLine
62
7
6
CONTINUOUS
10
23.0085840129
20
17.5135116719
11
22.9689260134
21
17.5595846714
0
LINE
5
3B1
100
AcDbEntity
8
0
100
AcDbLine
62
7
6
CONTINUOUS
10
22.4710340193
20
17.2070606755
11
22.5013260189
21
17.1543566761
0
LINE
5
3B2
100
AcDbEntity
8
0
100
AcDbLine
62
7
6
CONTINUOUS
10
22.7862720096
20
16.7105106372
11
22.7563410099
21
16.7634206366
0
LINE
5
3B3
100
AcDbEntity
8
0
100
AcDbLine
62
7
6
CONTINUOUS
10
23.2841200419
20
15.9405056807
11
23.2541890422
21
15.9934156800
0
LINE
5
3B4
100
AcDbEntity
8
0
100
AcDbLine
62
7
6
CONTINUOUS
10
23.0385150126
20
17.4606016725
11
23.0085840129
21
17.5135116719
0
LINE
5
3B5
100
AcDbEntity
8
0
100
AcDbLine
62
7
6
CONTINUOUS
10
22.4515830195
20
17.2646526748
11
22.4710340193
21
17.2070606755
0
LINE
5
3B6
100
AcDbEntity
8
0
100
AcDbLine
62
7
6
CONTINUOUS
10
23.2965380679
20
15.1194146985
11
23.2774820681
21
15.1771386978
0
LINE
5
3B7
100
AcDbEntity
8
0
100
AcDbLine
62
7
6
CONTINUOUS
10
22.8053280094
20
16.6527866379
11
22.7862720096
21
16.7105106372
0
LINE
5
3B8
100
AcDbEntity
8
0
100
AcDbLine
62
7
6
CONTINUOUS
10
23.3031760416
20
15.8827816813
11
23.2841200419
21
15.9405056807
0
LINE
5
3B9
100
AcDbEntity
8
0
100
AcDbLine
62
7
6
CONTINUOUS
10
23.0575710124
20
17.4028776732
11
23.0385150126
21
17.4606016725
0
LINE
5
3BA
100
AcDbEntity
8
0
100
AcDbLine
62
7
6
CONTINUOUS
10
23.3039930678
20
15.0590866992
11
23.2965380679
21
15.1194146985
0
LINE
5
3BB
100
AcDbEntity
8
0
100
AcDbLine
62
7
6
CONTINUOUS
10
23.0650260123
20
17.3425496739
11
23.0575710124
21
17.4028776732
0
LINE
5
3BC
100
AcDbEntity
8
0
100
AcDbLine
62
7
6
CONTINUOUS
10
23.3106310415
20
15.8224536820
11
23.3031760416
21
15.8827816813
0
LINE
5
3BD
100
AcDbEntity
8
0
100
AcDbLine
62
7
6
CONTINUOUS
10
25.9871507087
20
23.1985710107
11
2.4871509846
21
23.1985710107
0
LINE
5
3BE
100
AcDbEntity
8
DEFAULT_2
100
AcDbLine
62
8
6
CONTINUOUS
10
26.7371506999
20
23.4485710078
11
1.7371509934
21
23.4485710078
0
LINE
5
3BF
100
AcDbEntity
8
0
100
AcDbLine
62
7
6
CONTINUOUS
10
26.4871507028
20
2.1985712573
11
26.4871507028
21
22.6985710166
0
LINE
5
3C0
100
AcDbEntity
8
DEFAULT_2
100
AcDbLine
62
8
6
CONTINUOUS
10
26.7371506999
20
1.4485712661
11
26.7371506999
21
23.4485710078
0
LINE
5
3C1
100
AcDbEntity
8
___NOTE
100
AcDbLine
62
2
6
CONTINUOUS
10
1.7371509934
20
8.9421268540
11
3.4591154651
21
10.3085890466
0
LINE
5
3C2
100
AcDbEntity
8
___NOTE
100
AcDbLine
62
2
6
CONTINUOUS
10
3.1541015829
20
7.6000657719
11
3.4041015829
21
7.6000657719
0
LINE
5
3C3
100
AcDbEntity
8
___NOTE
100
AcDbLine
62
2
6
CONTINUOUS
10
1.9871509905
20
6.7216257910
11
3.1541015829
21
7.6000657719
0
LINE
5
3C4
100
AcDbEntity
8
___NOTE
100
AcDbLine
62
2
6
CONTINUOUS
10
3.4591154651
20
10.3085890466
11
3.7091154651
21
10.3085890466
0
CIRCLE
5
3C5
100
AcDbEntity
8
0
100
AcDbCircle
62
2
6
CONTINUOUS
10
23.7060767355
20
2.3357432557
40
0.0437679995
0
ARC
5
3C6
100
AcDbEntity
8
0
100
AcDbCircle
62
7
6
CONTINUOUS
10
2.4871506111
20
2.1985708837
40
0.4999996206
100
AcDbArc
50
179.9999571957
51
270.0000428043
0
ARC
5
3C7
100
AcDbEntity
8
0
100
AcDbCircle
62
7
6
CONTINUOUS
10
25.9871510822
20
2.1985708837
40
0.4999996206
100
AcDbArc
50
269.9999571957
51
0.0000428043
0
ARC
5
3C8
100
AcDbEntity
8
0
100
AcDbCircle
62
7
6
CONTINUOUS
10
25.9871510822
20
22.6985713901
40
0.4999996206
100
AcDbArc
50
359.9999571957
51
90.0000428043
0
ARC
5
3C9
100
AcDbEntity
8
0
100
AcDbCircle
62
7
6
CONTINUOUS
10
2.4871506111
20
22.6985713901
40
0.4999996206
100
AcDbArc
50
89.9999571957
51
180.0000428043
0
CIRCLE
5
3CA
100
AcDbEntity
8
0
100
AcDbCircle
62
7
6
CONTINUOUS
10
19.6103069070
20
7.9778957472
40
0.1436163525
0
ENDSEC
0
SECTION
2
OBJECTS
0
DICTIONARY
5
3CB
100
AcDbDictionary
3
ACAD_GROUP
350
3CC
3
ACAD_MLINESTYLE
350
3CD
0
DICTIONARY
5
3CC
102
{ACAD_REACTORS
330
3CB
102
}
100
AcDbDictionary
0
DICTIONARY
5
3CD
102
{ACAD_REACTORS
330
3CB
102
}
100
AcDbDictionary
3
STANDARD
350
3CE
0
MLINESTYLE
5
3CE
102
{ACAD_REACTORS
330
3CD
102
}
100
AcDbMlineStyle
2
STANDARD
70
0
3

62
256
51
90.0
52
90.0
71
2
49
0.5
62
256
6
BYLAYER
49
-0.5
62
256
6
BYLAYER
0
ENDSEC
0
EOF
