999
DXF file: 1016734-7.dxf
999
Pro/ENGINEER 2001490 by Parametric Technology Corporation
0
SECTION
2
HEADER
9
$ACADVER
1
AC1014
9
$EXTMAX
10
20.0000000000
20
25.0000000000
9
$EXTMIN
10
0.0000000000
20
0.0000000000
9
$LIMMIN
10
0.0000000000
20
0.0000000000
9
$LIMMAX
10
20.0000000000
20
25.0000000000
9
$VIEWCTR
10
10.0000000000
20
12.5000000000
9
$VIEWSIZE
40
25.0000000000
9
$CLAYER
8
0
9
$LTSCALE
40
1.6296296296
9
$CELTYPE
6
BYLAYER
9
$DIMSCALE
40
1
9
$DIMASZ
40
0.1875000000
9
$DIMEXO
40
0.1851851852
9
$DIMDLI
40
1.1259259259
9
$DIMEXE
40
0.5333333333
9
$DIMCEN
40
0.2666666667
9
$DIMLFAC
40
1.0000000000
9
$DIMTXT
40
0.1562500000
9
$DIMTOL
70
1
9
$DIMLIM
70
0
9
$DIMTFAC
40
1.0000000000
9
$DIMTP
40
0.0100000000
9
$DIMTM
40
0.0100000000
9
$HANDSEED
5
600
0
ENDSEC
0
SECTION
2
CLASSES
0
ENDSEC
0
SECTION
2
TABLES
0
TABLE
2
VPORT
5
8
100
AcDbSymbolTable
70
2
0
VPORT
5
1F4
100
AcDbSymbolTableRecord
100
AcDbViewportTableRecord
2
*ACTIVE
70
0
10
0.0
20
0.0
11
1.0
21
1.0
12
10.0000000000
22
12.5000000000
13
0.0
23
0.0
14
1.0
24
1.0
15
0.0
25
0.0
16
0.0
26
0.0
36
1.0
17
0.0
27
0.0
37
0.0
40
25.0000000000
41
0.8000000000
42
50.0
43
0.0
44
0.0
50
0.0
51
0.0
71
0
72
100
73
1
74
1
75
0
76
0
77
0
78
0
0
ENDTAB
0
TABLE
2
LTYPE
5
5
100
AcDbSymbolTable
70
6
0
LTYPE
5
14
100
AcDbSymbolTableRecord
100
AcDbLinetypeTableRecord
2
BYBLOCK
70
0
3

72
65
73
0
40
0.0
0
LTYPE
5
15
100
AcDbSymbolTableRecord
100
AcDbLinetypeTableRecord
2
BYLAYER
70
0
3

72
65
73
0
40
0.0
0
LTYPE
5
16
100
AcDbSymbolTableRecord
100
AcDbLinetypeTableRecord
2
CONTINUOUS
70
64
3
Solid line
72
65
73
0
40
0
0
LTYPE
5
1F5
100
AcDbSymbolTableRecord
100
AcDbLinetypeTableRecord
2
CENTER
70
64
3
____ _ ____ _ ____ _ ____ _ ____ _ ____ _ ____
72
65
73
4
40
0.6
49
0.375
74
0
49
-0.075
74
0
49
0.075
74
0
49
-0.075
74
0
0
LTYPE
5
1F6
100
AcDbSymbolTableRecord
100
AcDbLinetypeTableRecord
2
HIDDEN
70
64
3
- - - - - - - - - - - - - - - - - - - -
72
65
73
2
40
0.2
49
0.1
74
0
49
-0.1
74
0
0
LTYPE
5
1F7
100
AcDbSymbolTableRecord
100
AcDbLinetypeTableRecord
2
PHANTOM
70
64
3
_____ _ _ _____ _ _ _____ _ _ _____
72
65
73
6
40
0.8
49
0.45
74
0
49
-0.05
74
0
49
0.1
74
0
49
-0.05
74
0
49
0.1
74
0
49
-0.05
74
0
0
LTYPE
5
1F8
100
AcDbSymbolTableRecord
100
AcDbLinetypeTableRecord
2
DOT
70
64
3
. . . . . . . . . . . . . . . . . . . .
72
65
73
2
40
0.2
49
0.1
74
0
49
-0.1
74
0
0
LTYPE
5
1F9
100
AcDbSymbolTableRecord
100
AcDbLinetypeTableRecord
2
DASHED
70
64
3
- - - - - - - - - - - - - - - - - - - -
72
65
73
2
40
0.2
49
0.1
74
0
49
-0.1
74
0
0
ENDTAB
0
TABLE
2
LAYER
5
2
100
AcDbSymbolTable
70
36
0
LAYER
5
10
100
AcDbSymbolTableRecord
100
AcDbLayerTableRecord
2
0
70
0
62
7
6
CONTINUOUS
0
LAYER
5
1FA
100
AcDbSymbolTableRecord
100
AcDbLayerTableRecord
2
DEFAULT_1
70
0
62
7
6
CENTER
0
LAYER
5
1FB
100
AcDbSymbolTableRecord
100
AcDbLayerTableRecord
2
DEFAULT_2
70
0
62
8
6
HIDDEN
0
LAYER
5
1FC
100
AcDbSymbolTableRecord
100
AcDbLayerTableRecord
2
DEFAULT_3
70
0
62
7
6
PHANTOM
0
LAYER
5
1FD
100
AcDbSymbolTableRecord
100
AcDbLayerTableRecord
2
___NOTE
70
0
62
7
6
CONTINUOUS
0
LAYER
5
1FE
100
AcDbSymbolTableRecord
100
AcDbLayerTableRecord
2
___SYMBOL
70
0
62
7
6
CONTINUOUS
0
ENDTAB
0
TABLE
2
STYLE
5
3
100
AcDbSymbolTable
70
1
0
STYLE
5
11
100
AcDbSymbolTableRecord
100
AcDbTextStyleTableRecord
2
STANDARD
70
0
40
0.0
41
0.8000000000
50
0.0
71
0
42
0.0
3
txt
4

0
STYLE
5
1FF
100
AcDbSymbolTableRecord
100
AcDbTextStyleTableRecord
2
TEXTSTYLE_0
70
0
40
0.0
41
0.80
50
0.0
71
0
42
0.2
3
txt
4

0
STYLE
5
200
100
AcDbSymbolTableRecord
100
AcDbTextStyleTableRecord
2
TEXTSTYLE_1
70
0
40
0.0
41
0.80
50
0.0
71
0
42
0.2
3
txt
4

0
ENDTAB
0
TABLE
2
VIEW
5
6
100
AcDbSymbolTable
70
0
0
ENDTAB
0
TABLE
2
UCS
5
7
100
AcDbSymbolTable
70
0
0
ENDTAB
0
TABLE
2
APPID
5
9
100
AcDbSymbolTable
70
1
0
APPID
5
201
100
AcDbSymbolTableRecord
100
AcDbRegAppTableRecord
2
ACAD
70
0
0
ENDTAB
0
TABLE
2
DIMSTYLE
5
A
100
AcDbSymbolTable
70
1
0
DIMSTYLE
105
202
100
AcDbSymbolTableRecord
100
AcDbDimStyleTableRecord
2
STANDARD
70
0
3

4

5

6

7

40
1.0
41
0.1875000000
42
0.0625
43
0.38
44
0.18
45
0.0
46
0.0
47
0.0100000000
48
0.0100000000
140
0.1562500000
141
0.09
142
0.0
143
25.4
144
1.0000000000
145
0.0
146
1.0000000000
147
0.09
71
1
72
0
73
1
74
1
75
0
76
0
77
0
78
0
170
0
171
2
172
0
173
0
174
0
175
0
176
0
177
0
178
0
270
2
271
3
272
3
273
2
274
2
340
11
275
0
280
0
281
0
282
0
283
1
284
0
285
0
286
0
287
3
288
0
0
DIMSTYLE
105
203
100
AcDbSymbolTableRecord
100
AcDbDimStyleTableRecord
2
DIMSTYLE_1
70
0
3

4

5

6

7

40
1.0
41
0.1875000000
42
0.0625
43
0.38
44
0.18
45
0.0
46
0.0
47
0.0625000000
48
0.0625000000
140
0.1562500000
141
0.09
142
0.0
143
25.4
144
1.0000000000
145
0.0
146
1.0000000000
147
0.09
71
0
72
0
73
1
74
1
75
0
76
0
77
0
78
0
170
0
171
2
172
0
173
0
174
0
175
0
176
0
177
0
178
0
270
2
271
4
272
4
273
2
274
2
340
11
275
0
280
0
281
0
282
0
283
1
284
0
285
0
286
0
287
3
288
0
0
ENDTAB
0
TABLE
2
BLOCK_RECORD
5
1
100
AcDbSymbolTable
70
0
0
BLOCK_RECORD
5
1B
100
AcDbSymbolTableRecord
100
AcDbBlockTableRecord
2
*MODEL_SPACE
0
BLOCK_RECORD
5
1C
100
AcDbSymbolTableRecord
100
AcDbBlockTableRecord
2
*PAPER_SPACE
0
BLOCK_RECORD
5
204
100
AcDbSymbolTableRecord
100
AcDbBlockTableRecord
2
*D0
0
BLOCK_RECORD
5
205
100
AcDbSymbolTableRecord
100
AcDbBlockTableRecord
2
*D1
0
BLOCK_RECORD
5
206
100
AcDbSymbolTableRecord
100
AcDbBlockTableRecord
2
*D2
0
BLOCK_RECORD
5
207
100
AcDbSymbolTableRecord
100
AcDbBlockTableRecord
2
*D3
0
BLOCK_RECORD
5
208
100
AcDbSymbolTableRecord
100
AcDbBlockTableRecord
2
REVEAL_BL0
0
BLOCK_RECORD
5
209
100
AcDbSymbolTableRecord
100
AcDbBlockTableRecord
2
NO_REVEAL_BL1
0
BLOCK_RECORD
5
20A
100
AcDbSymbolTableRecord
100
AcDbBlockTableRecord
2
NO_REVEAL_BL2
0
BLOCK_RECORD
5
20B
100
AcDbSymbolTableRecord
100
AcDbBlockTableRecord
2
REVEAL_BL3
0
ENDTAB
0
ENDSEC
0
SECTION
2
BLOCKS
0
BLOCK
5
1E
100
AcDbEntity
8
0
100
AcDbBlockBegin
2
*MODEL_SPACE
70
0
10
0.0
20
0.0
30
0.0
3
*MODEL_SPACE
1

0
ENDBLK
5
1F
100
AcDbEntity
8
0
100
AcDbBlockEnd
0
BLOCK
5
20
100
AcDbEntity
8
0
100
AcDbBlockBegin
2
*PAPER_SPACE
70
0
10
0.0
20
0.0
30
0.0
3
*PAPER_SPACE
1

0
ENDBLK
5
21
100
AcDbEntity
8
0
100
AcDbBlockEnd
0
BLOCK
5
20C
100
AcDbEntity
8
0
100
AcDbBlockBegin
62
2
6
CONTINUOUS
2
*D0
70
65
10
0.0000000000
20
0.0000000000
3
*D0
1

0
TEXT
5
20D
100
AcDbEntity
8
0
100
AcDbText
62
2
6
CONTINUOUS
10
7.6667639896
20
12.5941231884
7
TEXTSTYLE_0
40
0.1562500000
1
14-3/16
72
5
11
8.5417640027
21
12.5941231884
100
AcDbText
0
TEXT
5
20E
100
AcDbEntity
8
0
100
AcDbText
62
2
6
CONTINUOUS
10
7.7917639896
20
12.3597481884
7
TEXTSTYLE_0
40
0.1562500000
1
36
72
5
11
8.0417639934
21
12.3597481884
100
AcDbText
0
TEXT
5
20F
100
AcDbEntity
8
0
100
AcDbText
62
2
6
CONTINUOUS
10
7.6667639896
20
12.3597481884
7
TEXTSTYLE_0
40
0.1562500000
1
[
72
5
11
7.7917639915
21
12.3597481884
100
AcDbText
0
TEXT
5
210
100
AcDbEntity
8
0
100
AcDbText
62
2
6
CONTINUOUS
10
8.0417639896
20
12.3597481884
7
TEXTSTYLE_0
40
0.1562500000
1
]
72
5
11
8.1667639915
21
12.3597481884
100
AcDbText
0
LINE
5
211
100
AcDbEntity
8
0
100
AcDbLine
62
2
6
CONTINUOUS
10
2.9667380946
20
12.5701133677
11
2.9667380946
21
12.7972481884
0
LINE
5
212
100
AcDbEntity
8
0
100
AcDbLine
62
2
6
CONTINUOUS
10
17.1779689127
20
12.5701133677
11
17.1779689127
21
12.7972481884
0
LINE
5
213
100
AcDbEntity
8
0
100
AcDbLine
62
2
6
CONTINUOUS
10
2.9667380946
20
12.6722481884
11
7.5886389896
21
12.6722481884
0
LINE
5
214
100
AcDbEntity
8
0
100
AcDbLine
62
2
6
CONTINUOUS
10
17.1779689127
20
12.6722481884
11
8.6198889896
21
12.6722481884
0
SOLID
5
215
100
AcDbEntity
8
0
100
AcDbTrace
62
2
6
CONTINUOUS
10
3.1542380946
20
12.7034981884
11
2.9667380946
21
12.6722481884
12
3.1542380946
22
12.6409981884
13
3.1542380946
23
12.6409981884
0
SOLID
5
216
100
AcDbEntity
8
0
100
AcDbTrace
62
2
6
CONTINUOUS
10
16.9904689127
20
12.6409981884
11
17.1779689127
21
12.6722481884
12
16.9904689127
22
12.7034981884
13
16.9904689127
23
12.7034981884
0
ENDBLK
5
217
100
AcDbEntity
8
0
100
AcDbBlockEnd
0
BLOCK
5
218
100
AcDbEntity
8
0
100
AcDbBlockBegin
62
2
6
CONTINUOUS
2
*D1
70
65
10
0.0000000000
20
0.0000000000
3
*D1
1

0
TEXT
5
219
100
AcDbEntity
8
0
100
AcDbText
62
2
6
CONTINUOUS
10
6.6776724928
20
13.3280263021
7
TEXTSTYLE_0
40
0.1562500000
1
15-11/16
72
5
11
7.6776725077
21
13.3280263021
100
AcDbText
0
TEXT
5
21A
100
AcDbEntity
8
0
100
AcDbText
62
2
6
CONTINUOUS
10
6.8026724928
20
13.0936513021
7
TEXTSTYLE_0
40
0.1562500000
1
40
72
5
11
7.0526724965
21
13.0936513021
100
AcDbText
0
TEXT
5
21B
100
AcDbEntity
8
0
100
AcDbText
62
2
6
CONTINUOUS
10
6.6776724928
20
13.0936513021
7
TEXTSTYLE_0
40
0.1562500000
1
[
72
5
11
6.8026724947
21
13.0936513021
100
AcDbText
0
TEXT
5
21C
100
AcDbEntity
8
0
100
AcDbText
62
2
6
CONTINUOUS
10
7.0526724928
20
13.0936513021
7
TEXTSTYLE_0
40
0.1562500000
1
]
72
5
11
7.1776724947
21
13.0936513021
100
AcDbText
0
LINE
5
21D
100
AcDbEntity
8
0
100
AcDbLine
62
2
6
CONTINUOUS
10
2.2167380946
20
13.0774892264
11
2.2167380946
21
13.5311513021
0
LINE
5
21E
100
AcDbEntity
8
0
100
AcDbLine
62
2
6
CONTINUOUS
10
17.9279689127
20
13.0774892264
11
17.9279689127
21
13.5311513021
0
LINE
5
21F
100
AcDbEntity
8
0
100
AcDbLine
62
2
6
CONTINUOUS
10
2.2167380946
20
13.4061513021
11
6.5995474928
21
13.4061513021
0
LINE
5
220
100
AcDbEntity
8
0
100
AcDbLine
62
2
6
CONTINUOUS
10
17.9279689127
20
13.4061513021
11
7.7557974928
21
13.4061513021
0
SOLID
5
221
100
AcDbEntity
8
0
100
AcDbTrace
62
2
6
CONTINUOUS
10
2.4042380946
20
13.4374013021
11
2.2167380946
21
13.4061513021
12
2.4042380946
22
13.3749013021
13
2.4042380946
23
13.3749013021
0
SOLID
5
222
100
AcDbEntity
8
0
100
AcDbTrace
62
2
6
CONTINUOUS
10
17.7404689127
20
13.3749013021
11
17.9279689127
21
13.4061513021
12
17.7404689127
22
13.4374013021
13
17.7404689127
23
13.4374013021
0
ENDBLK
5
223
100
AcDbEntity
8
0
100
AcDbBlockEnd
0
BLOCK
5
224
100
AcDbEntity
8
0
100
AcDbBlockBegin
62
2
6
CONTINUOUS
2
*D2
70
65
10
0.0000000000
20
0.0000000000
3
*D2
1

0
TEXT
5
225
100
AcDbEntity
8
0
100
AcDbText
62
2
6
CONTINUOUS
10
8.8925411620
20
11.6360466520
7
TEXTSTYLE_0
40
0.1562500000
1
18-7/16
72
5
11
9.7675411750
21
11.6360466520
100
AcDbText
0
TEXT
5
226
100
AcDbEntity
8
0
100
AcDbText
62
2
6
CONTINUOUS
10
9.0175411620
20
11.4016716520
7
TEXTSTYLE_0
40
0.1562500000
1
47
72
5
11
9.2675411657
21
11.4016716520
100
AcDbText
0
TEXT
5
227
100
AcDbEntity
8
0
100
AcDbText
62
2
6
CONTINUOUS
10
8.8925411620
20
11.4016716520
7
TEXTSTYLE_0
40
0.1562500000
1
[
72
5
11
9.0175411638
21
11.4016716520
100
AcDbText
0
TEXT
5
228
100
AcDbEntity
8
0
100
AcDbText
62
2
6
CONTINUOUS
10
9.2675411620
20
11.4016716520
7
TEXTSTYLE_0
40
0.1562500000
1
]
72
5
11
9.3925411638
21
11.4016716520
100
AcDbText
0
LINE
5
229
100
AcDbEntity
8
0
100
AcDbLine
62
2
6
CONTINUOUS
10
10.7560179184
20
21.7382287764
11
9.2050411620
21
21.7382287764
0
LINE
5
22A
100
AcDbEntity
8
0
100
AcDbLine
62
2
6
CONTINUOUS
10
10.6468826470
20
3.2769979590
11
9.2050411620
21
3.2769979590
0
LINE
5
22B
100
AcDbEntity
8
0
100
AcDbLine
62
2
6
CONTINUOUS
10
9.3300411620
20
21.7382287764
11
9.3300411620
21
11.8704216520
0
LINE
5
22C
100
AcDbEntity
8
0
100
AcDbLine
62
2
6
CONTINUOUS
10
9.3300411620
20
3.2769979590
11
9.3300411620
21
11.3235466520
0
SOLID
5
22D
100
AcDbEntity
8
0
100
AcDbTrace
62
2
6
CONTINUOUS
10
9.3612911620
20
21.5507287764
11
9.3300411620
21
21.7382287764
12
9.2987911620
22
21.5507287764
13
9.2987911620
23
21.5507287764
0
SOLID
5
22E
100
AcDbEntity
8
0
100
AcDbTrace
62
2
6
CONTINUOUS
10
9.2987911620
20
3.4644979590
11
9.3300411620
21
3.2769979590
12
9.3612911620
22
3.4644979590
13
9.3612911620
23
3.4644979590
0
ENDBLK
5
22F
100
AcDbEntity
8
0
100
AcDbBlockEnd
0
BLOCK
5
230
100
AcDbEntity
8
0
100
AcDbBlockBegin
62
2
6
CONTINUOUS
2
*D3
70
65
10
0.0000000000
20
0.0000000000
3
*D3
1

0
TEXT
5
231
100
AcDbEntity
8
0
100
AcDbText
62
2
6
CONTINUOUS
10
9.5901109720
20
10.4288769537
7
TEXTSTYLE_0
40
0.1562500000
1
19-15/16
72
5
11
10.5901109869
21
10.4288769537
100
AcDbText
0
TEXT
5
232
100
AcDbEntity
8
0
100
AcDbText
62
2
6
CONTINUOUS
10
9.7151109720
20
10.1945019537
7
TEXTSTYLE_0
40
0.1562500000
1
51
72
5
11
9.9651109757
21
10.1945019537
100
AcDbText
0
TEXT
5
233
100
AcDbEntity
8
0
100
AcDbText
62
2
6
CONTINUOUS
10
9.5901109720
20
10.1945019537
7
TEXTSTYLE_0
40
0.1562500000
1
[
72
5
11
9.7151109739
21
10.1945019537
100
AcDbText
0
TEXT
5
234
100
AcDbEntity
8
0
100
AcDbText
62
2
6
CONTINUOUS
10
9.9651109720
20
10.1945019537
7
TEXTSTYLE_0
40
0.1562500000
1
]
72
5
11
10.0901109739
21
10.1945019537
100
AcDbText
0
LINE
5
235
100
AcDbEntity
8
0
100
AcDbLine
62
2
6
CONTINUOUS
10
11.5199648178
20
22.4882287764
11
9.9651109720
21
22.4882287764
0
LINE
5
236
100
AcDbEntity
8
0
100
AcDbLine
62
2
6
CONTINUOUS
10
11.3890024922
20
2.5269979590
11
9.9651109720
21
2.5269979590
0
LINE
5
237
100
AcDbEntity
8
0
100
AcDbLine
62
2
6
CONTINUOUS
10
10.0901109720
20
22.4882287764
11
10.0901109720
21
10.6632519537
0
LINE
5
238
100
AcDbEntity
8
0
100
AcDbLine
62
2
6
CONTINUOUS
10
10.0901109720
20
2.5269979590
11
10.0901109720
21
10.1163769537
0
SOLID
5
239
100
AcDbEntity
8
0
100
AcDbTrace
62
2
6
CONTINUOUS
10
10.1213609720
20
22.3007287764
11
10.0901109720
21
22.4882287764
12
10.0588609720
22
22.3007287764
13
10.0588609720
23
22.3007287764
0
SOLID
5
23A
100
AcDbEntity
8
0
100
AcDbTrace
62
2
6
CONTINUOUS
10
10.0588609720
20
2.7144979590
11
10.0901109720
21
2.5269979590
12
10.1213609720
22
2.7144979590
13
10.1213609720
23
2.7144979590
0
ENDBLK
5
23B
100
AcDbEntity
8
0
100
AcDbBlockEnd
0
BLOCK
5
23C
100
AcDbEntity
8
0
100
AcDbBlockBegin
62
2
6
CONTINUOUS
2
REVEAL_BL0
70
64
10
0.0000000000
20
0.0000000000
3
REVEAL_BL0
1

0
LINE
5
23D
100
AcDbEntity
8
0
100
AcDbLine
62
2
6
CONTINUOUS
10
12.4986195317
20
10.9782503111
11
12.5449495317
21
11.0210103111
0
LINE
5
23E
100
AcDbEntity
8
0
100
AcDbLine
62
7
6
CONTINUOUS
10
13.0424995317
20
10.1941403111
11
13.0424995317
21
10.8950803111
0
SPLINE
5
23F
100
AcDbEntity
8
0
100
AcDbSpline
62
7
6
CONTINUOUS
70
0
71
3
72
10
73
6
74
4
42
0.0000001000
43
0.0000001000
44
0.0000000001
40
0.0000000000
40
0.0000000000
40
0.0000000000
40
0.0000000000
40
0.3350496869
40
0.6700993738
40
1.0000000000
40
1.0000000000
40
1.0000000000
40
1.0000000000
10
13.0425033235
20
10.8950834673
30
0.0000000000
10
13.0425034370
20
10.9171716651
30
0.0000000000
10
13.0316650937
20
10.9611547143
30
0.0000000000
10
12.9873917987
20
11.0090430756
30
0.0000000000
10
12.9471244222
20
11.0208325677
30
0.0000000000
10
12.9270202061
20
11.0210103111
30
0.0000000000
11
13.0425033235
21
10.8950834673
31
0.0000000000
11
13.0269578027
21
10.9581814422
31
0.0000000000
11
12.9844147889
21
11.0041982390
31
0.0000000000
11
12.9270202061
21
11.0210103111
31
0.0000000000
0
SPLINE
5
240
100
AcDbEntity
8
0
100
AcDbSpline
62
7
6
CONTINUOUS
70
0
71
3
72
12
73
8
74
6
42
0.0000001000
43
0.0000001000
44
0.0000000001
40
0.0000000000
40
0.0000000000
40
0.0000000000
40
0.0000000000
40
0.2000023635
40
0.4000047269
40
0.6000070904
40
0.8000094538
40
1.0000000000
40
1.0000000000
40
1.0000000000
40
1.0000000000
10
12.8216109875
20
11.0210149197
30
0.0000000000
10
12.8268790300
20
11.0223534164
30
0.0000000000
10
12.8382786713
20
11.0277087974
30
0.0000000000
10
12.8540395571
20
11.0419266668
30
0.0000000000
10
12.8648153166
20
11.0590430621
30
0.0000000000
10
12.8681171596
20
11.0751045347
30
0.0000000000
10
12.8648293363
20
11.0826335596
30
0.0000000000
10
12.8620012965
20
11.0851703111
30
0.0000000000
11
12.8216109875
21
11.0210149197
31
0.0000000000
11
12.8380555753
21
11.0287395971
31
0.0000000000
11
12.8532087027
21
11.0424097545
31
0.0000000000
11
12.8635696747
21
11.0588672944
31
0.0000000000
11
12.8667448860
21
11.0743101746
31
0.0000000000
11
12.8620012965
21
11.0851703111
31
0.0000000000
0
LINE
5
241
100
AcDbEntity
8
0
100
AcDbLine
62
7
6
CONTINUOUS
10
13.0021095317
20
10.1808003111
11
13.0021095317
21
10.8927103111
0
SPLINE
5
242
100
AcDbEntity
8
0
100
AcDbSpline
62
7
6
CONTINUOUS
70
0
71
3
72
10
73
6
74
4
42
0.0000001000
43
0.0000001000
44
0.0000000001
40
0.0000000000
40
0.0000000000
40
0.0000000000
40
0.0000000000
40
0.3333333333
40
0.6666666667
40
1.0000000000
40
1.0000000000
40
1.0000000000
40
1.0000000000
10
13.0021104478
20
10.8927029998
30
0.0000000000
10
13.0021110782
20
10.9077999270
30
0.0000000000
10
12.9950700907
20
10.9377262844
30
0.0000000000
10
12.9660970026
20
10.9703229675
30
0.0000000000
10
12.9394962549
20
10.9782458372
30
0.0000000000
10
12.9260767884
20
10.9782460078
30
0.0000000000
11
13.0021104478
21
10.8927029998
31
0.0000000000
11
12.9920014895
21
10.9356774756
31
0.0000000000
11
12.9642756637
21
10.9668709044
31
0.0000000000
11
12.9260767884
21
10.9782460078
31
0.0000000000
0
LINE
5
243
100
AcDbEntity
8
0
100
AcDbLine
62
7
6
CONTINUOUS
10
12.9265595317
20
10.9782503111
11
12.4107095317
21
10.9782503111
0
LINE
5
244
100
AcDbEntity
8
0
100
AcDbLine
62
7
6
CONTINUOUS
10
12.4107095317
20
10.9782503111
11
12.4107095317
21
11.0210103111
0
LINE
5
245
100
AcDbEntity
8
0
100
AcDbLine
62
7
6
CONTINUOUS
10
12.4107095317
20
11.0210103111
11
12.9270202061
21
11.0210103111
0
LINE
5
246
100
AcDbEntity
8
0
100
AcDbLine
62
7
6
CONTINUOUS
10
12.8632971795
20
10.9782503111
11
12.7837495317
21
10.8701303111
0
LINE
5
247
100
AcDbEntity
8
0
100
AcDbLine
62
7
6
CONTINUOUS
10
12.7837495317
20
10.8701303111
11
11.4709795317
21
10.9675503111
0
LINE
5
248
100
AcDbEntity
8
0
100
AcDbLine
62
7
6
CONTINUOUS
10
11.4709795317
20
10.9675503111
11
11.3996895317
21
11.0661603111
0
LINE
5
249
100
AcDbEntity
8
0
100
AcDbLine
62
7
6
CONTINUOUS
10
11.3996895317
20
11.0661603111
11
11.4388995317
21
11.0851703111
0
LINE
5
24A
100
AcDbEntity
8
0
100
AcDbLine
62
7
6
CONTINUOUS
10
11.4388995317
20
11.0851703111
11
11.4971095317
21
10.9996303111
0
LINE
5
24B
100
AcDbEntity
8
0
100
AcDbLine
62
7
6
CONTINUOUS
10
11.4971095317
20
10.9996303111
11
12.7657557350
21
10.9098464892
0
LINE
5
24C
100
AcDbEntity
8
0
100
AcDbLine
62
7
6
CONTINUOUS
10
12.7657557350
20
10.9098464892
11
12.8155411008
21
10.9782503111
0
LINE
5
24D
100
AcDbEntity
8
0
100
AcDbLine
62
2
6
CONTINUOUS
10
12.9664430635
20
10.9654151431
11
12.9978436517
21
10.9944010414
0
LINE
5
24E
100
AcDbEntity
8
0
100
AcDbLine
62
7
6
CONTINUOUS
10
12.4480495317
20
11.0281403111
11
12.4449895317
21
11.0342503111
0
LINE
5
24F
100
AcDbEntity
8
0
100
AcDbLine
62
7
6
CONTINUOUS
10
12.4449895317
20
11.0342503111
11
12.4409195317
21
11.0352703111
0
LINE
5
250
100
AcDbEntity
8
0
100
AcDbLine
62
7
6
CONTINUOUS
10
12.4409195317
20
11.0352703111
11
12.4368495317
21
11.0373103111
0
LINE
5
251
100
AcDbEntity
8
0
100
AcDbLine
62
7
6
CONTINUOUS
10
12.4368495317
20
11.0373103111
11
12.4327695317
21
11.0413803111
0
LINE
5
252
100
AcDbEntity
8
0
100
AcDbLine
62
7
6
CONTINUOUS
10
12.4327695317
20
11.0413803111
11
12.4276795317
21
11.0403603111
0
LINE
5
253
100
AcDbEntity
8
0
100
AcDbLine
62
7
6
CONTINUOUS
10
12.5529295317
20
11.0312003111
11
12.5570095317
21
11.0332303111
0
LINE
5
254
100
AcDbEntity
8
0
100
AcDbLine
62
7
6
CONTINUOUS
10
12.5570095317
20
11.0332303111
11
12.5610795317
21
11.0342503111
0
LINE
5
255
100
AcDbEntity
8
0
100
AcDbLine
62
7
6
CONTINUOUS
10
12.5610795317
20
11.0342503111
11
12.5692295317
21
11.0301803111
0
LINE
5
256
100
AcDbEntity
8
0
100
AcDbLine
62
7
6
CONTINUOUS
10
12.5692295317
20
11.0301803111
11
12.5732995317
21
11.0301803111
0
LINE
5
257
100
AcDbEntity
8
0
100
AcDbLine
62
7
6
CONTINUOUS
10
12.7087395317
20
11.0322203111
11
12.7148395317
21
11.0352703111
0
LINE
5
258
100
AcDbEntity
8
0
100
AcDbLine
62
7
6
CONTINUOUS
10
12.7148395317
20
11.0352703111
11
12.7250295317
21
11.0322203111
0
LINE
5
259
100
AcDbEntity
8
0
100
AcDbLine
62
2
6
CONTINUOUS
10
12.6927635469
20
11.0851703111
11
12.8687795317
21
11.2431339145
0
LINE
5
25A
100
AcDbEntity
8
0
100
AcDbLine
62
7
6
CONTINUOUS
10
12.7117895317
20
11.0698903111
11
12.7077195317
21
11.0698903111
0
LINE
5
25B
100
AcDbEntity
8
0
100
AcDbLine
62
7
6
CONTINUOUS
10
12.7077195317
20
11.0698903111
11
12.6965095317
21
11.0780403111
0
LINE
5
25C
100
AcDbEntity
8
0
100
AcDbLine
62
7
6
CONTINUOUS
10
12.6965095317
20
11.0780403111
11
12.6883695317
21
11.0780403111
0
LINE
5
25D
100
AcDbEntity
8
0
100
AcDbLine
62
7
6
CONTINUOUS
10
12.6883695317
20
11.0780403111
11
12.6883695317
21
11.0719303111
0
LINE
5
25E
100
AcDbEntity
8
0
100
AcDbLine
62
2
6
CONTINUOUS
10
12.5847415274
20
11.0851703111
11
12.8687795317
21
11.3400738641
0
LINE
5
25F
100
AcDbEntity
8
0
100
AcDbLine
62
7
6
CONTINUOUS
10
12.5559895317
20
11.0719303111
11
12.5559895317
21
11.0770203111
0
LINE
5
260
100
AcDbEntity
8
0
100
AcDbLine
62
7
6
CONTINUOUS
10
12.5559895317
20
11.0770203111
11
12.5600595317
21
11.0780403111
0
LINE
5
261
100
AcDbEntity
8
0
100
AcDbLine
62
7
6
CONTINUOUS
10
12.5600595317
20
11.0780403111
11
12.5641295317
21
11.0770203111
0
LINE
5
262
100
AcDbEntity
8
0
100
AcDbLine
62
7
6
CONTINUOUS
10
12.5641295317
20
11.0770203111
11
12.5692295317
21
11.0698903111
0
LINE
5
263
100
AcDbEntity
8
0
100
AcDbLine
62
7
6
CONTINUOUS
10
12.5692295317
20
11.0698903111
11
12.5743195317
21
11.0678603111
0
LINE
5
264
100
AcDbEntity
8
0
100
AcDbLine
62
7
6
CONTINUOUS
10
12.5743195317
20
11.0678603111
11
12.5794095317
21
11.0678603111
0
LINE
5
265
100
AcDbEntity
8
0
100
AcDbLine
62
2
6
CONTINUOUS
10
12.4846578144
20
11.0851703111
11
12.8687795317
21
11.4298938888
0
LINE
5
266
100
AcDbEntity
8
0
100
AcDbLine
62
2
6
CONTINUOUS
10
12.3750964644
20
11.0851703111
11
12.8537868156
21
11.5200887211
0
SPLINE
5
267
100
AcDbEntity
8
0
100
AcDbSpline
62
7
6
CONTINUOUS
70
0
71
3
72
10
73
6
74
4
42
0.0000001000
43
0.0000001000
44
0.0000000001
40
0.0000000000
40
0.0000000000
40
0.0000000000
40
0.0000000000
40
0.3333333333
40
0.6666666667
40
1.0000000000
40
1.0000000000
40
1.0000000000
40
1.0000000000
10
12.4195284615
20
11.0220369615
30
0.0000000000
10
12.4076412415
20
11.0324297905
30
0.0000000000
10
12.3906388149
20
11.0505232359
30
0.0000000000
10
12.3829515947
20
11.0711116464
30
0.0000000000
10
12.3891105461
20
11.0810646938
30
0.0000000000
10
12.3950941444
20
11.0851687989
30
0.0000000000
11
12.4195284615
21
11.0220369615
31
0.0000000000
11
12.3936082182
21
11.0494312763
31
0.0000000000
11
12.3857725359
21
11.0701685065
31
0.0000000000
11
12.3950941444
21
11.0851687989
31
0.0000000000
0
LINE
5
268
100
AcDbEntity
8
0
100
AcDbLine
62
7
6
CONTINUOUS
10
12.2978395317
20
11.0851703111
11
12.2978395317
21
11.3453503111
0
LINE
5
269
100
AcDbEntity
8
0
100
AcDbLine
62
7
6
CONTINUOUS
10
12.2978395317
20
11.3453503111
11
12.0982595317
21
11.3453503111
0
LINE
5
26A
100
AcDbEntity
8
0
100
AcDbLine
62
7
6
CONTINUOUS
10
12.0982595317
20
11.3453503111
11
12.0982595317
21
11.0851703111
0
LINE
5
26B
100
AcDbEntity
8
0
100
AcDbLine
62
2
6
CONTINUOUS
10
12.2978395317
20
11.1184203111
11
12.7810435384
21
11.5520603111
0
LINE
5
26C
100
AcDbEntity
8
0
100
AcDbLine
62
7
6
CONTINUOUS
10
12.1552795317
20
10.9530507227
11
12.1552795317
21
11.3075703111
0
LINE
5
26D
100
AcDbEntity
8
0
100
AcDbLine
62
7
6
CONTINUOUS
10
12.1552795317
20
11.3075703111
11
12.1987595317
21
11.3453503111
0
LINE
5
26E
100
AcDbEntity
8
0
100
AcDbLine
62
7
6
CONTINUOUS
10
12.1987595317
20
11.3453503111
11
12.2458095317
21
11.3075703111
0
LINE
5
26F
100
AcDbEntity
8
0
100
AcDbLine
62
2
6
CONTINUOUS
10
12.2978395317
20
11.2251903111
11
12.6620698465
21
11.5520603111
0
LINE
5
270
100
AcDbEntity
8
0
100
AcDbLine
62
7
6
CONTINUOUS
10
12.2458095317
20
10.9466437911
11
12.2458095317
21
11.3075703111
0
LINE
5
271
100
AcDbEntity
8
0
100
AcDbLine
62
7
6
CONTINUOUS
10
12.2458095317
20
11.3075703111
11
12.1552795317
21
11.3075703111
0
LINE
5
272
100
AcDbEntity
8
0
100
AcDbLine
62
2
6
CONTINUOUS
10
12.2978395317
20
11.3253903111
11
12.5504315005
21
11.5520603111
0
LINE
5
273
100
AcDbEntity
8
0
100
AcDbLine
62
7
6
CONTINUOUS
10
12.1552795317
20
11.2092003111
11
12.2458095317
21
11.2092003111
0
LINE
5
274
100
AcDbEntity
8
0
100
AcDbLine
62
7
6
CONTINUOUS
10
12.2457995317
20
11.2092003111
11
12.1987595317
21
11.2469803111
0
LINE
5
275
100
AcDbEntity
8
0
100
AcDbLine
62
7
6
CONTINUOUS
10
12.1987595317
20
11.2469803111
11
12.1552795317
21
11.2092003111
0
LINE
5
276
100
AcDbEntity
8
0
100
AcDbLine
62
2
6
CONTINUOUS
10
11.8110675337
20
11.0851703111
11
12.3313298909
21
11.5520603111
0
LINE
5
277
100
AcDbEntity
8
0
100
AcDbLine
62
2
6
CONTINUOUS
10
12.8687795317
20
11.1547403111
11
12.7912519696
21
11.0851703111
0
LINE
5
278
100
AcDbEntity
8
0
100
AcDbLine
62
7
6
CONTINUOUS
10
12.7962995317
20
11.0851703111
11
12.8125995317
21
11.0770203111
0
LINE
5
279
100
AcDbEntity
8
0
100
AcDbLine
62
7
6
CONTINUOUS
10
12.8125995317
20
11.0770203111
11
12.8156595317
21
11.0729503111
0
LINE
5
27A
100
AcDbEntity
8
0
100
AcDbLine
62
7
6
CONTINUOUS
10
12.8156595317
20
11.0729503111
11
12.8176895317
21
11.0648003111
0
LINE
5
27B
100
AcDbEntity
8
0
100
AcDbLine
62
7
6
CONTINUOUS
10
12.8176895317
20
11.0648003111
11
12.8176895317
21
11.0586903111
0
LINE
5
27C
100
AcDbEntity
8
0
100
AcDbLine
62
7
6
CONTINUOUS
10
12.8176895317
20
11.0586903111
11
12.8166795317
21
11.0536003111
0
LINE
5
27D
100
AcDbEntity
8
0
100
AcDbLine
62
7
6
CONTINUOUS
10
12.8166795317
20
11.0536003111
11
12.8085295317
21
11.0485103111
0
LINE
5
27E
100
AcDbEntity
8
0
100
AcDbLine
62
7
6
CONTINUOUS
10
12.8085295317
20
11.0485103111
11
12.7963095317
21
11.0474903111
0
LINE
5
27F
100
AcDbEntity
8
0
100
AcDbLine
62
7
6
CONTINUOUS
10
12.7963095317
20
11.0474903111
11
12.7840895317
21
11.0444403111
0
LINE
5
280
100
AcDbEntity
8
0
100
AcDbLine
62
7
6
CONTINUOUS
10
12.7840895317
20
11.0444403111
11
12.7769595317
21
11.0444403111
0
LINE
5
281
100
AcDbEntity
8
0
100
AcDbLine
62
7
6
CONTINUOUS
10
12.7769595317
20
11.0444403111
11
12.7688095317
21
11.0424003111
0
LINE
5
282
100
AcDbEntity
8
0
100
AcDbLine
62
7
6
CONTINUOUS
10
12.7688095317
20
11.0424003111
11
12.7413195317
21
11.0424003111
0
LINE
5
283
100
AcDbEntity
8
0
100
AcDbLine
62
7
6
CONTINUOUS
10
12.7413195317
20
11.0424003111
11
12.7321595317
21
11.0454503111
0
LINE
5
284
100
AcDbEntity
8
0
100
AcDbLine
62
7
6
CONTINUOUS
10
12.7321595317
20
11.0454503111
11
12.7290995317
21
11.0485103111
0
LINE
5
285
100
AcDbEntity
8
0
100
AcDbLine
62
7
6
CONTINUOUS
10
12.7290995317
20
11.0485103111
11
12.7250295317
21
11.0495303111
0
LINE
5
286
100
AcDbEntity
8
0
100
AcDbLine
62
7
6
CONTINUOUS
10
12.7250295317
20
11.0495303111
11
12.7189195317
21
11.0495303111
0
LINE
5
287
100
AcDbEntity
8
0
100
AcDbLine
62
7
6
CONTINUOUS
10
12.7189195317
20
11.0495303111
11
12.7077195317
21
11.0515603111
0
LINE
5
288
100
AcDbEntity
8
0
100
AcDbLine
62
7
6
CONTINUOUS
10
12.7077195317
20
11.0515603111
11
12.6995695317
21
11.0515603111
0
LINE
5
289
100
AcDbEntity
8
0
100
AcDbLine
62
7
6
CONTINUOUS
10
12.6995695317
20
11.0515603111
11
12.6903995317
21
11.0495303111
0
LINE
5
28A
100
AcDbEntity
8
0
100
AcDbLine
62
7
6
CONTINUOUS
10
12.6903995317
20
11.0495303111
11
12.6853095317
21
11.0454503111
0
LINE
5
28B
100
AcDbEntity
8
0
100
AcDbLine
62
7
6
CONTINUOUS
10
12.6853095317
20
11.0454503111
11
12.6812395317
21
11.0444403111
0
LINE
5
28C
100
AcDbEntity
8
0
100
AcDbLine
62
7
6
CONTINUOUS
10
12.6812395317
20
11.0444403111
11
12.6170895317
21
11.0424003111
0
LINE
5
28D
100
AcDbEntity
8
0
100
AcDbLine
62
7
6
CONTINUOUS
10
12.6170895317
20
11.0424003111
11
12.6079195317
21
11.0444403111
0
LINE
5
28E
100
AcDbEntity
8
0
100
AcDbLine
62
7
6
CONTINUOUS
10
12.6079195317
20
11.0444403111
11
12.5692295317
21
11.0485103111
0
LINE
5
28F
100
AcDbEntity
8
0
100
AcDbLine
62
7
6
CONTINUOUS
10
12.5692295317
20
11.0485103111
11
12.5600595317
21
11.0424003111
0
LINE
5
290
100
AcDbEntity
8
0
100
AcDbLine
62
7
6
CONTINUOUS
10
12.5600595317
20
11.0424003111
11
12.5549695317
21
11.0403603111
0
LINE
5
291
100
AcDbEntity
8
0
100
AcDbLine
62
7
6
CONTINUOUS
10
12.5549695317
20
11.0403603111
11
12.5213595317
21
11.0373103111
0
LINE
5
292
100
AcDbEntity
8
0
100
AcDbLine
62
7
6
CONTINUOUS
10
12.5213595317
20
11.0373103111
11
12.4734995317
21
11.0393403111
0
LINE
5
293
100
AcDbEntity
8
0
100
AcDbLine
62
7
6
CONTINUOUS
10
12.4734995317
20
11.0393403111
11
12.4633195317
21
11.0393403111
0
LINE
5
294
100
AcDbEntity
8
0
100
AcDbLine
62
7
6
CONTINUOUS
10
12.4633195317
20
11.0393403111
11
12.4531395317
21
11.0413803111
0
LINE
5
295
100
AcDbEntity
8
0
100
AcDbLine
62
7
6
CONTINUOUS
10
12.4531395317
20
11.0413803111
11
12.4388795317
21
11.0495303111
0
LINE
5
296
100
AcDbEntity
8
0
100
AcDbLine
62
7
6
CONTINUOUS
10
12.4388795317
20
11.0495303111
11
12.4378595317
21
11.0536003111
0
LINE
5
297
100
AcDbEntity
8
0
100
AcDbLine
62
7
6
CONTINUOUS
10
12.4378595317
20
11.0536003111
11
12.4276795317
21
11.0566603111
0
LINE
5
298
100
AcDbEntity
8
0
100
AcDbLine
62
7
6
CONTINUOUS
10
12.4276795317
20
11.0566603111
11
12.4154595317
21
11.0668403111
0
LINE
5
299
100
AcDbEntity
8
0
100
AcDbLine
62
7
6
CONTINUOUS
10
12.4154595317
20
11.0668403111
11
12.4124095317
21
11.0709103111
0
LINE
5
29A
100
AcDbEntity
8
0
100
AcDbLine
62
7
6
CONTINUOUS
10
12.4124095317
20
11.0709103111
11
12.4124095317
21
11.0770203111
0
LINE
5
29B
100
AcDbEntity
8
0
100
AcDbLine
62
7
6
CONTINUOUS
10
12.4124095317
20
11.0770203111
11
12.4144395317
21
11.0810903111
0
LINE
5
29C
100
AcDbEntity
8
0
100
AcDbLine
62
7
6
CONTINUOUS
10
12.4144395317
20
11.0810903111
11
12.4195295317
21
11.0851703111
0
LINE
5
29D
100
AcDbEntity
8
0
100
AcDbLine
62
2
6
CONTINUOUS
10
11.6994147981
20
11.0851703111
11
12.2196815157
21
11.5520603111
0
LINE
5
29E
100
AcDbEntity
8
0
100
AcDbLine
62
2
6
CONTINUOUS
10
11.5910692388
20
11.0851703111
11
12.1113192545
21
11.5520603111
0
LINE
5
29F
100
AcDbEntity
8
0
100
AcDbLine
62
2
6
CONTINUOUS
10
12.2118795317
20
11.3454803111
11
12.4420666663
21
11.5520603111
0
LINE
5
2A0
100
AcDbEntity
8
0
100
AcDbLine
62
2
6
CONTINUOUS
10
12.0319595317
20
11.0867803111
11
12.0982595317
21
11.1462703111
0
LINE
5
2A1
100
AcDbEntity
8
0
100
AcDbLine
62
2
6
CONTINUOUS
10
11.4817475322
20
11.0851703111
11
12.0019998362
21
11.5520603111
0
LINE
5
2A2
100
AcDbEntity
8
0
100
AcDbLine
62
2
6
CONTINUOUS
10
11.3700997424
20
11.0851703111
11
11.8903615201
21
11.5520603111
0
LINE
5
2A3
100
AcDbEntity
8
0
100
AcDbLine
62
2
6
CONTINUOUS
10
11.2617492388
20
11.0851703111
11
11.7819992545
21
11.5520603111
0
LINE
5
2A4
100
AcDbEntity
8
0
100
AcDbLine
62
2
6
CONTINUOUS
10
11.2095843264
20
11.1415820939
11
11.6669798515
21
11.5520603111
0
LINE
5
2A5
100
AcDbEntity
8
0
100
AcDbLine
62
2
6
CONTINUOUS
10
11.2450851721
20
11.2736348636
11
11.5553315304
21
11.5520603111
0
SPLINE
5
2A6
100
AcDbEntity
8
0
100
AcDbSpline
62
7
6
CONTINUOUS
70
0
71
3
72
10
73
6
74
4
42
0.0000001000
43
0.0000001000
44
0.0000000001
40
0.0000000000
40
0.0000000000
40
0.0000000000
40
0.0000000000
40
0.2497645491
40
0.6269496006
40
1.0000000000
40
1.0000000000
40
1.0000000000
40
1.0000000000
10
12.8687795317
20
11.4690461258
30
0.0000000000
10
12.8695931930
20
11.4770372542
30
0.0000000000
10
12.8674136151
20
11.4990174643
30
0.0000000000
10
12.8470617224
20
11.5338033096
30
0.0000000000
10
12.8229764735
20
11.5488301461
30
0.0000000000
10
12.8112361479
20
11.5520603111
30
0.0000000000
11
12.8687795317
21
11.4690461258
31
0.0000000000
11
12.8661774637
21
11.4945230554
31
0.0000000000
11
12.8447490785
21
11.5311488623
31
0.0000000000
11
12.8112361479
21
11.5520603111
31
0.0000000000
0
LINE
5
2A7
100
AcDbEntity
8
0
100
AcDbLine
62
7
6
CONTINUOUS
10
12.1552795317
20
11.0851703111
11
11.2221995317
21
11.0851703111
0
LINE
5
2A8
100
AcDbEntity
8
0
100
AcDbLine
62
7
6
CONTINUOUS
10
11.2221995317
20
11.0851703111
11
11.1979695317
21
11.1935203111
0
LINE
5
2A9
100
AcDbEntity
8
0
100
AcDbLine
62
7
6
CONTINUOUS
10
11.1979695317
20
11.1935203111
11
11.2507195317
21
11.2505403111
0
LINE
5
2AA
100
AcDbEntity
8
0
100
AcDbLine
62
7
6
CONTINUOUS
10
11.2507195317
20
11.2505403111
11
11.2221995317
21
11.3674403111
0
LINE
5
2AB
100
AcDbEntity
8
0
100
AcDbLine
62
7
6
CONTINUOUS
10
11.2221995317
20
11.3674403111
11
11.2949095317
21
11.4130603111
0
LINE
5
2AC
100
AcDbEntity
8
0
100
AcDbLine
62
7
6
CONTINUOUS
10
11.2949095317
20
11.4130603111
11
11.2977595317
21
11.5057303111
0
LINE
5
2AD
100
AcDbEntity
8
0
100
AcDbLine
62
7
6
CONTINUOUS
10
11.2977595317
20
11.5057303111
11
11.3889995317
21
11.5520603111
0
LINE
5
2AE
100
AcDbEntity
8
0
100
AcDbLine
62
7
6
CONTINUOUS
10
11.3889995317
20
11.5520603111
11
12.8112361479
21
11.5520603111
0
LINE
5
2AF
100
AcDbEntity
8
0
100
AcDbLine
62
7
6
CONTINUOUS
10
12.8687795317
20
11.4690461258
11
12.8687795317
21
11.0210103111
0
LINE
5
2B0
100
AcDbEntity
8
0
100
AcDbLine
62
7
6
CONTINUOUS
10
12.8620012965
20
11.0851703111
11
12.2458095317
21
11.0851703111
0
LINE
5
2B1
100
AcDbEntity
8
0
100
AcDbLine
62
2
6
CONTINUOUS
10
11.2949095317
20
11.4155903111
11
11.4469793265
21
11.5520603111
0
LINE
5
2B2
100
AcDbEntity
8
0
100
AcDbLine
62
7
6
CONTINUOUS
10
12.2458095317
20
10.9100505674
11
12.2458095317
21
10.8333103111
0
LINE
5
2B3
100
AcDbEntity
8
0
100
AcDbLine
62
7
6
CONTINUOUS
10
12.2458095317
20
10.8333103111
11
12.2907195317
21
10.7739003111
0
LINE
5
2B4
100
AcDbEntity
8
0
100
AcDbLine
62
7
6
CONTINUOUS
10
12.2907195317
20
10.7739003111
11
12.1089495317
21
10.7739003111
0
LINE
5
2B5
100
AcDbEntity
8
0
100
AcDbLine
62
7
6
CONTINUOUS
10
12.1089495317
20
10.7739003111
11
12.1552795317
21
10.8333103111
0
LINE
5
2B6
100
AcDbEntity
8
0
100
AcDbLine
62
7
6
CONTINUOUS
10
12.1552795317
20
10.8333103111
11
12.1552795317
21
10.9167687531
0
SPLINE
5
2B7
100
AcDbEntity
8
0
100
AcDbSpline
62
7
6
CONTINUOUS
70
0
71
3
72
10
73
6
74
4
42
0.0000001000
43
0.0000001000
44
0.0000000001
40
0.0000000000
40
0.0000000000
40
0.0000000000
40
0.0000000000
40
0.3333333333
40
0.6666666667
40
1.0000000000
40
1.0000000000
40
1.0000000000
40
1.0000000000
10
12.6242110171
20
11.0627688765
30
0.0000000000
10
12.6231450570
20
11.0640116024
30
0.0000000000
10
12.6203490345
20
11.0659247035
30
0.0000000000
10
12.6152794553
20
11.0663150325
30
0.0000000000
10
12.6122234150
20
11.0648525073
30
0.0000000000
10
12.6109797036
20
11.0637876130
30
0.0000000000
11
12.6242110171
21
11.0627688765
31
0.0000000000
11
12.6202031103
21
11.0655114830
31
0.0000000000
11
12.6153603751
21
11.0658843464
31
0.0000000000
11
12.6109797036
21
11.0637876130
31
0.0000000000
0
SPLINE
5
2B8
100
AcDbEntity
8
0
100
AcDbSpline
62
7
6
CONTINUOUS
70
0
71
3
72
10
73
6
74
4
42
0.0000001000
43
0.0000001000
44
0.0000000001
40
0.0000000000
40
0.0000000000
40
0.0000000000
40
0.0000000000
40
0.3333333333
40
0.6666666667
40
1.0000000000
40
1.0000000000
40
1.0000000000
40
1.0000000000
10
12.4897993959
20
11.0627619705
30
0.0000000000
10
12.4885557894
20
11.0648956253
30
0.0000000000
10
12.4849275146
20
11.0684933432
30
0.0000000000
10
12.4775126722
20
11.0704458475
30
0.0000000000
10
12.4725826284
20
11.0691017383
30
0.0000000000
10
12.4704491805
20
11.0678573422
30
0.0000000000
11
12.4897993959
21
11.0627619705
31
0.0000000000
11
12.4845987763
21
11.0679193311
31
0.0000000000
11
12.4775159683
21
11.0697844028
31
0.0000000000
11
12.4704491805
21
11.0678573422
31
0.0000000000
0
LINE
5
2B9
100
AcDbEntity
8
0
100
AcDbLine
62
7
6
CONTINUOUS
10
12.6191195317
20
11.0291603111
11
12.6160695317
21
11.0332303111
0
LINE
5
2BA
100
AcDbEntity
8
0
100
AcDbLine
62
7
6
CONTINUOUS
10
12.6160695317
20
11.0332303111
11
12.6119895317
21
11.0342503111
0
LINE
5
2BB
100
AcDbEntity
8
0
100
AcDbLine
62
7
6
CONTINUOUS
10
12.6119895317
20
11.0342503111
11
12.6018095317
21
11.0342503111
0
SPLINE
5
2BC
100
AcDbEntity
8
0
100
AcDbSpline
62
7
6
CONTINUOUS
70
0
71
3
72
10
73
6
74
4
42
0.0000001000
43
0.0000001000
44
0.0000000001
40
0.0000000000
40
0.0000000000
40
0.0000000000
40
0.0000000000
40
0.3333333333
40
0.6666666667
40
1.0000000000
40
1.0000000000
40
1.0000000000
40
1.0000000000
10
12.6741079176
20
11.0322183313
30
0.0000000000
10
12.6749957100
20
11.0313295144
30
0.0000000000
10
12.6772479156
20
11.0300285963
30
0.0000000000
10
12.6811530354
20
11.0300276231
30
0.0000000000
10
12.6834058836
20
11.0313274186
30
0.0000000000
10
12.6842941152
20
11.0322157928
30
0.0000000000
11
12.6741079176
21
11.0322183313
31
0.0000000000
11
12.6773357175
21
11.0303536636
31
0.0000000000
11
12.6810653941
21
11.0303527342
31
0.0000000000
11
12.6842941152
21
11.0322157928
31
0.0000000000
0
SPLINE
5
2BD
100
AcDbEntity
8
0
100
AcDbSpline
62
7
6
CONTINUOUS
70
0
71
3
72
10
73
6
74
4
42
0.0000001000
43
0.0000001000
44
0.0000000001
40
0.0000000000
40
0.0000000000
40
0.0000000000
40
0.0000000000
40
0.3333333333
40
0.6666666667
40
1.0000000000
40
1.0000000000
40
1.0000000000
40
1.0000000000
10
12.4103681117
20
11.0444345171
30
0.0000000000
10
12.4101018109
20
11.0463002471
30
0.0000000000
10
12.4085690458
20
11.0498875787
30
0.0000000000
10
12.4038844507
20
11.0534012146
30
0.0000000000
10
12.4000118901
20
11.0538680959
30
0.0000000000
10
12.3981465036
20
11.0536012177
30
0.0000000000
11
12.4103681117
21
11.0444345171
31
0.0000000000
11
12.4081714713
21
11.0495763518
31
0.0000000000
11
12.4036970764
21
11.0529323290
31
0.0000000000
11
12.3981465036
21
11.0536012177
31
0.0000000000
0
SPLINE
5
2BE
100
AcDbEntity
8
0
100
AcDbSpline
62
7
6
CONTINUOUS
70
0
71
3
72
10
73
6
74
4
42
0.0000001000
43
0.0000001000
44
0.0000000001
40
0.0000000000
40
0.0000000000
40
0.0000000000
40
0.0000000000
40
0.3333333333
40
0.6666666667
40
1.0000000000
40
1.0000000000
40
1.0000000000
40
1.0000000000
10
12.5305282207
20
11.0607313619
30
0.0000000000
10
12.5302610069
20
11.0615312466
30
0.0000000000
10
12.5292986127
20
11.0629866989
30
0.0000000000
10
12.5269560998
20
11.0641561364
30
0.0000000000
10
12.5252146687
20
11.0640504974
30
0.0000000000
10
12.5244149264
20
11.0637832624
30
0.0000000000
11
12.5305282207
21
11.0607313619
31
0.0000000000
11
12.5291487924
21
11.0628177421
31
0.0000000000
11
12.5269111608
21
11.0639348204
31
0.0000000000
11
12.5244149264
21
11.0637832624
31
0.0000000000
0
SPLINE
5
2BF
100
AcDbEntity
8
0
100
AcDbSpline
62
7
6
CONTINUOUS
70
0
71
3
72
10
73
6
74
4
42
0.0000001000
43
0.0000001000
44
0.0000000001
40
0.0000000000
40
0.0000000000
40
0.0000000000
40
0.0000000000
40
0.3333333333
40
0.6666666667
40
1.0000000000
40
1.0000000000
40
1.0000000000
40
1.0000000000
10
12.8360212546
20
11.0597083808
30
0.0000000000
10
12.8364662703
20
11.0606863029
30
0.0000000000
10
12.8368314579
20
11.0628789368
30
0.0000000000
10
12.8356597885
20
11.0660020457
30
0.0000000000
10
12.8339423171
20
11.0674139522
30
0.0000000000
10
12.8329637524
20
11.0678582160
30
0.0000000000
11
12.8360212546
21
11.0597083808
31
0.0000000000
11
12.8365448828
21
11.0628512965
31
0.0000000000
11
12.8354256989
21
11.0658345042
31
0.0000000000
11
12.8329637524
21
11.0678582160
31
0.0000000000
0
LINE
5
2C0
100
AcDbEntity
8
0
100
AcDbLine
62
7
6
CONTINUOUS
10
12.8380595317
20
11.0383303111
11
12.8227795317
21
11.0403603111
0
LINE
5
2C1
100
AcDbEntity
8
0
100
AcDbLine
62
7
6
CONTINUOUS
10
12.8227795317
20
11.0403603111
11
12.8166795317
21
11.0424003111
0
LINE
5
2C2
100
AcDbEntity
8
0
100
AcDbLine
62
7
6
CONTINUOUS
10
12.8166795317
20
11.0424003111
11
12.8095495317
21
11.0424003111
0
LINE
5
2C3
100
AcDbEntity
8
0
100
AcDbLine
62
2
6
CONTINUOUS
10
12.4439695317
20
10.9782503111
11
12.4903095317
21
11.0210103111
0
LINE
5
2C4
100
AcDbEntity
8
0
100
AcDbLine
62
2
6
CONTINUOUS
10
12.5663395317
20
10.9782503111
11
12.6126695317
21
11.0210103111
0
LINE
5
2C5
100
AcDbEntity
8
0
100
AcDbLine
62
2
6
CONTINUOUS
10
12.6257395317
20
10.9782503111
11
12.6720695317
21
11.0210103111
0
LINE
5
2C6
100
AcDbEntity
8
0
100
AcDbLine
62
2
6
CONTINUOUS
10
12.6839595317
20
10.9782503111
11
12.7302895317
21
11.0210103111
0
LINE
5
2C7
100
AcDbEntity
8
0
100
AcDbLine
62
2
6
CONTINUOUS
10
12.7409795317
20
10.9782503111
11
12.7873095317
21
11.0210103111
0
LINE
5
2C8
100
AcDbEntity
8
0
100
AcDbLine
62
2
6
CONTINUOUS
10
12.8051295317
20
10.9782503111
11
12.8514646014
21
11.0210103111
0
LINE
5
2C9
100
AcDbEntity
8
0
100
AcDbLine
62
2
6
CONTINUOUS
10
12.9935706971
20
10.9324375407
11
13.0251014205
21
10.9615428239
0
LINE
5
2CA
100
AcDbEntity
8
0
100
AcDbLine
62
2
6
CONTINUOUS
10
13.0021095317
20
10.8675716861
11
13.0424995317
21
10.9048603111
0
LINE
5
2CB
100
AcDbEntity
8
0
100
AcDbLine
62
2
6
CONTINUOUS
10
13.0021095317
20
10.8055203111
11
13.0424995317
21
10.8428103111
0
LINE
5
2CC
100
AcDbEntity
8
0
100
AcDbLine
62
2
6
CONTINUOUS
10
13.0021095317
20
10.7354303111
11
13.0424995317
21
10.7727203111
0
LINE
5
2CD
100
AcDbEntity
8
0
100
AcDbLine
62
2
6
CONTINUOUS
10
13.0021095317
20
10.6653403111
11
13.0424995317
21
10.7026203111
0
LINE
5
2CE
100
AcDbEntity
8
0
100
AcDbLine
62
2
6
CONTINUOUS
10
13.0021095317
20
10.5893003111
11
13.0424995317
21
10.6265903111
0
LINE
5
2CF
100
AcDbEntity
8
0
100
AcDbLine
62
2
6
CONTINUOUS
10
13.0021095317
20
10.5239603111
11
13.0424995317
21
10.5612503111
0
LINE
5
2D0
100
AcDbEntity
8
0
100
AcDbLine
62
2
6
CONTINUOUS
10
13.0021095317
20
10.4574303111
11
13.0424995317
21
10.4947203111
0
LINE
5
2D1
100
AcDbEntity
8
0
100
AcDbLine
62
2
6
CONTINUOUS
10
13.0021095317
20
10.3802103111
11
13.0424995317
21
10.4175003111
0
LINE
5
2D2
100
AcDbEntity
8
0
100
AcDbLine
62
2
6
CONTINUOUS
10
13.0021095317
20
10.3113103111
11
13.0424995317
21
10.3485903111
0
LINE
5
2D3
100
AcDbEntity
8
0
100
AcDbLine
62
2
6
CONTINUOUS
10
13.0021095317
20
10.2412103111
11
13.0424995317
21
10.2784903111
0
LINE
5
2D4
100
AcDbEntity
8
0
100
AcDbLine
62
2
6
CONTINUOUS
10
13.0021095317
20
10.1829972342
11
13.0424995317
21
10.2202803111
0
LINE
5
2D5
100
AcDbEntity
8
0
100
AcDbLine
62
7
6
CONTINUOUS
10
12.1552795317
20
10.8333103111
11
12.2458095317
21
10.8333103111
0
LINE
5
2D6
100
AcDbEntity
8
0
100
AcDbLine
62
2
6
CONTINUOUS
10
11.9231695317
20
11.0862203111
11
12.0982595317
21
11.2433603111
0
LINE
5
2D7
100
AcDbEntity
8
0
100
AcDbLine
62
2
6
CONTINUOUS
10
12.8660095317
20
10.9782503111
11
12.9123446014
21
11.0210103111
0
LINE
5
2D8
100
AcDbEntity
8
0
100
AcDbLine
62
2
6
CONTINUOUS
10
12.9251653651
20
10.9782503111
11
12.9640723181
21
11.0141644216
0
ENDBLK
5
2D9
100
AcDbEntity
8
0
100
AcDbBlockEnd
0
BLOCK
5
2DA
100
AcDbEntity
8
0
100
AcDbBlockBegin
62
2
6
CONTINUOUS
2
NO_REVEAL_BL1
70
64
10
0.0000000000
20
0.0000000000
3
NO_REVEAL_BL1
1

0
LINE
5
2DB
100
AcDbEntity
8
0
100
AcDbLine
62
7
6
CONTINUOUS
10
12.5378283607
20
7.6448266892
11
12.5378283607
21
8.3457666892
0
SPLINE
5
2DC
100
AcDbEntity
8
0
100
AcDbSpline
62
7
6
CONTINUOUS
70
0
71
3
72
10
73
6
74
4
42
0.0000001000
43
0.0000001000
44
0.0000000001
40
0.0000000000
40
0.0000000000
40
0.0000000000
40
0.0000000000
40
0.3333333333
40
0.6666666667
40
1.0000000000
40
1.0000000000
40
1.0000000000
40
1.0000000000
10
12.5378311164
20
8.3457658217
30
0.0000000000
10
12.5378310545
20
8.3678545917
30
0.0000000000
10
12.5269919390
20
8.4118384268
30
0.0000000000
10
12.4824886291
20
8.4599728799
30
0.0000000000
10
12.4418234765
20
8.4716956831
30
0.0000000000
10
12.4214014743
20
8.4716952675
30
0.0000000000
11
12.5378311164
21
8.3457658217
31
0.0000000000
11
12.5222844996
21
8.4088648769
31
0.0000000000
11
12.4797395593
21
8.4548811718
31
0.0000000000
11
12.4214014743
21
8.4716952675
31
0.0000000000
0
SPLINE
5
2DD
100
AcDbEntity
8
0
100
AcDbSpline
62
7
6
CONTINUOUS
70
0
71
3
72
12
73
8
74
6
42
0.0000001000
43
0.0000001000
44
0.0000000001
40
0.0000000000
40
0.0000000000
40
0.0000000000
40
0.0000000000
40
0.2000000000
40
0.4000000000
40
0.6000000000
40
0.8000000000
40
1.0000000000
40
1.0000000000
40
1.0000000000
40
1.0000000000
10
12.4214054259
20
8.4716957073
30
0.0000000000
10
12.4266734667
20
8.4730342056
30
0.0000000000
10
12.4380731035
20
8.4783895893
30
0.0000000000
10
12.4538339810
20
8.4926074606
30
0.0000000000
10
12.4646097324
20
8.5097238553
30
0.0000000000
10
12.4679116347
20
8.5257856413
30
0.0000000000
10
12.4646235506
20
8.5333147916
30
0.0000000000
10
12.4617952036
20
8.5358515464
30
0.0000000000
11
12.4214054259
21
8.4716957073
31
0.0000000000
11
12.4378500072
21
8.4794203886
31
0.0000000000
11
12.4530031266
21
8.4930905478
31
0.0000000000
11
12.4633640909
21
8.5095480872
31
0.0000000000
11
12.4665392966
21
8.5249909645
31
0.0000000000
11
12.4617952036
21
8.5358515464
31
0.0000000000
0
LINE
5
2DE
100
AcDbEntity
8
0
100
AcDbLine
62
7
6
CONTINUOUS
10
12.4974383607
20
7.6314866892
11
12.4974383607
21
8.3433866892
0
SPLINE
5
2DF
100
AcDbEntity
8
0
100
AcDbSpline
62
7
6
CONTINUOUS
70
0
71
3
72
10
73
6
74
4
42
0.0000001000
43
0.0000001000
44
0.0000000001
40
0.0000000000
40
0.0000000000
40
0.0000000000
40
0.0000000000
40
0.3333333333
40
0.6666666667
40
1.0000000000
40
1.0000000000
40
1.0000000000
40
1.0000000000
10
12.4974382407
20
8.3433878489
30
0.0000000000
10
12.4974381798
20
8.3584839805
30
0.0000000000
10
12.4903967289
20
8.3884082623
30
0.0000000000
10
12.4614255033
20
8.4210027649
30
0.0000000000
10
12.4348266864
20
8.4289259604
30
0.0000000000
10
12.4214079986
20
8.4289267890
30
0.0000000000
11
12.4974382407
21
8.3433878489
31
0.0000000000
11
12.4873285540
21
8.3863596089
31
0.0000000000
11
12.4596043367
21
8.4175511467
31
0.0000000000
11
12.4214079986
21
8.4289267890
31
0.0000000000
0
LINE
5
2E0
100
AcDbEntity
8
0
100
AcDbLine
62
7
6
CONTINUOUS
10
12.4214083607
20
8.4289266892
11
12.0079683607
21
8.4289266892
0
LINE
5
2E1
100
AcDbEntity
8
0
100
AcDbLine
62
7
6
CONTINUOUS
10
12.0079683607
20
8.4289266892
11
12.0079683607
21
8.4716966892
0
LINE
5
2E2
100
AcDbEntity
8
0
100
AcDbLine
62
7
6
CONTINUOUS
10
12.0079683607
20
8.4716966892
11
12.4214083607
21
8.4716966892
0
LINE
5
2E3
100
AcDbEntity
8
0
100
AcDbLine
62
7
6
CONTINUOUS
10
12.4842268396
20
8.3919189527
11
12.3810083607
21
8.3208166892
0
LINE
5
2E4
100
AcDbEntity
8
0
100
AcDbLine
62
7
6
CONTINUOUS
10
12.3810083607
20
8.3208166892
11
11.0682383607
21
8.4182366892
0
LINE
5
2E5
100
AcDbEntity
8
0
100
AcDbLine
62
7
6
CONTINUOUS
10
11.0682383607
20
8.4182366892
11
10.9969583607
21
8.5168366892
0
LINE
5
2E6
100
AcDbEntity
8
0
100
AcDbLine
62
7
6
CONTINUOUS
10
10.9969583607
20
8.5168366892
11
11.0361583607
21
8.5358466892
0
LINE
5
2E7
100
AcDbEntity
8
0
100
AcDbLine
62
7
6
CONTINUOUS
10
11.0361583607
20
8.5358466892
11
11.0943783607
21
8.4503066892
0
LINE
5
2E8
100
AcDbEntity
8
0
100
AcDbLine
62
7
6
CONTINUOUS
10
11.0943783607
20
8.4503066892
11
12.3643783607
21
8.3623966892
0
LINE
5
2E9
100
AcDbEntity
8
0
100
AcDbLine
62
7
6
CONTINUOUS
10
12.3643783607
20
8.3623966892
11
12.4551451097
21
8.4202082830
0
LINE
5
2EA
100
AcDbEntity
8
0
100
AcDbLine
62
2
6
CONTINUOUS
10
12.4548201244
20
8.4203852719
11
12.4869189462
21
8.4500157101
0
LINE
5
2EB
100
AcDbEntity
8
0
100
AcDbLine
62
7
6
CONTINUOUS
10
12.0453083607
20
8.4788266892
11
12.0422483607
21
8.4849366892
0
LINE
5
2EC
100
AcDbEntity
8
0
100
AcDbLine
62
7
6
CONTINUOUS
10
12.0422483607
20
8.4849366892
11
12.0381783607
21
8.4859466892
0
LINE
5
2ED
100
AcDbEntity
8
0
100
AcDbLine
62
7
6
CONTINUOUS
10
12.0381783607
20
8.4859466892
11
12.0341083607
21
8.4879866892
0
LINE
5
2EE
100
AcDbEntity
8
0
100
AcDbLine
62
7
6
CONTINUOUS
10
12.0341083607
20
8.4879866892
11
12.0300283607
21
8.4920666892
0
LINE
5
2EF
100
AcDbEntity
8
0
100
AcDbLine
62
7
6
CONTINUOUS
10
12.0300283607
20
8.4920666892
11
12.0249383607
21
8.4910466892
0
LINE
5
2F0
100
AcDbEntity
8
0
100
AcDbLine
62
7
6
CONTINUOUS
10
12.1501983607
20
8.4818766892
11
12.1542683607
21
8.4839166892
0
LINE
5
2F1
100
AcDbEntity
8
0
100
AcDbLine
62
7
6
CONTINUOUS
10
12.1542683607
20
8.4839166892
11
12.1583383607
21
8.4849366892
0
LINE
5
2F2
100
AcDbEntity
8
0
100
AcDbLine
62
7
6
CONTINUOUS
10
12.1583383607
20
8.4849366892
11
12.1664883607
21
8.4808566892
0
LINE
5
2F3
100
AcDbEntity
8
0
100
AcDbLine
62
7
6
CONTINUOUS
10
12.1664883607
20
8.4808566892
11
12.1705583607
21
8.4808566892
0
LINE
5
2F4
100
AcDbEntity
8
0
100
AcDbLine
62
7
6
CONTINUOUS
10
12.3059983607
20
8.4828966892
11
12.3121083607
21
8.4859466892
0
LINE
5
2F5
100
AcDbEntity
8
0
100
AcDbLine
62
7
6
CONTINUOUS
10
12.3121083607
20
8.4859466892
11
12.3222883607
21
8.4828966892
0
LINE
5
2F6
100
AcDbEntity
8
0
100
AcDbLine
62
7
6
CONTINUOUS
10
12.3090483607
20
8.5205766892
11
12.3049783607
21
8.5205766892
0
LINE
5
2F7
100
AcDbEntity
8
0
100
AcDbLine
62
7
6
CONTINUOUS
10
12.3049783607
20
8.5205766892
11
12.2937783607
21
8.5287266892
0
LINE
5
2F8
100
AcDbEntity
8
0
100
AcDbLine
62
7
6
CONTINUOUS
10
12.2937783607
20
8.5287266892
11
12.2856283607
21
8.5287266892
0
LINE
5
2F9
100
AcDbEntity
8
0
100
AcDbLine
62
7
6
CONTINUOUS
10
12.2856283607
20
8.5287266892
11
12.2856283607
21
8.5226066892
0
LINE
5
2FA
100
AcDbEntity
8
0
100
AcDbLine
62
7
6
CONTINUOUS
10
12.1532483607
20
8.5226066892
11
12.1532483607
21
8.5277066892
0
LINE
5
2FB
100
AcDbEntity
8
0
100
AcDbLine
62
7
6
CONTINUOUS
10
12.1532483607
20
8.5277066892
11
12.1573183607
21
8.5287266892
0
LINE
5
2FC
100
AcDbEntity
8
0
100
AcDbLine
62
7
6
CONTINUOUS
10
12.1573183607
20
8.5287266892
11
12.1613983607
21
8.5277066892
0
LINE
5
2FD
100
AcDbEntity
8
0
100
AcDbLine
62
7
6
CONTINUOUS
10
12.1613983607
20
8.5277066892
11
12.1664883607
21
8.5205766892
0
LINE
5
2FE
100
AcDbEntity
8
0
100
AcDbLine
62
7
6
CONTINUOUS
10
12.1664883607
20
8.5205766892
11
12.1715783607
21
8.5185366892
0
LINE
5
2FF
100
AcDbEntity
8
0
100
AcDbLine
62
7
6
CONTINUOUS
10
12.1715783607
20
8.5185366892
11
12.1766683607
21
8.5185366892
0
SPLINE
5
300
100
AcDbEntity
8
0
100
AcDbSpline
62
7
6
CONTINUOUS
70
0
71
3
72
10
73
6
74
4
42
0.0000001000
43
0.0000001000
44
0.0000000001
40
0.0000000000
40
0.0000000000
40
0.0000000000
40
0.0000000000
40
0.3333333333
40
0.6666666667
40
1.0000000000
40
1.0000000000
40
1.0000000000
40
1.0000000000
10
12.0167912143
20
8.4727177590
30
0.0000000000
10
12.0049032823
20
8.4831111623
30
0.0000000000
10
11.9879003991
20
8.5012050172
30
0.0000000000
10
11.9802132388
20
8.5217931828
30
0.0000000000
10
11.9863722630
20
8.5317459635
30
0.0000000000
10
11.9923559740
20
8.5358499625
30
0.0000000000
11
12.0167912143
21
8.4727177590
31
0.0000000000
11
11.9908699265
21
8.5001129144
31
0.0000000000
11
11.9830341882
21
8.5208500170
31
0.0000000000
11
11.9923559740
21
8.5358499625
31
0.0000000000
0
LINE
5
301
100
AcDbEntity
8
0
100
AcDbLine
62
7
6
CONTINUOUS
10
11.8951083607
20
8.5358466892
11
11.8951083607
21
8.7960266892
0
LINE
5
302
100
AcDbEntity
8
0
100
AcDbLine
62
7
6
CONTINUOUS
10
11.8951083607
20
8.7960266892
11
11.6955183607
21
8.7960266892
0
LINE
5
303
100
AcDbEntity
8
0
100
AcDbLine
62
7
6
CONTINUOUS
10
11.7525483607
20
8.4047478509
11
11.7525483607
21
8.7582466892
0
LINE
5
304
100
AcDbEntity
8
0
100
AcDbLine
62
7
6
CONTINUOUS
10
11.7525483607
20
8.7582466892
11
11.7960283607
21
8.7960266892
0
LINE
5
305
100
AcDbEntity
8
0
100
AcDbLine
62
7
6
CONTINUOUS
10
11.7960283607
20
8.7960266892
11
11.8430683607
21
8.7582466892
0
LINE
5
306
100
AcDbEntity
8
0
100
AcDbLine
62
7
6
CONTINUOUS
10
11.8430683607
20
8.3984820137
11
11.8430683607
21
8.7582466892
0
LINE
5
307
100
AcDbEntity
8
0
100
AcDbLine
62
7
6
CONTINUOUS
10
11.8430683607
20
8.7582466892
11
11.7525483607
21
8.7582466892
0
LINE
5
308
100
AcDbEntity
8
0
100
AcDbLine
62
7
6
CONTINUOUS
10
11.7525483607
20
8.6598766892
11
11.8430683607
21
8.6598766892
0
LINE
5
309
100
AcDbEntity
8
0
100
AcDbLine
62
7
6
CONTINUOUS
10
11.8430783607
20
8.6598766892
11
11.7960283607
21
8.6976566892
0
LINE
5
30A
100
AcDbEntity
8
0
100
AcDbLine
62
7
6
CONTINUOUS
10
11.7960283607
20
8.6976566892
11
11.7525483607
21
8.6598766892
0
LINE
5
30B
100
AcDbEntity
8
0
100
AcDbLine
62
2
6
CONTINUOUS
10
12.5330783607
20
8.6655866892
11
12.3885215746
21
8.5358466892
0
LINE
5
30C
100
AcDbEntity
8
0
100
AcDbLine
62
7
6
CONTINUOUS
10
12.3935916831
20
8.5358466892
11
12.4098583607
21
8.5277066892
0
LINE
5
30D
100
AcDbEntity
8
0
100
AcDbLine
62
7
6
CONTINUOUS
10
12.4098583607
20
8.5277066892
11
12.4129183607
21
8.5236266892
0
LINE
5
30E
100
AcDbEntity
8
0
100
AcDbLine
62
7
6
CONTINUOUS
10
12.4129183607
20
8.5236266892
11
12.4149583607
21
8.5154866892
0
LINE
5
30F
100
AcDbEntity
8
0
100
AcDbLine
62
7
6
CONTINUOUS
10
12.4149583607
20
8.5154866892
11
12.4149583607
21
8.5093766892
0
LINE
5
310
100
AcDbEntity
8
0
100
AcDbLine
62
7
6
CONTINUOUS
10
12.4149583607
20
8.5093766892
11
12.4139383607
21
8.5042866892
0
LINE
5
311
100
AcDbEntity
8
0
100
AcDbLine
62
7
6
CONTINUOUS
10
12.4139383607
20
8.5042866892
11
12.4057883607
21
8.4991866892
0
LINE
5
312
100
AcDbEntity
8
0
100
AcDbLine
62
7
6
CONTINUOUS
10
12.4057883607
20
8.4991866892
11
12.3935683607
21
8.4981666892
0
LINE
5
313
100
AcDbEntity
8
0
100
AcDbLine
62
7
6
CONTINUOUS
10
12.3935683607
20
8.4981666892
11
12.3813483607
21
8.4951166892
0
LINE
5
314
100
AcDbEntity
8
0
100
AcDbLine
62
7
6
CONTINUOUS
10
12.3813483607
20
8.4951166892
11
12.3742183607
21
8.4951166892
0
LINE
5
315
100
AcDbEntity
8
0
100
AcDbLine
62
7
6
CONTINUOUS
10
12.3742183607
20
8.4951166892
11
12.3660783607
21
8.4930766892
0
LINE
5
316
100
AcDbEntity
8
0
100
AcDbLine
62
7
6
CONTINUOUS
10
12.3660783607
20
8.4930766892
11
12.3385783607
21
8.4930766892
0
LINE
5
317
100
AcDbEntity
8
0
100
AcDbLine
62
7
6
CONTINUOUS
10
12.3385783607
20
8.4930766892
11
12.3294183607
21
8.4961366892
0
LINE
5
318
100
AcDbEntity
8
0
100
AcDbLine
62
7
6
CONTINUOUS
10
12.3294183607
20
8.4961366892
11
12.3263583607
21
8.4991866892
0
LINE
5
319
100
AcDbEntity
8
0
100
AcDbLine
62
7
6
CONTINUOUS
10
12.3263583607
20
8.4991866892
11
12.3222883607
21
8.5002066892
0
LINE
5
31A
100
AcDbEntity
8
0
100
AcDbLine
62
7
6
CONTINUOUS
10
12.3222883607
20
8.5002066892
11
12.3161783607
21
8.5002066892
0
LINE
5
31B
100
AcDbEntity
8
0
100
AcDbLine
62
7
6
CONTINUOUS
10
12.3161783607
20
8.5002066892
11
12.3049783607
21
8.5022466892
0
LINE
5
31C
100
AcDbEntity
8
0
100
AcDbLine
62
7
6
CONTINUOUS
10
12.3049783607
20
8.5022466892
11
12.2968283607
21
8.5022466892
0
LINE
5
31D
100
AcDbEntity
8
0
100
AcDbLine
62
7
6
CONTINUOUS
10
12.2968283607
20
8.5022466892
11
12.2876683607
21
8.5002066892
0
LINE
5
31E
100
AcDbEntity
8
0
100
AcDbLine
62
7
6
CONTINUOUS
10
12.2876683607
20
8.5002066892
11
12.2825783607
21
8.4961366892
0
LINE
5
31F
100
AcDbEntity
8
0
100
AcDbLine
62
7
6
CONTINUOUS
10
12.2825783607
20
8.4961366892
11
12.2784983607
21
8.4951166892
0
LINE
5
320
100
AcDbEntity
8
0
100
AcDbLine
62
7
6
CONTINUOUS
10
12.2784983607
20
8.4951166892
11
12.2143483607
21
8.4930766892
0
LINE
5
321
100
AcDbEntity
8
0
100
AcDbLine
62
7
6
CONTINUOUS
10
12.2143483607
20
8.4930766892
11
12.2051783607
21
8.4951166892
0
LINE
5
322
100
AcDbEntity
8
0
100
AcDbLine
62
7
6
CONTINUOUS
10
12.2051783607
20
8.4951166892
11
12.1664883607
21
8.4991866892
0
LINE
5
323
100
AcDbEntity
8
0
100
AcDbLine
62
7
6
CONTINUOUS
10
12.1664883607
20
8.4991866892
11
12.1573183607
21
8.4930766892
0
LINE
5
324
100
AcDbEntity
8
0
100
AcDbLine
62
7
6
CONTINUOUS
10
12.1573183607
20
8.4930766892
11
12.1522283607
21
8.4910466892
0
LINE
5
325
100
AcDbEntity
8
0
100
AcDbLine
62
7
6
CONTINUOUS
10
12.1522283607
20
8.4910466892
11
12.1186283607
21
8.4879866892
0
LINE
5
326
100
AcDbEntity
8
0
100
AcDbLine
62
7
6
CONTINUOUS
10
12.1186283607
20
8.4879866892
11
12.0707683607
21
8.4900266892
0
LINE
5
327
100
AcDbEntity
8
0
100
AcDbLine
62
7
6
CONTINUOUS
10
12.0707683607
20
8.4900266892
11
12.0605883607
21
8.4900266892
0
LINE
5
328
100
AcDbEntity
8
0
100
AcDbLine
62
7
6
CONTINUOUS
10
12.0605883607
20
8.4900266892
11
12.0503983607
21
8.4920666892
0
LINE
5
329
100
AcDbEntity
8
0
100
AcDbLine
62
7
6
CONTINUOUS
10
12.0503983607
20
8.4920666892
11
12.0361383607
21
8.5002066892
0
LINE
5
32A
100
AcDbEntity
8
0
100
AcDbLine
62
7
6
CONTINUOUS
10
12.0361383607
20
8.5002066892
11
12.0351283607
21
8.5042866892
0
LINE
5
32B
100
AcDbEntity
8
0
100
AcDbLine
62
7
6
CONTINUOUS
10
12.0351283607
20
8.5042866892
11
12.0249383607
21
8.5073366892
0
LINE
5
32C
100
AcDbEntity
8
0
100
AcDbLine
62
7
6
CONTINUOUS
10
12.0249383607
20
8.5073366892
11
12.0127183607
21
8.5175166892
0
LINE
5
32D
100
AcDbEntity
8
0
100
AcDbLine
62
7
6
CONTINUOUS
10
12.0127183607
20
8.5175166892
11
12.0096683607
21
8.5215966892
0
LINE
5
32E
100
AcDbEntity
8
0
100
AcDbLine
62
7
6
CONTINUOUS
10
12.0096683607
20
8.5215966892
11
12.0096683607
21
8.5277066892
0
LINE
5
32F
100
AcDbEntity
8
0
100
AcDbLine
62
7
6
CONTINUOUS
10
12.0096683607
20
8.5277066892
11
12.0116983607
21
8.5317766892
0
LINE
5
330
100
AcDbEntity
8
0
100
AcDbLine
62
7
6
CONTINUOUS
10
12.0116983607
20
8.5317766892
11
12.0167983607
21
8.5358466892
0
LINE
5
331
100
AcDbEntity
8
0
100
AcDbLine
62
7
6
CONTINUOUS
10
11.8430683607
20
8.3607369455
11
11.8430683607
21
8.2839866892
0
LINE
5
332
100
AcDbEntity
8
0
100
AcDbLine
62
7
6
CONTINUOUS
10
11.8430683607
20
8.2839866892
11
11.8879783607
21
8.2245866892
0
LINE
5
333
100
AcDbEntity
8
0
100
AcDbLine
62
7
6
CONTINUOUS
10
11.8879783607
20
8.2245866892
11
11.7062083607
21
8.2245866892
0
LINE
5
334
100
AcDbEntity
8
0
100
AcDbLine
62
7
6
CONTINUOUS
10
11.7062083607
20
8.2245866892
11
11.7525483607
21
8.2839866892
0
LINE
5
335
100
AcDbEntity
8
0
100
AcDbLine
62
7
6
CONTINUOUS
10
11.7525483607
20
8.2839866892
11
11.7525483607
21
8.3674543890
0
SPLINE
5
336
100
AcDbEntity
8
0
100
AcDbSpline
62
7
6
CONTINUOUS
70
0
71
3
72
10
73
6
74
4
42
0.0000001000
43
0.0000001000
44
0.0000000001
40
0.0000000000
40
0.0000000000
40
0.0000000000
40
0.0000000000
40
0.3333333333
40
0.6666666667
40
1.0000000000
40
1.0000000000
40
1.0000000000
40
1.0000000000
10
12.2214721442
20
8.5134514153
30
0.0000000000
10
12.2204059598
20
8.5146939505
30
0.0000000000
10
12.2176095912
20
8.5166065497
30
0.0000000000
10
12.2125399388
20
8.5169959652
30
0.0000000000
10
12.2094841607
20
8.5155328872
30
0.0000000000
10
12.2082406407
20
8.5144677675
30
0.0000000000
11
12.2214721442
21
8.5134514153
31
0.0000000000
11
12.2174637413
21
8.5161933024
31
0.0000000000
11
12.2126209364
21
8.5165652931
31
0.0000000000
11
12.2082406407
21
8.5144677675
31
0.0000000000
0
SPLINE
5
337
100
AcDbEntity
8
0
100
AcDbSpline
62
7
6
CONTINUOUS
70
0
71
3
72
10
73
6
74
4
42
0.0000001000
43
0.0000001000
44
0.0000000001
40
0.0000000000
40
0.0000000000
40
0.0000000000
40
0.0000000000
40
0.3333333333
40
0.6666666667
40
1.0000000000
40
1.0000000000
40
1.0000000000
40
1.0000000000
10
12.0870594204
20
8.5134465954
30
0.0000000000
10
12.0858156151
20
8.5155792387
30
0.0000000000
10
12.0821875565
20
8.5191751936
30
0.0000000000
10
12.0747744154
20
8.5211269070
30
0.0000000000
10
12.0698457727
20
8.5197837391
30
0.0000000000
10
12.0677129139
20
8.5185400954
30
0.0000000000
11
12.0870594204
21
8.5134465954
31
0.0000000000
11
12.0818590476
21
8.5186014905
31
0.0000000000
11
12.0747777782
21
8.5204658294
31
0.0000000000
11
12.0677129139
21
8.5185400954
31
0.0000000000
0
LINE
5
338
100
AcDbEntity
8
0
100
AcDbLine
62
7
6
CONTINUOUS
10
12.2163883607
20
8.4798466892
11
12.2133283607
21
8.4839166892
0
LINE
5
339
100
AcDbEntity
8
0
100
AcDbLine
62
7
6
CONTINUOUS
10
12.2133283607
20
8.4839166892
11
12.2092583607
21
8.4849366892
0
LINE
5
33A
100
AcDbEntity
8
0
100
AcDbLine
62
7
6
CONTINUOUS
10
12.2092583607
20
8.4849366892
11
12.1990683607
21
8.4849366892
0
SPLINE
5
33B
100
AcDbEntity
8
0
100
AcDbSpline
62
7
6
CONTINUOUS
70
0
71
3
72
10
73
6
74
4
42
0.0000001000
43
0.0000001000
44
0.0000000001
40
0.0000000000
40
0.0000000000
40
0.0000000000
40
0.0000000000
40
0.3333333333
40
0.6666666667
40
1.0000000000
40
1.0000000000
40
1.0000000000
40
1.0000000000
10
12.2713704989
20
8.4828989949
30
0.0000000000
10
12.2722583003
20
8.4820103769
30
0.0000000000
10
12.2745104298
20
8.4807097975
30
0.0000000000
10
12.2784152737
20
8.4807089690
30
0.0000000000
10
12.2806679492
20
8.4820085925
30
0.0000000000
10
12.2815561238
20
8.4828968336
30
0.0000000000
11
12.2713704989
21
8.4828989949
31
0.0000000000
11
12.2745982047
21
8.4810348043
31
0.0000000000
11
12.2783276352
21
8.4810340129
31
0.0000000000
11
12.2815561238
21
8.4828968336
31
0.0000000000
0
SPLINE
5
33C
100
AcDbEntity
8
0
100
AcDbSpline
62
7
6
CONTINUOUS
70
0
71
3
72
10
73
6
74
4
42
0.0000001000
43
0.0000001000
44
0.0000000001
40
0.0000000000
40
0.0000000000
40
0.0000000000
40
0.0000000000
40
0.3333333333
40
0.6666666667
40
1.0000000000
40
1.0000000000
40
1.0000000000
40
1.0000000000
10
12.0076299905
20
8.4951177280
30
0.0000000000
10
12.0073633758
20
8.4969826225
30
0.0000000000
10
12.0058300766
20
8.5005688612
30
0.0000000000
10
12.0011455745
20
8.5040820999
30
0.0000000000
10
11.9972742040
20
8.5045492043
30
0.0000000000
10
11.9954097826
20
8.5042825241
30
0.0000000000
11
12.0076299905
21
8.4951177280
31
0.0000000000
11
12.0054326510
21
8.5002578413
31
0.0000000000
11
12.0009584822
21
8.5036133362
31
0.0000000000
11
11.9954097826
21
8.5042825241
31
0.0000000000
0
SPLINE
5
33D
100
AcDbEntity
8
0
100
AcDbSpline
62
7
6
CONTINUOUS
70
0
71
3
72
10
73
6
74
4
42
0.0000001000
43
0.0000001000
44
0.0000000001
40
0.0000000000
40
0.0000000000
40
0.0000000000
40
0.0000000000
40
0.3333333333
40
0.6666666667
40
1.0000000000
40
1.0000000000
40
1.0000000000
40
1.0000000000
10
12.1277926318
20
8.5114053460
30
0.0000000000
10
12.1275267011
20
8.5122056119
30
0.0000000000
10
12.1265666838
20
8.5136625297
30
0.0000000000
10
12.1242262087
20
8.5148357048
30
0.0000000000
10
12.1224847412
20
8.5147329201
30
0.0000000000
10
12.1216846307
20
8.5144670127
30
0.0000000000
11
12.1277926318
21
8.5114053460
31
0.0000000000
11
12.1264166089
21
8.5134938295
31
0.0000000000
11
12.1241809210
21
8.5146144794
31
0.0000000000
11
12.1216846307
21
8.5144670127
31
0.0000000000
0
SPLINE
5
33E
100
AcDbEntity
8
0
100
AcDbSpline
62
7
6
CONTINUOUS
70
0
71
3
72
10
73
6
74
4
42
0.0000001000
43
0.0000001000
44
0.0000000001
40
0.0000000000
40
0.0000000000
40
0.0000000000
40
0.0000000000
40
0.3333333333
40
0.6666666667
40
1.0000000000
40
1.0000000000
40
1.0000000000
40
1.0000000000
10
12.4332845081
20
8.5103914215
30
0.0000000000
10
12.4337287053
20
8.5113685899
30
0.0000000000
10
12.4340930950
20
8.5135595077
30
0.0000000000
10
12.4329231813
20
8.5166808266
30
0.0000000000
10
12.4312083596
20
8.5180928491
30
0.0000000000
10
12.4302312190
20
8.5185375688
30
0.0000000000
11
12.4332845081
21
8.5103914215
31
0.0000000000
11
12.4338070120
21
8.5135319981
31
0.0000000000
11
12.4326894615
21
8.5165136124
31
0.0000000000
11
12.4302312190
21
8.5185375688
31
0.0000000000
0
LINE
5
33F
100
AcDbEntity
8
0
100
AcDbLine
62
7
6
CONTINUOUS
10
12.4353183607
20
8.4890066892
11
12.4200483607
21
8.4910466892
0
LINE
5
340
100
AcDbEntity
8
0
100
AcDbLine
62
7
6
CONTINUOUS
10
12.4200483607
20
8.4910466892
11
12.4139383607
21
8.4930766892
0
LINE
5
341
100
AcDbEntity
8
0
100
AcDbLine
62
7
6
CONTINUOUS
10
12.4139383607
20
8.4930766892
11
12.4068083607
21
8.4930766892
0
SPLINE
5
342
100
AcDbEntity
8
0
100
AcDbSpline
62
7
6
CONTINUOUS
70
0
71
3
72
11
73
7
74
5
42
0.0000001000
43
0.0000001000
44
0.0000000001
40
0.0000000000
40
0.0000000000
40
0.0000000000
40
0.0000000000
40
0.3420336032
40
0.6840672065
40
0.9837920276
40
1.0000000000
40
1.0000000000
40
1.0000000000
40
1.0000000000
10
12.5330783607
20
8.9427466892
30
0.0000000000
10
12.5336609427
20
8.9527692377
30
0.0000000000
10
12.5282667948
20
8.9730548714
30
0.0000000000
10
12.5037186916
20
8.9951552490
30
0.0000000000
10
12.4809035723
20
9.0017726851
30
0.0000000000
10
12.4696381599
20
9.0027048231
30
0.0000000000
10
12.4690595763
20
9.0027466892
30
0.0000000000
11
12.5330783607
21
8.9427466892
31
0.0000000000
11
12.5253480294
21
8.9718252667
31
0.0000000000
11
12.5008906218
21
8.9938439920
31
0.0000000000
11
12.4707932185
21
9.0026032726
31
0.0000000000
11
12.4690595763
21
9.0027466892
31
0.0000000000
0
LINE
5
343
100
AcDbEntity
8
0
100
AcDbLine
62
7
6
CONTINUOUS
10
11.7525483607
20
8.5358466892
11
10.8194683607
21
8.5358466892
0
LINE
5
344
100
AcDbEntity
8
0
100
AcDbLine
62
7
6
CONTINUOUS
10
10.8194683607
20
8.5358466892
11
10.7952283607
21
8.6441966892
0
LINE
5
345
100
AcDbEntity
8
0
100
AcDbLine
62
7
6
CONTINUOUS
10
10.7952283607
20
8.6441966892
11
10.8479783607
21
8.7012266892
0
LINE
5
346
100
AcDbEntity
8
0
100
AcDbLine
62
7
6
CONTINUOUS
10
10.8479783607
20
8.7012266892
11
10.8194683607
21
8.8181266892
0
LINE
5
347
100
AcDbEntity
8
0
100
AcDbLine
62
7
6
CONTINUOUS
10
10.8194683607
20
8.8181266892
11
10.8921683607
21
8.8637466892
0
LINE
5
348
100
AcDbEntity
8
0
100
AcDbLine
62
7
6
CONTINUOUS
10
10.8921683607
20
8.8637466892
11
10.8950183607
21
8.9564166892
0
LINE
5
349
100
AcDbEntity
8
0
100
AcDbLine
62
7
6
CONTINUOUS
10
10.8950183607
20
8.9564166892
11
10.9862683607
21
9.0027466892
0
LINE
5
34A
100
AcDbEntity
8
0
100
AcDbLine
62
7
6
CONTINUOUS
10
10.9862683607
20
9.0027466892
11
12.4690595763
21
9.0027466892
0
LINE
5
34B
100
AcDbEntity
8
0
100
AcDbLine
62
7
6
CONTINUOUS
10
11.8430683607
20
8.5358466892
11
12.5330783607
21
8.5358466892
0
LINE
5
34C
100
AcDbEntity
8
0
100
AcDbLine
62
7
6
CONTINUOUS
10
12.5330783607
20
8.5358466892
11
12.5330783607
21
8.9427466892
0
LINE
5
34D
100
AcDbEntity
8
0
100
AcDbLine
62
2
6
CONTINUOUS
10
12.4774783607
20
8.5358466892
11
12.5330783607
21
8.5857466892
0
LINE
5
34E
100
AcDbEntity
8
0
100
AcDbLine
62
2
6
CONTINUOUS
10
12.2900224192
20
8.5358466892
11
12.5330783607
21
8.7539766892
0
LINE
5
34F
100
AcDbEntity
8
0
100
AcDbLine
62
2
6
CONTINUOUS
10
12.1820003607
20
8.5358466892
11
12.5330783607
21
8.8509166892
0
LINE
5
350
100
AcDbEntity
8
0
100
AcDbLine
62
2
6
CONTINUOUS
10
12.0819266470
20
8.5358466892
11
12.5330783607
21
8.9407266892
0
LINE
5
351
100
AcDbEntity
8
0
100
AcDbLine
62
2
6
CONTINUOUS
10
11.9722285424
20
8.5358466892
11
12.4965855576
21
8.9959320329
0
LINE
5
352
100
AcDbEntity
8
0
100
AcDbLine
62
2
6
CONTINUOUS
10
11.8951083607
20
8.5690966892
11
12.3783235103
21
9.0027466892
0
LINE
5
353
100
AcDbEntity
8
0
100
AcDbLine
62
2
6
CONTINUOUS
10
11.8951083607
20
8.6758766892
11
12.2593386755
21
9.0027466892
0
LINE
5
354
100
AcDbEntity
8
0
100
AcDbLine
62
2
6
CONTINUOUS
10
11.8951083607
20
8.7760666892
11
12.1476903686
21
9.0027466892
0
LINE
5
355
100
AcDbEntity
8
0
100
AcDbLine
62
2
6
CONTINUOUS
10
11.4083263610
20
8.5358466892
11
11.6955183607
21
8.7935819608
0
LINE
5
356
100
AcDbEntity
8
0
100
AcDbLine
62
2
6
CONTINUOUS
10
11.2966838206
20
8.5358466892
11
11.8169403638
21
9.0027466892
0
LINE
5
357
100
AcDbEntity
8
0
100
AcDbLine
62
2
6
CONTINUOUS
10
11.1883380678
20
8.5358466892
11
11.7085992263
21
9.0027466892
0
LINE
5
358
100
AcDbEntity
8
0
100
AcDbLine
62
2
6
CONTINUOUS
10
11.8091383607
20
8.7961566892
11
12.0393366380
21
9.0027466892
0
LINE
5
359
100
AcDbEntity
8
0
100
AcDbLine
62
2
6
CONTINUOUS
10
11.6274231867
20
8.5358466892
11
11.6955183607
21
8.5969566892
0
LINE
5
35A
100
AcDbEntity
8
0
100
AcDbLine
62
2
6
CONTINUOUS
10
11.0790063610
20
8.5358466892
11
11.5992686589
21
9.0027466892
0
LINE
5
35B
100
AcDbEntity
8
0
100
AcDbLine
62
2
6
CONTINUOUS
10
10.9673474282
20
8.5358466892
11
11.4880883607
21
9.0031666892
0
LINE
5
35C
100
AcDbEntity
8
0
100
AcDbLine
62
2
6
CONTINUOUS
10
10.8590080678
20
8.5358466892
11
11.3792692263
21
9.0027466892
0
LINE
5
35D
100
AcDbEntity
8
0
100
AcDbLine
62
2
6
CONTINUOUS
10
10.8068452843
20
8.5922703825
11
11.2642386805
21
9.0027466892
0
LINE
5
35E
100
AcDbEntity
8
0
100
AcDbLine
62
2
6
CONTINUOUS
10
10.8423456219
20
8.7243226962
11
11.1525903594
21
9.0027466892
0
LINE
5
35F
100
AcDbEntity
8
0
100
AcDbLine
62
2
6
CONTINUOUS
10
10.8922480611
20
8.8663382138
11
11.0442492986
21
9.0027466892
0
LINE
5
360
100
AcDbEntity
8
0
100
AcDbLine
62
2
6
CONTINUOUS
10
12.0412383607
20
8.4289266892
11
12.0875683607
21
8.4716966892
0
LINE
5
361
100
AcDbEntity
8
0
100
AcDbLine
62
2
6
CONTINUOUS
10
12.0958883607
20
8.4289266892
11
12.1422183607
21
8.4716966892
0
LINE
5
362
100
AcDbEntity
8
0
100
AcDbLine
62
2
6
CONTINUOUS
10
12.1635983607
20
8.4289266892
11
12.2099383607
21
8.4716966892
0
LINE
5
363
100
AcDbEntity
8
0
100
AcDbLine
62
2
6
CONTINUOUS
10
12.2230083607
20
8.4289266892
11
12.2693383607
21
8.4716966892
0
LINE
5
364
100
AcDbEntity
8
0
100
AcDbLine
62
2
6
CONTINUOUS
10
12.2812183607
20
8.4289266892
11
12.3275483607
21
8.4716966892
0
LINE
5
365
100
AcDbEntity
8
0
100
AcDbLine
62
2
6
CONTINUOUS
10
12.3382383607
20
8.4289266892
11
12.3845783607
21
8.4716966892
0
LINE
5
366
100
AcDbEntity
8
0
100
AcDbLine
62
2
6
CONTINUOUS
10
12.4023983607
20
8.4289266892
11
12.4457284108
21
8.4689236586
0
LINE
5
367
100
AcDbEntity
8
0
100
AcDbLine
62
2
6
CONTINUOUS
10
12.4889000925
20
8.3831147330
11
12.5204277554
21
8.4122267391
0
LINE
5
368
100
AcDbEntity
8
0
100
AcDbLine
62
2
6
CONTINUOUS
10
12.4974383607
20
8.3182580642
11
12.5378283607
21
8.3555466892
0
LINE
5
369
100
AcDbEntity
8
0
100
AcDbLine
62
2
6
CONTINUOUS
10
12.4974383607
20
8.2562066892
11
12.5378283607
21
8.2934866892
0
LINE
5
36A
100
AcDbEntity
8
0
100
AcDbLine
62
2
6
CONTINUOUS
10
12.4974383607
20
8.1861166892
11
12.5378283607
21
8.2233966892
0
LINE
5
36B
100
AcDbEntity
8
0
100
AcDbLine
62
2
6
CONTINUOUS
10
12.4974383607
20
8.1160166892
11
12.5378283607
21
8.1533066892
0
LINE
5
36C
100
AcDbEntity
8
0
100
AcDbLine
62
2
6
CONTINUOUS
10
12.4974383607
20
8.0399866892
11
12.5378283607
21
8.0772666892
0
LINE
5
36D
100
AcDbEntity
8
0
100
AcDbLine
62
2
6
CONTINUOUS
10
12.4974383607
20
7.9746466892
11
12.5378283607
21
8.0119266892
0
LINE
5
36E
100
AcDbEntity
8
0
100
AcDbLine
62
2
6
CONTINUOUS
10
12.4974383607
20
7.9081166892
11
12.5378283607
21
7.9453966892
0
LINE
5
36F
100
AcDbEntity
8
0
100
AcDbLine
62
2
6
CONTINUOUS
10
12.4974383607
20
7.8308966892
11
12.5378283607
21
7.8681766892
0
LINE
5
370
100
AcDbEntity
8
0
100
AcDbLine
62
2
6
CONTINUOUS
10
12.4974383607
20
7.7619866892
11
12.5378283607
21
7.7992666892
0
LINE
5
371
100
AcDbEntity
8
0
100
AcDbLine
62
2
6
CONTINUOUS
10
12.4974383607
20
7.6918966892
11
12.5378283607
21
7.7291766892
0
LINE
5
372
100
AcDbEntity
8
0
100
AcDbLine
62
2
6
CONTINUOUS
10
12.4974383607
20
7.6336836123
11
12.5378283607
21
7.6709666892
0
LINE
5
373
100
AcDbEntity
8
0
100
AcDbLine
62
7
6
CONTINUOUS
10
11.7525483607
20
8.2839866892
11
11.8430683607
21
8.2839866892
0
LINE
5
374
100
AcDbEntity
8
0
100
AcDbLine
62
2
6
CONTINUOUS
10
11.5192472024
20
8.5358466892
11
11.6955183607
21
8.6940366892
0
LINE
5
375
100
AcDbEntity
8
0
100
AcDbLine
62
2
6
CONTINUOUS
10
11.6982424986
20
8.7960266892
11
11.9285886589
21
9.0027466892
0
LINE
5
376
100
AcDbEntity
8
0
100
AcDbLine
62
7
6
CONTINUOUS
10
11.6955183607
20
8.7960266892
11
11.6955183607
21
8.5358466892
0
ENDBLK
5
377
100
AcDbEntity
8
0
100
AcDbBlockEnd
0
BLOCK
5
378
100
AcDbEntity
8
0
100
AcDbBlockBegin
62
2
6
CONTINUOUS
2
NO_REVEAL_BL2
70
64
10
0.0000000000
20
0.0000000000
3
NO_REVEAL_BL2
1

0
LINE
5
379
100
AcDbEntity
8
0
100
AcDbLine
62
7
6
CONTINUOUS
10
12.5378283607
20
7.6448266892
11
12.5378283607
21
8.3457666892
0
SPLINE
5
37A
100
AcDbEntity
8
0
100
AcDbSpline
62
7
6
CONTINUOUS
70
0
71
3
72
10
73
6
74
4
42
0.0000001000
43
0.0000001000
44
0.0000000001
40
0.0000000000
40
0.0000000000
40
0.0000000000
40
0.0000000000
40
0.3333333333
40
0.6666666667
40
1.0000000000
40
1.0000000000
40
1.0000000000
40
1.0000000000
10
12.5378311164
20
8.3457658217
30
0.0000000000
10
12.5378310545
20
8.3678545917
30
0.0000000000
10
12.5269919390
20
8.4118384268
30
0.0000000000
10
12.4824886291
20
8.4599728799
30
0.0000000000
10
12.4418234765
20
8.4716956831
30
0.0000000000
10
12.4214014743
20
8.4716952675
30
0.0000000000
11
12.5378311164
21
8.3457658217
31
0.0000000000
11
12.5222844996
21
8.4088648769
31
0.0000000000
11
12.4797395593
21
8.4548811718
31
0.0000000000
11
12.4214014743
21
8.4716952675
31
0.0000000000
0
SPLINE
5
37B
100
AcDbEntity
8
0
100
AcDbSpline
62
7
6
CONTINUOUS
70
0
71
3
72
12
73
8
74
6
42
0.0000001000
43
0.0000001000
44
0.0000000001
40
0.0000000000
40
0.0000000000
40
0.0000000000
40
0.0000000000
40
0.2000000000
40
0.4000000000
40
0.6000000000
40
0.8000000000
40
1.0000000000
40
1.0000000000
40
1.0000000000
40
1.0000000000
10
12.4214054259
20
8.4716957073
30
0.0000000000
10
12.4266734667
20
8.4730342056
30
0.0000000000
10
12.4380731035
20
8.4783895893
30
0.0000000000
10
12.4538339810
20
8.4926074606
30
0.0000000000
10
12.4646097324
20
8.5097238553
30
0.0000000000
10
12.4679116347
20
8.5257856413
30
0.0000000000
10
12.4646235506
20
8.5333147916
30
0.0000000000
10
12.4617952036
20
8.5358515464
30
0.0000000000
11
12.4214054259
21
8.4716957073
31
0.0000000000
11
12.4378500072
21
8.4794203886
31
0.0000000000
11
12.4530031266
21
8.4930905478
31
0.0000000000
11
12.4633640909
21
8.5095480872
31
0.0000000000
11
12.4665392966
21
8.5249909645
31
0.0000000000
11
12.4617952036
21
8.5358515464
31
0.0000000000
0
LINE
5
37C
100
AcDbEntity
8
0
100
AcDbLine
62
7
6
CONTINUOUS
10
12.4974383607
20
7.6314866892
11
12.4974383607
21
8.3433866892
0
SPLINE
5
37D
100
AcDbEntity
8
0
100
AcDbSpline
62
7
6
CONTINUOUS
70
0
71
3
72
10
73
6
74
4
42
0.0000001000
43
0.0000001000
44
0.0000000001
40
0.0000000000
40
0.0000000000
40
0.0000000000
40
0.0000000000
40
0.3333333333
40
0.6666666667
40
1.0000000000
40
1.0000000000
40
1.0000000000
40
1.0000000000
10
12.4974382407
20
8.3433878489
30
0.0000000000
10
12.4974381798
20
8.3584839805
30
0.0000000000
10
12.4903967289
20
8.3884082623
30
0.0000000000
10
12.4614255033
20
8.4210027649
30
0.0000000000
10
12.4348266864
20
8.4289259604
30
0.0000000000
10
12.4214079986
20
8.4289267890
30
0.0000000000
11
12.4974382407
21
8.3433878489
31
0.0000000000
11
12.4873285540
21
8.3863596089
31
0.0000000000
11
12.4596043367
21
8.4175511467
31
0.0000000000
11
12.4214079986
21
8.4289267890
31
0.0000000000
0
LINE
5
37E
100
AcDbEntity
8
0
100
AcDbLine
62
7
6
CONTINUOUS
10
12.4214083607
20
8.4289266892
11
12.0079683607
21
8.4289266892
0
LINE
5
37F
100
AcDbEntity
8
0
100
AcDbLine
62
7
6
CONTINUOUS
10
12.0079683607
20
8.4289266892
11
12.0079683607
21
8.4716966892
0
LINE
5
380
100
AcDbEntity
8
0
100
AcDbLine
62
7
6
CONTINUOUS
10
12.0079683607
20
8.4716966892
11
12.4214083607
21
8.4716966892
0
LINE
5
381
100
AcDbEntity
8
0
100
AcDbLine
62
7
6
CONTINUOUS
10
12.4842268396
20
8.3919189527
11
12.3810083607
21
8.3208166892
0
LINE
5
382
100
AcDbEntity
8
0
100
AcDbLine
62
7
6
CONTINUOUS
10
12.3810083607
20
8.3208166892
11
11.0682383607
21
8.4182366892
0
LINE
5
383
100
AcDbEntity
8
0
100
AcDbLine
62
7
6
CONTINUOUS
10
11.0682383607
20
8.4182366892
11
10.9969583607
21
8.5168366892
0
LINE
5
384
100
AcDbEntity
8
0
100
AcDbLine
62
7
6
CONTINUOUS
10
10.9969583607
20
8.5168366892
11
11.0361583607
21
8.5358466892
0
LINE
5
385
100
AcDbEntity
8
0
100
AcDbLine
62
7
6
CONTINUOUS
10
11.0361583607
20
8.5358466892
11
11.0943783607
21
8.4503066892
0
LINE
5
386
100
AcDbEntity
8
0
100
AcDbLine
62
7
6
CONTINUOUS
10
11.0943783607
20
8.4503066892
11
12.3643783607
21
8.3623966892
0
LINE
5
387
100
AcDbEntity
8
0
100
AcDbLine
62
7
6
CONTINUOUS
10
12.3643783607
20
8.3623966892
11
12.4551451097
21
8.4202082830
0
LINE
5
388
100
AcDbEntity
8
0
100
AcDbLine
62
2
6
CONTINUOUS
10
12.4548201244
20
8.4203852719
11
12.4869189462
21
8.4500157101
0
LINE
5
389
100
AcDbEntity
8
0
100
AcDbLine
62
7
6
CONTINUOUS
10
12.0453083607
20
8.4788266892
11
12.0422483607
21
8.4849366892
0
LINE
5
38A
100
AcDbEntity
8
0
100
AcDbLine
62
7
6
CONTINUOUS
10
12.0422483607
20
8.4849366892
11
12.0381783607
21
8.4859466892
0
LINE
5
38B
100
AcDbEntity
8
0
100
AcDbLine
62
7
6
CONTINUOUS
10
12.0381783607
20
8.4859466892
11
12.0341083607
21
8.4879866892
0
LINE
5
38C
100
AcDbEntity
8
0
100
AcDbLine
62
7
6
CONTINUOUS
10
12.0341083607
20
8.4879866892
11
12.0300283607
21
8.4920666892
0
LINE
5
38D
100
AcDbEntity
8
0
100
AcDbLine
62
7
6
CONTINUOUS
10
12.0300283607
20
8.4920666892
11
12.0249383607
21
8.4910466892
0
LINE
5
38E
100
AcDbEntity
8
0
100
AcDbLine
62
7
6
CONTINUOUS
10
12.1501983607
20
8.4818766892
11
12.1542683607
21
8.4839166892
0
LINE
5
38F
100
AcDbEntity
8
0
100
AcDbLine
62
7
6
CONTINUOUS
10
12.1542683607
20
8.4839166892
11
12.1583383607
21
8.4849366892
0
LINE
5
390
100
AcDbEntity
8
0
100
AcDbLine
62
7
6
CONTINUOUS
10
12.1583383607
20
8.4849366892
11
12.1664883607
21
8.4808566892
0
LINE
5
391
100
AcDbEntity
8
0
100
AcDbLine
62
7
6
CONTINUOUS
10
12.1664883607
20
8.4808566892
11
12.1705583607
21
8.4808566892
0
LINE
5
392
100
AcDbEntity
8
0
100
AcDbLine
62
7
6
CONTINUOUS
10
12.3059983607
20
8.4828966892
11
12.3121083607
21
8.4859466892
0
LINE
5
393
100
AcDbEntity
8
0
100
AcDbLine
62
7
6
CONTINUOUS
10
12.3121083607
20
8.4859466892
11
12.3222883607
21
8.4828966892
0
LINE
5
394
100
AcDbEntity
8
0
100
AcDbLine
62
7
6
CONTINUOUS
10
12.3090483607
20
8.5205766892
11
12.3049783607
21
8.5205766892
0
LINE
5
395
100
AcDbEntity
8
0
100
AcDbLine
62
7
6
CONTINUOUS
10
12.3049783607
20
8.5205766892
11
12.2937783607
21
8.5287266892
0
LINE
5
396
100
AcDbEntity
8
0
100
AcDbLine
62
7
6
CONTINUOUS
10
12.2937783607
20
8.5287266892
11
12.2856283607
21
8.5287266892
0
LINE
5
397
100
AcDbEntity
8
0
100
AcDbLine
62
7
6
CONTINUOUS
10
12.2856283607
20
8.5287266892
11
12.2856283607
21
8.5226066892
0
LINE
5
398
100
AcDbEntity
8
0
100
AcDbLine
62
7
6
CONTINUOUS
10
12.1532483607
20
8.5226066892
11
12.1532483607
21
8.5277066892
0
LINE
5
399
100
AcDbEntity
8
0
100
AcDbLine
62
7
6
CONTINUOUS
10
12.1532483607
20
8.5277066892
11
12.1573183607
21
8.5287266892
0
LINE
5
39A
100
AcDbEntity
8
0
100
AcDbLine
62
7
6
CONTINUOUS
10
12.1573183607
20
8.5287266892
11
12.1613983607
21
8.5277066892
0
LINE
5
39B
100
AcDbEntity
8
0
100
AcDbLine
62
7
6
CONTINUOUS
10
12.1613983607
20
8.5277066892
11
12.1664883607
21
8.5205766892
0
LINE
5
39C
100
AcDbEntity
8
0
100
AcDbLine
62
7
6
CONTINUOUS
10
12.1664883607
20
8.5205766892
11
12.1715783607
21
8.5185366892
0
LINE
5
39D
100
AcDbEntity
8
0
100
AcDbLine
62
7
6
CONTINUOUS
10
12.1715783607
20
8.5185366892
11
12.1766683607
21
8.5185366892
0
SPLINE
5
39E
100
AcDbEntity
8
0
100
AcDbSpline
62
7
6
CONTINUOUS
70
0
71
3
72
10
73
6
74
4
42
0.0000001000
43
0.0000001000
44
0.0000000001
40
0.0000000000
40
0.0000000000
40
0.0000000000
40
0.0000000000
40
0.3333333333
40
0.6666666667
40
1.0000000000
40
1.0000000000
40
1.0000000000
40
1.0000000000
10
12.0167912143
20
8.4727177590
30
0.0000000000
10
12.0049032823
20
8.4831111623
30
0.0000000000
10
11.9879003991
20
8.5012050172
30
0.0000000000
10
11.9802132388
20
8.5217931828
30
0.0000000000
10
11.9863722630
20
8.5317459635
30
0.0000000000
10
11.9923559740
20
8.5358499625
30
0.0000000000
11
12.0167912143
21
8.4727177590
31
0.0000000000
11
11.9908699265
21
8.5001129144
31
0.0000000000
11
11.9830341882
21
8.5208500170
31
0.0000000000
11
11.9923559740
21
8.5358499625
31
0.0000000000
0
LINE
5
39F
100
AcDbEntity
8
0
100
AcDbLine
62
7
6
CONTINUOUS
10
11.8951083607
20
8.5358466892
11
11.8951083607
21
8.7960266892
0
LINE
5
3A0
100
AcDbEntity
8
0
100
AcDbLine
62
7
6
CONTINUOUS
10
11.8951083607
20
8.7960266892
11
11.6955183607
21
8.7960266892
0
LINE
5
3A1
100
AcDbEntity
8
0
100
AcDbLine
62
7
6
CONTINUOUS
10
11.7525483607
20
8.4047478509
11
11.7525483607
21
8.7582466892
0
LINE
5
3A2
100
AcDbEntity
8
0
100
AcDbLine
62
7
6
CONTINUOUS
10
11.7525483607
20
8.7582466892
11
11.7960283607
21
8.7960266892
0
LINE
5
3A3
100
AcDbEntity
8
0
100
AcDbLine
62
7
6
CONTINUOUS
10
11.7960283607
20
8.7960266892
11
11.8430683607
21
8.7582466892
0
LINE
5
3A4
100
AcDbEntity
8
0
100
AcDbLine
62
7
6
CONTINUOUS
10
11.8430683607
20
8.3984820137
11
11.8430683607
21
8.7582466892
0
LINE
5
3A5
100
AcDbEntity
8
0
100
AcDbLine
62
7
6
CONTINUOUS
10
11.8430683607
20
8.7582466892
11
11.7525483607
21
8.7582466892
0
LINE
5
3A6
100
AcDbEntity
8
0
100
AcDbLine
62
7
6
CONTINUOUS
10
11.7525483607
20
8.6598766892
11
11.8430683607
21
8.6598766892
0
LINE
5
3A7
100
AcDbEntity
8
0
100
AcDbLine
62
7
6
CONTINUOUS
10
11.8430783607
20
8.6598766892
11
11.7960283607
21
8.6976566892
0
LINE
5
3A8
100
AcDbEntity
8
0
100
AcDbLine
62
7
6
CONTINUOUS
10
11.7960283607
20
8.6976566892
11
11.7525483607
21
8.6598766892
0
LINE
5
3A9
100
AcDbEntity
8
0
100
AcDbLine
62
2
6
CONTINUOUS
10
12.5330783607
20
8.6655866892
11
12.3885215746
21
8.5358466892
0
LINE
5
3AA
100
AcDbEntity
8
0
100
AcDbLine
62
7
6
CONTINUOUS
10
12.3935916831
20
8.5358466892
11
12.4098583607
21
8.5277066892
0
LINE
5
3AB
100
AcDbEntity
8
0
100
AcDbLine
62
7
6
CONTINUOUS
10
12.4098583607
20
8.5277066892
11
12.4129183607
21
8.5236266892
0
LINE
5
3AC
100
AcDbEntity
8
0
100
AcDbLine
62
7
6
CONTINUOUS
10
12.4129183607
20
8.5236266892
11
12.4149583607
21
8.5154866892
0
LINE
5
3AD
100
AcDbEntity
8
0
100
AcDbLine
62
7
6
CONTINUOUS
10
12.4149583607
20
8.5154866892
11
12.4149583607
21
8.5093766892
0
LINE
5
3AE
100
AcDbEntity
8
0
100
AcDbLine
62
7
6
CONTINUOUS
10
12.4149583607
20
8.5093766892
11
12.4139383607
21
8.5042866892
0
LINE
5
3AF
100
AcDbEntity
8
0
100
AcDbLine
62
7
6
CONTINUOUS
10
12.4139383607
20
8.5042866892
11
12.4057883607
21
8.4991866892
0
LINE
5
3B0
100
AcDbEntity
8
0
100
AcDbLine
62
7
6
CONTINUOUS
10
12.4057883607
20
8.4991866892
11
12.3935683607
21
8.4981666892
0
LINE
5
3B1
100
AcDbEntity
8
0
100
AcDbLine
62
7
6
CONTINUOUS
10
12.3935683607
20
8.4981666892
11
12.3813483607
21
8.4951166892
0
LINE
5
3B2
100
AcDbEntity
8
0
100
AcDbLine
62
7
6
CONTINUOUS
10
12.3813483607
20
8.4951166892
11
12.3742183607
21
8.4951166892
0
LINE
5
3B3
100
AcDbEntity
8
0
100
AcDbLine
62
7
6
CONTINUOUS
10
12.3742183607
20
8.4951166892
11
12.3660783607
21
8.4930766892
0
LINE
5
3B4
100
AcDbEntity
8
0
100
AcDbLine
62
7
6
CONTINUOUS
10
12.3660783607
20
8.4930766892
11
12.3385783607
21
8.4930766892
0
LINE
5
3B5
100
AcDbEntity
8
0
100
AcDbLine
62
7
6
CONTINUOUS
10
12.3385783607
20
8.4930766892
11
12.3294183607
21
8.4961366892
0
LINE
5
3B6
100
AcDbEntity
8
0
100
AcDbLine
62
7
6
CONTINUOUS
10
12.3294183607
20
8.4961366892
11
12.3263583607
21
8.4991866892
0
LINE
5
3B7
100
AcDbEntity
8
0
100
AcDbLine
62
7
6
CONTINUOUS
10
12.3263583607
20
8.4991866892
11
12.3222883607
21
8.5002066892
0
LINE
5
3B8
100
AcDbEntity
8
0
100
AcDbLine
62
7
6
CONTINUOUS
10
12.3222883607
20
8.5002066892
11
12.3161783607
21
8.5002066892
0
LINE
5
3B9
100
AcDbEntity
8
0
100
AcDbLine
62
7
6
CONTINUOUS
10
12.3161783607
20
8.5002066892
11
12.3049783607
21
8.5022466892
0
LINE
5
3BA
100
AcDbEntity
8
0
100
AcDbLine
62
7
6
CONTINUOUS
10
12.3049783607
20
8.5022466892
11
12.2968283607
21
8.5022466892
0
LINE
5
3BB
100
AcDbEntity
8
0
100
AcDbLine
62
7
6
CONTINUOUS
10
12.2968283607
20
8.5022466892
11
12.2876683607
21
8.5002066892
0
LINE
5
3BC
100
AcDbEntity
8
0
100
AcDbLine
62
7
6
CONTINUOUS
10
12.2876683607
20
8.5002066892
11
12.2825783607
21
8.4961366892
0
LINE
5
3BD
100
AcDbEntity
8
0
100
AcDbLine
62
7
6
CONTINUOUS
10
12.2825783607
20
8.4961366892
11
12.2784983607
21
8.4951166892
0
LINE
5
3BE
100
AcDbEntity
8
0
100
AcDbLine
62
7
6
CONTINUOUS
10
12.2784983607
20
8.4951166892
11
12.2143483607
21
8.4930766892
0
LINE
5
3BF
100
AcDbEntity
8
0
100
AcDbLine
62
7
6
CONTINUOUS
10
12.2143483607
20
8.4930766892
11
12.2051783607
21
8.4951166892
0
LINE
5
3C0
100
AcDbEntity
8
0
100
AcDbLine
62
7
6
CONTINUOUS
10
12.2051783607
20
8.4951166892
11
12.1664883607
21
8.4991866892
0
LINE
5
3C1
100
AcDbEntity
8
0
100
AcDbLine
62
7
6
CONTINUOUS
10
12.1664883607
20
8.4991866892
11
12.1573183607
21
8.4930766892
0
LINE
5
3C2
100
AcDbEntity
8
0
100
AcDbLine
62
7
6
CONTINUOUS
10
12.1573183607
20
8.4930766892
11
12.1522283607
21
8.4910466892
0
LINE
5
3C3
100
AcDbEntity
8
0
100
AcDbLine
62
7
6
CONTINUOUS
10
12.1522283607
20
8.4910466892
11
12.1186283607
21
8.4879866892
0
LINE
5
3C4
100
AcDbEntity
8
0
100
AcDbLine
62
7
6
CONTINUOUS
10
12.1186283607
20
8.4879866892
11
12.0707683607
21
8.4900266892
0
LINE
5
3C5
100
AcDbEntity
8
0
100
AcDbLine
62
7
6
CONTINUOUS
10
12.0707683607
20
8.4900266892
11
12.0605883607
21
8.4900266892
0
LINE
5
3C6
100
AcDbEntity
8
0
100
AcDbLine
62
7
6
CONTINUOUS
10
12.0605883607
20
8.4900266892
11
12.0503983607
21
8.4920666892
0
LINE
5
3C7
100
AcDbEntity
8
0
100
AcDbLine
62
7
6
CONTINUOUS
10
12.0503983607
20
8.4920666892
11
12.0361383607
21
8.5002066892
0
LINE
5
3C8
100
AcDbEntity
8
0
100
AcDbLine
62
7
6
CONTINUOUS
10
12.0361383607
20
8.5002066892
11
12.0351283607
21
8.5042866892
0
LINE
5
3C9
100
AcDbEntity
8
0
100
AcDbLine
62
7
6
CONTINUOUS
10
12.0351283607
20
8.5042866892
11
12.0249383607
21
8.5073366892
0
LINE
5
3CA
100
AcDbEntity
8
0
100
AcDbLine
62
7
6
CONTINUOUS
10
12.0249383607
20
8.5073366892
11
12.0127183607
21
8.5175166892
0
LINE
5
3CB
100
AcDbEntity
8
0
100
AcDbLine
62
7
6
CONTINUOUS
10
12.0127183607
20
8.5175166892
11
12.0096683607
21
8.5215966892
0
LINE
5
3CC
100
AcDbEntity
8
0
100
AcDbLine
62
7
6
CONTINUOUS
10
12.0096683607
20
8.5215966892
11
12.0096683607
21
8.5277066892
0
LINE
5
3CD
100
AcDbEntity
8
0
100
AcDbLine
62
7
6
CONTINUOUS
10
12.0096683607
20
8.5277066892
11
12.0116983607
21
8.5317766892
0
LINE
5
3CE
100
AcDbEntity
8
0
100
AcDbLine
62
7
6
CONTINUOUS
10
12.0116983607
20
8.5317766892
11
12.0167983607
21
8.5358466892
0
LINE
5
3CF
100
AcDbEntity
8
0
100
AcDbLine
62
7
6
CONTINUOUS
10
11.8430683607
20
8.3607369455
11
11.8430683607
21
8.2839866892
0
LINE
5
3D0
100
AcDbEntity
8
0
100
AcDbLine
62
7
6
CONTINUOUS
10
11.8430683607
20
8.2839866892
11
11.8879783607
21
8.2245866892
0
LINE
5
3D1
100
AcDbEntity
8
0
100
AcDbLine
62
7
6
CONTINUOUS
10
11.8879783607
20
8.2245866892
11
11.7062083607
21
8.2245866892
0
LINE
5
3D2
100
AcDbEntity
8
0
100
AcDbLine
62
7
6
CONTINUOUS
10
11.7062083607
20
8.2245866892
11
11.7525483607
21
8.2839866892
0
LINE
5
3D3
100
AcDbEntity
8
0
100
AcDbLine
62
7
6
CONTINUOUS
10
11.7525483607
20
8.2839866892
11
11.7525483607
21
8.3674543890
0
SPLINE
5
3D4
100
AcDbEntity
8
0
100
AcDbSpline
62
7
6
CONTINUOUS
70
0
71
3
72
10
73
6
74
4
42
0.0000001000
43
0.0000001000
44
0.0000000001
40
0.0000000000
40
0.0000000000
40
0.0000000000
40
0.0000000000
40
0.3333333333
40
0.6666666667
40
1.0000000000
40
1.0000000000
40
1.0000000000
40
1.0000000000
10
12.2214721442
20
8.5134514153
30
0.0000000000
10
12.2204059598
20
8.5146939505
30
0.0000000000
10
12.2176095912
20
8.5166065497
30
0.0000000000
10
12.2125399388
20
8.5169959652
30
0.0000000000
10
12.2094841607
20
8.5155328872
30
0.0000000000
10
12.2082406407
20
8.5144677675
30
0.0000000000
11
12.2214721442
21
8.5134514153
31
0.0000000000
11
12.2174637413
21
8.5161933024
31
0.0000000000
11
12.2126209364
21
8.5165652931
31
0.0000000000
11
12.2082406407
21
8.5144677675
31
0.0000000000
0
SPLINE
5
3D5
100
AcDbEntity
8
0
100
AcDbSpline
62
7
6
CONTINUOUS
70
0
71
3
72
10
73
6
74
4
42
0.0000001000
43
0.0000001000
44
0.0000000001
40
0.0000000000
40
0.0000000000
40
0.0000000000
40
0.0000000000
40
0.3333333333
40
0.6666666667
40
1.0000000000
40
1.0000000000
40
1.0000000000
40
1.0000000000
10
12.0870594204
20
8.5134465954
30
0.0000000000
10
12.0858156151
20
8.5155792387
30
0.0000000000
10
12.0821875565
20
8.5191751936
30
0.0000000000
10
12.0747744154
20
8.5211269070
30
0.0000000000
10
12.0698457727
20
8.5197837391
30
0.0000000000
10
12.0677129139
20
8.5185400954
30
0.0000000000
11
12.0870594204
21
8.5134465954
31
0.0000000000
11
12.0818590476
21
8.5186014905
31
0.0000000000
11
12.0747777782
21
8.5204658294
31
0.0000000000
11
12.0677129139
21
8.5185400954
31
0.0000000000
0
LINE
5
3D6
100
AcDbEntity
8
0
100
AcDbLine
62
7
6
CONTINUOUS
10
12.2163883607
20
8.4798466892
11
12.2133283607
21
8.4839166892
0
LINE
5
3D7
100
AcDbEntity
8
0
100
AcDbLine
62
7
6
CONTINUOUS
10
12.2133283607
20
8.4839166892
11
12.2092583607
21
8.4849366892
0
LINE
5
3D8
100
AcDbEntity
8
0
100
AcDbLine
62
7
6
CONTINUOUS
10
12.2092583607
20
8.4849366892
11
12.1990683607
21
8.4849366892
0
SPLINE
5
3D9
100
AcDbEntity
8
0
100
AcDbSpline
62
7
6
CONTINUOUS
70
0
71
3
72
10
73
6
74
4
42
0.0000001000
43
0.0000001000
44
0.0000000001
40
0.0000000000
40
0.0000000000
40
0.0000000000
40
0.0000000000
40
0.3333333333
40
0.6666666667
40
1.0000000000
40
1.0000000000
40
1.0000000000
40
1.0000000000
10
12.2713704989
20
8.4828989949
30
0.0000000000
10
12.2722583003
20
8.4820103769
30
0.0000000000
10
12.2745104298
20
8.4807097975
30
0.0000000000
10
12.2784152737
20
8.4807089690
30
0.0000000000
10
12.2806679492
20
8.4820085925
30
0.0000000000
10
12.2815561238
20
8.4828968336
30
0.0000000000
11
12.2713704989
21
8.4828989949
31
0.0000000000
11
12.2745982047
21
8.4810348043
31
0.0000000000
11
12.2783276352
21
8.4810340129
31
0.0000000000
11
12.2815561238
21
8.4828968336
31
0.0000000000
0
SPLINE
5
3DA
100
AcDbEntity
8
0
100
AcDbSpline
62
7
6
CONTINUOUS
70
0
71
3
72
10
73
6
74
4
42
0.0000001000
43
0.0000001000
44
0.0000000001
40
0.0000000000
40
0.0000000000
40
0.0000000000
40
0.0000000000
40
0.3333333333
40
0.6666666667
40
1.0000000000
40
1.0000000000
40
1.0000000000
40
1.0000000000
10
12.0076299905
20
8.4951177280
30
0.0000000000
10
12.0073633758
20
8.4969826225
30
0.0000000000
10
12.0058300766
20
8.5005688612
30
0.0000000000
10
12.0011455745
20
8.5040820999
30
0.0000000000
10
11.9972742040
20
8.5045492043
30
0.0000000000
10
11.9954097826
20
8.5042825241
30
0.0000000000
11
12.0076299905
21
8.4951177280
31
0.0000000000
11
12.0054326510
21
8.5002578413
31
0.0000000000
11
12.0009584822
21
8.5036133362
31
0.0000000000
11
11.9954097826
21
8.5042825241
31
0.0000000000
0
SPLINE
5
3DB
100
AcDbEntity
8
0
100
AcDbSpline
62
7
6
CONTINUOUS
70
0
71
3
72
10
73
6
74
4
42
0.0000001000
43
0.0000001000
44
0.0000000001
40
0.0000000000
40
0.0000000000
40
0.0000000000
40
0.0000000000
40
0.3333333333
40
0.6666666667
40
1.0000000000
40
1.0000000000
40
1.0000000000
40
1.0000000000
10
12.1277926318
20
8.5114053460
30
0.0000000000
10
12.1275267011
20
8.5122056119
30
0.0000000000
10
12.1265666838
20
8.5136625297
30
0.0000000000
10
12.1242262087
20
8.5148357048
30
0.0000000000
10
12.1224847412
20
8.5147329201
30
0.0000000000
10
12.1216846307
20
8.5144670127
30
0.0000000000
11
12.1277926318
21
8.5114053460
31
0.0000000000
11
12.1264166089
21
8.5134938295
31
0.0000000000
11
12.1241809210
21
8.5146144794
31
0.0000000000
11
12.1216846307
21
8.5144670127
31
0.0000000000
0
SPLINE
5
3DC
100
AcDbEntity
8
0
100
AcDbSpline
62
7
6
CONTINUOUS
70
0
71
3
72
10
73
6
74
4
42
0.0000001000
43
0.0000001000
44
0.0000000001
40
0.0000000000
40
0.0000000000
40
0.0000000000
40
0.0000000000
40
0.3333333333
40
0.6666666667
40
1.0000000000
40
1.0000000000
40
1.0000000000
40
1.0000000000
10
12.4332845081
20
8.5103914215
30
0.0000000000
10
12.4337287053
20
8.5113685899
30
0.0000000000
10
12.4340930950
20
8.5135595077
30
0.0000000000
10
12.4329231813
20
8.5166808266
30
0.0000000000
10
12.4312083596
20
8.5180928491
30
0.0000000000
10
12.4302312190
20
8.5185375688
30
0.0000000000
11
12.4332845081
21
8.5103914215
31
0.0000000000
11
12.4338070120
21
8.5135319981
31
0.0000000000
11
12.4326894615
21
8.5165136124
31
0.0000000000
11
12.4302312190
21
8.5185375688
31
0.0000000000
0
LINE
5
3DD
100
AcDbEntity
8
0
100
AcDbLine
62
7
6
CONTINUOUS
10
12.4353183607
20
8.4890066892
11
12.4200483607
21
8.4910466892
0
LINE
5
3DE
100
AcDbEntity
8
0
100
AcDbLine
62
7
6
CONTINUOUS
10
12.4200483607
20
8.4910466892
11
12.4139383607
21
8.4930766892
0
LINE
5
3DF
100
AcDbEntity
8
0
100
AcDbLine
62
7
6
CONTINUOUS
10
12.4139383607
20
8.4930766892
11
12.4068083607
21
8.4930766892
0
SPLINE
5
3E0
100
AcDbEntity
8
0
100
AcDbSpline
62
7
6
CONTINUOUS
70
0
71
3
72
11
73
7
74
5
42
0.0000001000
43
0.0000001000
44
0.0000000001
40
0.0000000000
40
0.0000000000
40
0.0000000000
40
0.0000000000
40
0.3420336032
40
0.6840672065
40
0.9837920276
40
1.0000000000
40
1.0000000000
40
1.0000000000
40
1.0000000000
10
12.5330783607
20
8.9427466892
30
0.0000000000
10
12.5336609427
20
8.9527692377
30
0.0000000000
10
12.5282667948
20
8.9730548714
30
0.0000000000
10
12.5037186916
20
8.9951552490
30
0.0000000000
10
12.4809035723
20
9.0017726851
30
0.0000000000
10
12.4696381599
20
9.0027048231
30
0.0000000000
10
12.4690595763
20
9.0027466892
30
0.0000000000
11
12.5330783607
21
8.9427466892
31
0.0000000000
11
12.5253480294
21
8.9718252667
31
0.0000000000
11
12.5008906218
21
8.9938439920
31
0.0000000000
11
12.4707932185
21
9.0026032726
31
0.0000000000
11
12.4690595763
21
9.0027466892
31
0.0000000000
0
LINE
5
3E1
100
AcDbEntity
8
0
100
AcDbLine
62
7
6
CONTINUOUS
10
11.7525483607
20
8.5358466892
11
10.8194683607
21
8.5358466892
0
LINE
5
3E2
100
AcDbEntity
8
0
100
AcDbLine
62
7
6
CONTINUOUS
10
10.8194683607
20
8.5358466892
11
10.7952283607
21
8.6441966892
0
LINE
5
3E3
100
AcDbEntity
8
0
100
AcDbLine
62
7
6
CONTINUOUS
10
10.7952283607
20
8.6441966892
11
10.8479783607
21
8.7012266892
0
LINE
5
3E4
100
AcDbEntity
8
0
100
AcDbLine
62
7
6
CONTINUOUS
10
10.8479783607
20
8.7012266892
11
10.8194683607
21
8.8181266892
0
LINE
5
3E5
100
AcDbEntity
8
0
100
AcDbLine
62
7
6
CONTINUOUS
10
10.8194683607
20
8.8181266892
11
10.8921683607
21
8.8637466892
0
LINE
5
3E6
100
AcDbEntity
8
0
100
AcDbLine
62
7
6
CONTINUOUS
10
10.8921683607
20
8.8637466892
11
10.8950183607
21
8.9564166892
0
LINE
5
3E7
100
AcDbEntity
8
0
100
AcDbLine
62
7
6
CONTINUOUS
10
10.8950183607
20
8.9564166892
11
10.9862683607
21
9.0027466892
0
LINE
5
3E8
100
AcDbEntity
8
0
100
AcDbLine
62
7
6
CONTINUOUS
10
10.9862683607
20
9.0027466892
11
12.4690595763
21
9.0027466892
0
LINE
5
3E9
100
AcDbEntity
8
0
100
AcDbLine
62
7
6
CONTINUOUS
10
11.8430683607
20
8.5358466892
11
12.5330783607
21
8.5358466892
0
LINE
5
3EA
100
AcDbEntity
8
0
100
AcDbLine
62
7
6
CONTINUOUS
10
12.5330783607
20
8.5358466892
11
12.5330783607
21
8.9427466892
0
LINE
5
3EB
100
AcDbEntity
8
0
100
AcDbLine
62
2
6
CONTINUOUS
10
12.4774783607
20
8.5358466892
11
12.5330783607
21
8.5857466892
0
LINE
5
3EC
100
AcDbEntity
8
0
100
AcDbLine
62
2
6
CONTINUOUS
10
12.2900224192
20
8.5358466892
11
12.5330783607
21
8.7539766892
0
LINE
5
3ED
100
AcDbEntity
8
0
100
AcDbLine
62
2
6
CONTINUOUS
10
12.1820003607
20
8.5358466892
11
12.5330783607
21
8.8509166892
0
LINE
5
3EE
100
AcDbEntity
8
0
100
AcDbLine
62
2
6
CONTINUOUS
10
12.0819266470
20
8.5358466892
11
12.5330783607
21
8.9407266892
0
LINE
5
3EF
100
AcDbEntity
8
0
100
AcDbLine
62
2
6
CONTINUOUS
10
11.9722285424
20
8.5358466892
11
12.4965855576
21
8.9959320329
0
LINE
5
3F0
100
AcDbEntity
8
0
100
AcDbLine
62
2
6
CONTINUOUS
10
11.8951083607
20
8.5690966892
11
12.3783235103
21
9.0027466892
0
LINE
5
3F1
100
AcDbEntity
8
0
100
AcDbLine
62
2
6
CONTINUOUS
10
11.8951083607
20
8.6758766892
11
12.2593386755
21
9.0027466892
0
LINE
5
3F2
100
AcDbEntity
8
0
100
AcDbLine
62
2
6
CONTINUOUS
10
11.8951083607
20
8.7760666892
11
12.1476903686
21
9.0027466892
0
LINE
5
3F3
100
AcDbEntity
8
0
100
AcDbLine
62
2
6
CONTINUOUS
10
11.4083263610
20
8.5358466892
11
11.6955183607
21
8.7935819608
0
LINE
5
3F4
100
AcDbEntity
8
0
100
AcDbLine
62
2
6
CONTINUOUS
10
11.2966838206
20
8.5358466892
11
11.8169403638
21
9.0027466892
0
LINE
5
3F5
100
AcDbEntity
8
0
100
AcDbLine
62
2
6
CONTINUOUS
10
11.1883380678
20
8.5358466892
11
11.7085992263
21
9.0027466892
0
LINE
5
3F6
100
AcDbEntity
8
0
100
AcDbLine
62
2
6
CONTINUOUS
10
11.8091383607
20
8.7961566892
11
12.0393366380
21
9.0027466892
0
LINE
5
3F7
100
AcDbEntity
8
0
100
AcDbLine
62
2
6
CONTINUOUS
10
11.6274231867
20
8.5358466892
11
11.6955183607
21
8.5969566892
0
LINE
5
3F8
100
AcDbEntity
8
0
100
AcDbLine
62
2
6
CONTINUOUS
10
11.0790063610
20
8.5358466892
11
11.5992686589
21
9.0027466892
0
LINE
5
3F9
100
AcDbEntity
8
0
100
AcDbLine
62
2
6
CONTINUOUS
10
10.9673474282
20
8.5358466892
11
11.4880883607
21
9.0031666892
0
LINE
5
3FA
100
AcDbEntity
8
0
100
AcDbLine
62
2
6
CONTINUOUS
10
10.8590080678
20
8.5358466892
11
11.3792692263
21
9.0027466892
0
LINE
5
3FB
100
AcDbEntity
8
0
100
AcDbLine
62
2
6
CONTINUOUS
10
10.8068452843
20
8.5922703825
11
11.2642386805
21
9.0027466892
0
LINE
5
3FC
100
AcDbEntity
8
0
100
AcDbLine
62
2
6
CONTINUOUS
10
10.8423456219
20
8.7243226962
11
11.1525903594
21
9.0027466892
0
LINE
5
3FD
100
AcDbEntity
8
0
100
AcDbLine
62
2
6
CONTINUOUS
10
10.8922480611
20
8.8663382138
11
11.0442492986
21
9.0027466892
0
LINE
5
3FE
100
AcDbEntity
8
0
100
AcDbLine
62
2
6
CONTINUOUS
10
12.0412383607
20
8.4289266892
11
12.0875683607
21
8.4716966892
0
LINE
5
3FF
100
AcDbEntity
8
0
100
AcDbLine
62
2
6
CONTINUOUS
10
12.0958883607
20
8.4289266892
11
12.1422183607
21
8.4716966892
0
LINE
5
400
100
AcDbEntity
8
0
100
AcDbLine
62
2
6
CONTINUOUS
10
12.1635983607
20
8.4289266892
11
12.2099383607
21
8.4716966892
0
LINE
5
401
100
AcDbEntity
8
0
100
AcDbLine
62
2
6
CONTINUOUS
10
12.2230083607
20
8.4289266892
11
12.2693383607
21
8.4716966892
0
LINE
5
402
100
AcDbEntity
8
0
100
AcDbLine
62
2
6
CONTINUOUS
10
12.2812183607
20
8.4289266892
11
12.3275483607
21
8.4716966892
0
LINE
5
403
100
AcDbEntity
8
0
100
AcDbLine
62
2
6
CONTINUOUS
10
12.3382383607
20
8.4289266892
11
12.3845783607
21
8.4716966892
0
LINE
5
404
100
AcDbEntity
8
0
100
AcDbLine
62
2
6
CONTINUOUS
10
12.4023983607
20
8.4289266892
11
12.4457284108
21
8.4689236586
0
LINE
5
405
100
AcDbEntity
8
0
100
AcDbLine
62
2
6
CONTINUOUS
10
12.4889000925
20
8.3831147330
11
12.5204277554
21
8.4122267391
0
LINE
5
406
100
AcDbEntity
8
0
100
AcDbLine
62
2
6
CONTINUOUS
10
12.4974383607
20
8.3182580642
11
12.5378283607
21
8.3555466892
0
LINE
5
407
100
AcDbEntity
8
0
100
AcDbLine
62
2
6
CONTINUOUS
10
12.4974383607
20
8.2562066892
11
12.5378283607
21
8.2934866892
0
LINE
5
408
100
AcDbEntity
8
0
100
AcDbLine
62
2
6
CONTINUOUS
10
12.4974383607
20
8.1861166892
11
12.5378283607
21
8.2233966892
0
LINE
5
409
100
AcDbEntity
8
0
100
AcDbLine
62
2
6
CONTINUOUS
10
12.4974383607
20
8.1160166892
11
12.5378283607
21
8.1533066892
0
LINE
5
40A
100
AcDbEntity
8
0
100
AcDbLine
62
2
6
CONTINUOUS
10
12.4974383607
20
8.0399866892
11
12.5378283607
21
8.0772666892
0
LINE
5
40B
100
AcDbEntity
8
0
100
AcDbLine
62
2
6
CONTINUOUS
10
12.4974383607
20
7.9746466892
11
12.5378283607
21
8.0119266892
0
LINE
5
40C
100
AcDbEntity
8
0
100
AcDbLine
62
2
6
CONTINUOUS
10
12.4974383607
20
7.9081166892
11
12.5378283607
21
7.9453966892
0
LINE
5
40D
100
AcDbEntity
8
0
100
AcDbLine
62
2
6
CONTINUOUS
10
12.4974383607
20
7.8308966892
11
12.5378283607
21
7.8681766892
0
LINE
5
40E
100
AcDbEntity
8
0
100
AcDbLine
62
2
6
CONTINUOUS
10
12.4974383607
20
7.7619866892
11
12.5378283607
21
7.7992666892
0
LINE
5
40F
100
AcDbEntity
8
0
100
AcDbLine
62
2
6
CONTINUOUS
10
12.4974383607
20
7.6918966892
11
12.5378283607
21
7.7291766892
0
LINE
5
410
100
AcDbEntity
8
0
100
AcDbLine
62
2
6
CONTINUOUS
10
12.4974383607
20
7.6336836123
11
12.5378283607
21
7.6709666892
0
LINE
5
411
100
AcDbEntity
8
0
100
AcDbLine
62
7
6
CONTINUOUS
10
11.7525483607
20
8.2839866892
11
11.8430683607
21
8.2839866892
0
LINE
5
412
100
AcDbEntity
8
0
100
AcDbLine
62
2
6
CONTINUOUS
10
11.5192472024
20
8.5358466892
11
11.6955183607
21
8.6940366892
0
LINE
5
413
100
AcDbEntity
8
0
100
AcDbLine
62
2
6
CONTINUOUS
10
11.6982424986
20
8.7960266892
11
11.9285886589
21
9.0027466892
0
LINE
5
414
100
AcDbEntity
8
0
100
AcDbLine
62
7
6
CONTINUOUS
10
11.6955183607
20
8.7960266892
11
11.6955183607
21
8.5358466892
0
ENDBLK
5
415
100
AcDbEntity
8
0
100
AcDbBlockEnd
0
BLOCK
5
416
100
AcDbEntity
8
0
100
AcDbBlockBegin
62
2
6
CONTINUOUS
2
REVEAL_BL3
70
64
10
0.0000000000
20
0.0000000000
3
REVEAL_BL3
1

0
LINE
5
417
100
AcDbEntity
8
0
100
AcDbLine
62
2
6
CONTINUOUS
10
12.4986195317
20
10.9782503111
11
12.5449495317
21
11.0210103111
0
LINE
5
418
100
AcDbEntity
8
0
100
AcDbLine
62
7
6
CONTINUOUS
10
13.0424995317
20
10.1941403111
11
13.0424995317
21
10.8950803111
0
SPLINE
5
419
100
AcDbEntity
8
0
100
AcDbSpline
62
7
6
CONTINUOUS
70
0
71
3
72
10
73
6
74
4
42
0.0000001000
43
0.0000001000
44
0.0000000001
40
0.0000000000
40
0.0000000000
40
0.0000000000
40
0.0000000000
40
0.3350496869
40
0.6700993738
40
1.0000000000
40
1.0000000000
40
1.0000000000
40
1.0000000000
10
13.0425033235
20
10.8950834673
30
0.0000000000
10
13.0425034370
20
10.9171716651
30
0.0000000000
10
13.0316650937
20
10.9611547143
30
0.0000000000
10
12.9873917987
20
11.0090430756
30
0.0000000000
10
12.9471244222
20
11.0208325677
30
0.0000000000
10
12.9270202061
20
11.0210103111
30
0.0000000000
11
13.0425033235
21
10.8950834673
31
0.0000000000
11
13.0269578027
21
10.9581814422
31
0.0000000000
11
12.9844147889
21
11.0041982390
31
0.0000000000
11
12.9270202061
21
11.0210103111
31
0.0000000000
0
SPLINE
5
41A
100
AcDbEntity
8
0
100
AcDbSpline
62
7
6
CONTINUOUS
70
0
71
3
72
12
73
8
74
6
42
0.0000001000
43
0.0000001000
44
0.0000000001
40
0.0000000000
40
0.0000000000
40
0.0000000000
40
0.0000000000
40
0.2000023635
40
0.4000047269
40
0.6000070904
40
0.8000094538
40
1.0000000000
40
1.0000000000
40
1.0000000000
40
1.0000000000
10
12.8216109875
20
11.0210149197
30
0.0000000000
10
12.8268790300
20
11.0223534164
30
0.0000000000
10
12.8382786713
20
11.0277087974
30
0.0000000000
10
12.8540395571
20
11.0419266668
30
0.0000000000
10
12.8648153166
20
11.0590430621
30
0.0000000000
10
12.8681171596
20
11.0751045347
30
0.0000000000
10
12.8648293363
20
11.0826335596
30
0.0000000000
10
12.8620012965
20
11.0851703111
30
0.0000000000
11
12.8216109875
21
11.0210149197
31
0.0000000000
11
12.8380555753
21
11.0287395971
31
0.0000000000
11
12.8532087027
21
11.0424097545
31
0.0000000000
11
12.8635696747
21
11.0588672944
31
0.0000000000
11
12.8667448860
21
11.0743101746
31
0.0000000000
11
12.8620012965
21
11.0851703111
31
0.0000000000
0
LINE
5
41B
100
AcDbEntity
8
0
100
AcDbLine
62
7
6
CONTINUOUS
10
13.0021095317
20
10.1808003111
11
13.0021095317
21
10.8927103111
0
SPLINE
5
41C
100
AcDbEntity
8
0
100
AcDbSpline
62
7
6
CONTINUOUS
70
0
71
3
72
10
73
6
74
4
42
0.0000001000
43
0.0000001000
44
0.0000000001
40
0.0000000000
40
0.0000000000
40
0.0000000000
40
0.0000000000
40
0.3333333333
40
0.6666666667
40
1.0000000000
40
1.0000000000
40
1.0000000000
40
1.0000000000
10
13.0021104478
20
10.8927029998
30
0.0000000000
10
13.0021110782
20
10.9077999270
30
0.0000000000
10
12.9950700907
20
10.9377262844
30
0.0000000000
10
12.9660970026
20
10.9703229675
30
0.0000000000
10
12.9394962549
20
10.9782458372
30
0.0000000000
10
12.9260767884
20
10.9782460078
30
0.0000000000
11
13.0021104478
21
10.8927029998
31
0.0000000000
11
12.9920014895
21
10.9356774756
31
0.0000000000
11
12.9642756637
21
10.9668709044
31
0.0000000000
11
12.9260767884
21
10.9782460078
31
0.0000000000
0
LINE
5
41D
100
AcDbEntity
8
0
100
AcDbLine
62
7
6
CONTINUOUS
10
12.9265595317
20
10.9782503111
11
12.4107095317
21
10.9782503111
0
LINE
5
41E
100
AcDbEntity
8
0
100
AcDbLine
62
7
6
CONTINUOUS
10
12.4107095317
20
10.9782503111
11
12.4107095317
21
11.0210103111
0
LINE
5
41F
100
AcDbEntity
8
0
100
AcDbLine
62
7
6
CONTINUOUS
10
12.4107095317
20
11.0210103111
11
12.9270202061
21
11.0210103111
0
LINE
5
420
100
AcDbEntity
8
0
100
AcDbLine
62
7
6
CONTINUOUS
10
12.8632971795
20
10.9782503111
11
12.7837495317
21
10.8701303111
0
LINE
5
421
100
AcDbEntity
8
0
100
AcDbLine
62
7
6
CONTINUOUS
10
12.7837495317
20
10.8701303111
11
11.4709795317
21
10.9675503111
0
LINE
5
422
100
AcDbEntity
8
0
100
AcDbLine
62
7
6
CONTINUOUS
10
11.4709795317
20
10.9675503111
11
11.3996895317
21
11.0661603111
0
LINE
5
423
100
AcDbEntity
8
0
100
AcDbLine
62
7
6
CONTINUOUS
10
11.3996895317
20
11.0661603111
11
11.4388995317
21
11.0851703111
0
LINE
5
424
100
AcDbEntity
8
0
100
AcDbLine
62
7
6
CONTINUOUS
10
11.4388995317
20
11.0851703111
11
11.4971095317
21
10.9996303111
0
LINE
5
425
100
AcDbEntity
8
0
100
AcDbLine
62
7
6
CONTINUOUS
10
11.4971095317
20
10.9996303111
11
12.7657557350
21
10.9098464892
0
LINE
5
426
100
AcDbEntity
8
0
100
AcDbLine
62
7
6
CONTINUOUS
10
12.7657557350
20
10.9098464892
11
12.8155411008
21
10.9782503111
0
LINE
5
427
100
AcDbEntity
8
0
100
AcDbLine
62
2
6
CONTINUOUS
10
12.9664430635
20
10.9654151431
11
12.9978436517
21
10.9944010414
0
LINE
5
428
100
AcDbEntity
8
0
100
AcDbLine
62
7
6
CONTINUOUS
10
12.4480495317
20
11.0281403111
11
12.4449895317
21
11.0342503111
0
LINE
5
429
100
AcDbEntity
8
0
100
AcDbLine
62
7
6
CONTINUOUS
10
12.4449895317
20
11.0342503111
11
12.4409195317
21
11.0352703111
0
LINE
5
42A
100
AcDbEntity
8
0
100
AcDbLine
62
7
6
CONTINUOUS
10
12.4409195317
20
11.0352703111
11
12.4368495317
21
11.0373103111
0
LINE
5
42B
100
AcDbEntity
8
0
100
AcDbLine
62
7
6
CONTINUOUS
10
12.4368495317
20
11.0373103111
11
12.4327695317
21
11.0413803111
0
LINE
5
42C
100
AcDbEntity
8
0
100
AcDbLine
62
7
6
CONTINUOUS
10
12.4327695317
20
11.0413803111
11
12.4276795317
21
11.0403603111
0
LINE
5
42D
100
AcDbEntity
8
0
100
AcDbLine
62
7
6
CONTINUOUS
10
12.5529295317
20
11.0312003111
11
12.5570095317
21
11.0332303111
0
LINE
5
42E
100
AcDbEntity
8
0
100
AcDbLine
62
7
6
CONTINUOUS
10
12.5570095317
20
11.0332303111
11
12.5610795317
21
11.0342503111
0
LINE
5
42F
100
AcDbEntity
8
0
100
AcDbLine
62
7
6
CONTINUOUS
10
12.5610795317
20
11.0342503111
11
12.5692295317
21
11.0301803111
0
LINE
5
430
100
AcDbEntity
8
0
100
AcDbLine
62
7
6
CONTINUOUS
10
12.5692295317
20
11.0301803111
11
12.5732995317
21
11.0301803111
0
LINE
5
431
100
AcDbEntity
8
0
100
AcDbLine
62
7
6
CONTINUOUS
10
12.7087395317
20
11.0322203111
11
12.7148395317
21
11.0352703111
0
LINE
5
432
100
AcDbEntity
8
0
100
AcDbLine
62
7
6
CONTINUOUS
10
12.7148395317
20
11.0352703111
11
12.7250295317
21
11.0322203111
0
LINE
5
433
100
AcDbEntity
8
0
100
AcDbLine
62
2
6
CONTINUOUS
10
12.6927635469
20
11.0851703111
11
12.8687795317
21
11.2431339145
0
LINE
5
434
100
AcDbEntity
8
0
100
AcDbLine
62
7
6
CONTINUOUS
10
12.7117895317
20
11.0698903111
11
12.7077195317
21
11.0698903111
0
LINE
5
435
100
AcDbEntity
8
0
100
AcDbLine
62
7
6
CONTINUOUS
10
12.7077195317
20
11.0698903111
11
12.6965095317
21
11.0780403111
0
LINE
5
436
100
AcDbEntity
8
0
100
AcDbLine
62
7
6
CONTINUOUS
10
12.6965095317
20
11.0780403111
11
12.6883695317
21
11.0780403111
0
LINE
5
437
100
AcDbEntity
8
0
100
AcDbLine
62
7
6
CONTINUOUS
10
12.6883695317
20
11.0780403111
11
12.6883695317
21
11.0719303111
0
LINE
5
438
100
AcDbEntity
8
0
100
AcDbLine
62
2
6
CONTINUOUS
10
12.5847415274
20
11.0851703111
11
12.8687795317
21
11.3400738641
0
LINE
5
439
100
AcDbEntity
8
0
100
AcDbLine
62
7
6
CONTINUOUS
10
12.5559895317
20
11.0719303111
11
12.5559895317
21
11.0770203111
0
LINE
5
43A
100
AcDbEntity
8
0
100
AcDbLine
62
7
6
CONTINUOUS
10
12.5559895317
20
11.0770203111
11
12.5600595317
21
11.0780403111
0
LINE
5
43B
100
AcDbEntity
8
0
100
AcDbLine
62
7
6
CONTINUOUS
10
12.5600595317
20
11.0780403111
11
12.5641295317
21
11.0770203111
0
LINE
5
43C
100
AcDbEntity
8
0
100
AcDbLine
62
7
6
CONTINUOUS
10
12.5641295317
20
11.0770203111
11
12.5692295317
21
11.0698903111
0
LINE
5
43D
100
AcDbEntity
8
0
100
AcDbLine
62
7
6
CONTINUOUS
10
12.5692295317
20
11.0698903111
11
12.5743195317
21
11.0678603111
0
LINE
5
43E
100
AcDbEntity
8
0
100
AcDbLine
62
7
6
CONTINUOUS
10
12.5743195317
20
11.0678603111
11
12.5794095317
21
11.0678603111
0
LINE
5
43F
100
AcDbEntity
8
0
100
AcDbLine
62
2
6
CONTINUOUS
10
12.4846578144
20
11.0851703111
11
12.8687795317
21
11.4298938888
0
LINE
5
440
100
AcDbEntity
8
0
100
AcDbLine
62
2
6
CONTINUOUS
10
12.3750964644
20
11.0851703111
11
12.8537868156
21
11.5200887211
0
SPLINE
5
441
100
AcDbEntity
8
0
100
AcDbSpline
62
7
6
CONTINUOUS
70
0
71
3
72
10
73
6
74
4
42
0.0000001000
43
0.0000001000
44
0.0000000001
40
0.0000000000
40
0.0000000000
40
0.0000000000
40
0.0000000000
40
0.3333333333
40
0.6666666667
40
1.0000000000
40
1.0000000000
40
1.0000000000
40
1.0000000000
10
12.4195284615
20
11.0220369615
30
0.0000000000
10
12.4076412415
20
11.0324297905
30
0.0000000000
10
12.3906388149
20
11.0505232359
30
0.0000000000
10
12.3829515947
20
11.0711116464
30
0.0000000000
10
12.3891105461
20
11.0810646938
30
0.0000000000
10
12.3950941444
20
11.0851687989
30
0.0000000000
11
12.4195284615
21
11.0220369615
31
0.0000000000
11
12.3936082182
21
11.0494312763
31
0.0000000000
11
12.3857725359
21
11.0701685065
31
0.0000000000
11
12.3950941444
21
11.0851687989
31
0.0000000000
0
LINE
5
442
100
AcDbEntity
8
0
100
AcDbLine
62
7
6
CONTINUOUS
10
12.2978395317
20
11.0851703111
11
12.2978395317
21
11.3453503111
0
LINE
5
443
100
AcDbEntity
8
0
100
AcDbLine
62
7
6
CONTINUOUS
10
12.2978395317
20
11.3453503111
11
12.0982595317
21
11.3453503111
0
LINE
5
444
100
AcDbEntity
8
0
100
AcDbLine
62
7
6
CONTINUOUS
10
12.0982595317
20
11.3453503111
11
12.0982595317
21
11.0851703111
0
LINE
5
445
100
AcDbEntity
8
0
100
AcDbLine
62
2
6
CONTINUOUS
10
12.2978395317
20
11.1184203111
11
12.7810435384
21
11.5520603111
0
LINE
5
446
100
AcDbEntity
8
0
100
AcDbLine
62
7
6
CONTINUOUS
10
12.1552795317
20
10.9530507227
11
12.1552795317
21
11.3075703111
0
LINE
5
447
100
AcDbEntity
8
0
100
AcDbLine
62
7
6
CONTINUOUS
10
12.1552795317
20
11.3075703111
11
12.1987595317
21
11.3453503111
0
LINE
5
448
100
AcDbEntity
8
0
100
AcDbLine
62
7
6
CONTINUOUS
10
12.1987595317
20
11.3453503111
11
12.2458095317
21
11.3075703111
0
LINE
5
449
100
AcDbEntity
8
0
100
AcDbLine
62
2
6
CONTINUOUS
10
12.2978395317
20
11.2251903111
11
12.6620698465
21
11.5520603111
0
LINE
5
44A
100
AcDbEntity
8
0
100
AcDbLine
62
7
6
CONTINUOUS
10
12.2458095317
20
10.9466437911
11
12.2458095317
21
11.3075703111
0
LINE
5
44B
100
AcDbEntity
8
0
100
AcDbLine
62
7
6
CONTINUOUS
10
12.2458095317
20
11.3075703111
11
12.1552795317
21
11.3075703111
0
LINE
5
44C
100
AcDbEntity
8
0
100
AcDbLine
62
2
6
CONTINUOUS
10
12.2978395317
20
11.3253903111
11
12.5504315005
21
11.5520603111
0
LINE
5
44D
100
AcDbEntity
8
0
100
AcDbLine
62
7
6
CONTINUOUS
10
12.1552795317
20
11.2092003111
11
12.2458095317
21
11.2092003111
0
LINE
5
44E
100
AcDbEntity
8
0
100
AcDbLine
62
7
6
CONTINUOUS
10
12.2457995317
20
11.2092003111
11
12.1987595317
21
11.2469803111
0
LINE
5
44F
100
AcDbEntity
8
0
100
AcDbLine
62
7
6
CONTINUOUS
10
12.1987595317
20
11.2469803111
11
12.1552795317
21
11.2092003111
0
LINE
5
450
100
AcDbEntity
8
0
100
AcDbLine
62
2
6
CONTINUOUS
10
11.8110675337
20
11.0851703111
11
12.3313298909
21
11.5520603111
0
LINE
5
451
100
AcDbEntity
8
0
100
AcDbLine
62
2
6
CONTINUOUS
10
12.8687795317
20
11.1547403111
11
12.7912519696
21
11.0851703111
0
LINE
5
452
100
AcDbEntity
8
0
100
AcDbLine
62
7
6
CONTINUOUS
10
12.7962995317
20
11.0851703111
11
12.8125995317
21
11.0770203111
0
LINE
5
453
100
AcDbEntity
8
0
100
AcDbLine
62
7
6
CONTINUOUS
10
12.8125995317
20
11.0770203111
11
12.8156595317
21
11.0729503111
0
LINE
5
454
100
AcDbEntity
8
0
100
AcDbLine
62
7
6
CONTINUOUS
10
12.8156595317
20
11.0729503111
11
12.8176895317
21
11.0648003111
0
LINE
5
455
100
AcDbEntity
8
0
100
AcDbLine
62
7
6
CONTINUOUS
10
12.8176895317
20
11.0648003111
11
12.8176895317
21
11.0586903111
0
LINE
5
456
100
AcDbEntity
8
0
100
AcDbLine
62
7
6
CONTINUOUS
10
12.8176895317
20
11.0586903111
11
12.8166795317
21
11.0536003111
0
LINE
5
457
100
AcDbEntity
8
0
100
AcDbLine
62
7
6
CONTINUOUS
10
12.8166795317
20
11.0536003111
11
12.8085295317
21
11.0485103111
0
LINE
5
458
100
AcDbEntity
8
0
100
AcDbLine
62
7
6
CONTINUOUS
10
12.8085295317
20
11.0485103111
11
12.7963095317
21
11.0474903111
0
LINE
5
459
100
AcDbEntity
8
0
100
AcDbLine
62
7
6
CONTINUOUS
10
12.7963095317
20
11.0474903111
11
12.7840895317
21
11.0444403111
0
LINE
5
45A
100
AcDbEntity
8
0
100
AcDbLine
62
7
6
CONTINUOUS
10
12.7840895317
20
11.0444403111
11
12.7769595317
21
11.0444403111
0
LINE
5
45B
100
AcDbEntity
8
0
100
AcDbLine
62
7
6
CONTINUOUS
10
12.7769595317
20
11.0444403111
11
12.7688095317
21
11.0424003111
0
LINE
5
45C
100
AcDbEntity
8
0
100
AcDbLine
62
7
6
CONTINUOUS
10
12.7688095317
20
11.0424003111
11
12.7413195317
21
11.0424003111
0
LINE
5
45D
100
AcDbEntity
8
0
100
AcDbLine
62
7
6
CONTINUOUS
10
12.7413195317
20
11.0424003111
11
12.7321595317
21
11.0454503111
0
LINE
5
45E
100
AcDbEntity
8
0
100
AcDbLine
62
7
6
CONTINUOUS
10
12.7321595317
20
11.0454503111
11
12.7290995317
21
11.0485103111
0
LINE
5
45F
100
AcDbEntity
8
0
100
AcDbLine
62
7
6
CONTINUOUS
10
12.7290995317
20
11.0485103111
11
12.7250295317
21
11.0495303111
0
LINE
5
460
100
AcDbEntity
8
0
100
AcDbLine
62
7
6
CONTINUOUS
10
12.7250295317
20
11.0495303111
11
12.7189195317
21
11.0495303111
0
LINE
5
461
100
AcDbEntity
8
0
100
AcDbLine
62
7
6
CONTINUOUS
10
12.7189195317
20
11.0495303111
11
12.7077195317
21
11.0515603111
0
LINE
5
462
100
AcDbEntity
8
0
100
AcDbLine
62
7
6
CONTINUOUS
10
12.7077195317
20
11.0515603111
11
12.6995695317
21
11.0515603111
0
LINE
5
463
100
AcDbEntity
8
0
100
AcDbLine
62
7
6
CONTINUOUS
10
12.6995695317
20
11.0515603111
11
12.6903995317
21
11.0495303111
0
LINE
5
464
100
AcDbEntity
8
0
100
AcDbLine
62
7
6
CONTINUOUS
10
12.6903995317
20
11.0495303111
11
12.6853095317
21
11.0454503111
0
LINE
5
465
100
AcDbEntity
8
0
100
AcDbLine
62
7
6
CONTINUOUS
10
12.6853095317
20
11.0454503111
11
12.6812395317
21
11.0444403111
0
LINE
5
466
100
AcDbEntity
8
0
100
AcDbLine
62
7
6
CONTINUOUS
10
12.6812395317
20
11.0444403111
11
12.6170895317
21
11.0424003111
0
LINE
5
467
100
AcDbEntity
8
0
100
AcDbLine
62
7
6
CONTINUOUS
10
12.6170895317
20
11.0424003111
11
12.6079195317
21
11.0444403111
0
LINE
5
468
100
AcDbEntity
8
0
100
AcDbLine
62
7
6
CONTINUOUS
10
12.6079195317
20
11.0444403111
11
12.5692295317
21
11.0485103111
0
LINE
5
469
100
AcDbEntity
8
0
100
AcDbLine
62
7
6
CONTINUOUS
10
12.5692295317
20
11.0485103111
11
12.5600595317
21
11.0424003111
0
LINE
5
46A
100
AcDbEntity
8
0
100
AcDbLine
62
7
6
CONTINUOUS
10
12.5600595317
20
11.0424003111
11
12.5549695317
21
11.0403603111
0
LINE
5
46B
100
AcDbEntity
8
0
100
AcDbLine
62
7
6
CONTINUOUS
10
12.5549695317
20
11.0403603111
11
12.5213595317
21
11.0373103111
0
LINE
5
46C
100
AcDbEntity
8
0
100
AcDbLine
62
7
6
CONTINUOUS
10
12.5213595317
20
11.0373103111
11
12.4734995317
21
11.0393403111
0
LINE
5
46D
100
AcDbEntity
8
0
100
AcDbLine
62
7
6
CONTINUOUS
10
12.4734995317
20
11.0393403111
11
12.4633195317
21
11.0393403111
0
LINE
5
46E
100
AcDbEntity
8
0
100
AcDbLine
62
7
6
CONTINUOUS
10
12.4633195317
20
11.0393403111
11
12.4531395317
21
11.0413803111
0
LINE
5
46F
100
AcDbEntity
8
0
100
AcDbLine
62
7
6
CONTINUOUS
10
12.4531395317
20
11.0413803111
11
12.4388795317
21
11.0495303111
0
LINE
5
470
100
AcDbEntity
8
0
100
AcDbLine
62
7
6
CONTINUOUS
10
12.4388795317
20
11.0495303111
11
12.4378595317
21
11.0536003111
0
LINE
5
471
100
AcDbEntity
8
0
100
AcDbLine
62
7
6
CONTINUOUS
10
12.4378595317
20
11.0536003111
11
12.4276795317
21
11.0566603111
0
LINE
5
472
100
AcDbEntity
8
0
100
AcDbLine
62
7
6
CONTINUOUS
10
12.4276795317
20
11.0566603111
11
12.4154595317
21
11.0668403111
0
LINE
5
473
100
AcDbEntity
8
0
100
AcDbLine
62
7
6
CONTINUOUS
10
12.4154595317
20
11.0668403111
11
12.4124095317
21
11.0709103111
0
LINE
5
474
100
AcDbEntity
8
0
100
AcDbLine
62
7
6
CONTINUOUS
10
12.4124095317
20
11.0709103111
11
12.4124095317
21
11.0770203111
0
LINE
5
475
100
AcDbEntity
8
0
100
AcDbLine
62
7
6
CONTINUOUS
10
12.4124095317
20
11.0770203111
11
12.4144395317
21
11.0810903111
0
LINE
5
476
100
AcDbEntity
8
0
100
AcDbLine
62
7
6
CONTINUOUS
10
12.4144395317
20
11.0810903111
11
12.4195295317
21
11.0851703111
0
LINE
5
477
100
AcDbEntity
8
0
100
AcDbLine
62
2
6
CONTINUOUS
10
11.6994147981
20
11.0851703111
11
12.2196815157
21
11.5520603111
0
LINE
5
478
100
AcDbEntity
8
0
100
AcDbLine
62
2
6
CONTINUOUS
10
11.5910692388
20
11.0851703111
11
12.1113192545
21
11.5520603111
0
LINE
5
479
100
AcDbEntity
8
0
100
AcDbLine
62
2
6
CONTINUOUS
10
12.2118795317
20
11.3454803111
11
12.4420666663
21
11.5520603111
0
LINE
5
47A
100
AcDbEntity
8
0
100
AcDbLine
62
2
6
CONTINUOUS
10
12.0319595317
20
11.0867803111
11
12.0982595317
21
11.1462703111
0
LINE
5
47B
100
AcDbEntity
8
0
100
AcDbLine
62
2
6
CONTINUOUS
10
11.4817475322
20
11.0851703111
11
12.0019998362
21
11.5520603111
0
LINE
5
47C
100
AcDbEntity
8
0
100
AcDbLine
62
2
6
CONTINUOUS
10
11.3700997424
20
11.0851703111
11
11.8903615201
21
11.5520603111
0
LINE
5
47D
100
AcDbEntity
8
0
100
AcDbLine
62
2
6
CONTINUOUS
10
11.2617492388
20
11.0851703111
11
11.7819992545
21
11.5520603111
0
LINE
5
47E
100
AcDbEntity
8
0
100
AcDbLine
62
2
6
CONTINUOUS
10
11.2095843264
20
11.1415820939
11
11.6669798515
21
11.5520603111
0
LINE
5
47F
100
AcDbEntity
8
0
100
AcDbLine
62
2
6
CONTINUOUS
10
11.2450851721
20
11.2736348636
11
11.5553315304
21
11.5520603111
0
SPLINE
5
480
100
AcDbEntity
8
0
100
AcDbSpline
62
7
6
CONTINUOUS
70
0
71
3
72
10
73
6
74
4
42
0.0000001000
43
0.0000001000
44
0.0000000001
40
0.0000000000
40
0.0000000000
40
0.0000000000
40
0.0000000000
40
0.2497645491
40
0.6269496006
40
1.0000000000
40
1.0000000000
40
1.0000000000
40
1.0000000000
10
12.8687795317
20
11.4690461258
30
0.0000000000
10
12.8695931930
20
11.4770372542
30
0.0000000000
10
12.8674136151
20
11.4990174643
30
0.0000000000
10
12.8470617224
20
11.5338033096
30
0.0000000000
10
12.8229764735
20
11.5488301461
30
0.0000000000
10
12.8112361479
20
11.5520603111
30
0.0000000000
11
12.8687795317
21
11.4690461258
31
0.0000000000
11
12.8661774637
21
11.4945230554
31
0.0000000000
11
12.8447490785
21
11.5311488623
31
0.0000000000
11
12.8112361479
21
11.5520603111
31
0.0000000000
0
LINE
5
481
100
AcDbEntity
8
0
100
AcDbLine
62
7
6
CONTINUOUS
10
12.1552795317
20
11.0851703111
11
11.2221995317
21
11.0851703111
0
LINE
5
482
100
AcDbEntity
8
0
100
AcDbLine
62
7
6
CONTINUOUS
10
11.2221995317
20
11.0851703111
11
11.1979695317
21
11.1935203111
0
LINE
5
483
100
AcDbEntity
8
0
100
AcDbLine
62
7
6
CONTINUOUS
10
11.1979695317
20
11.1935203111
11
11.2507195317
21
11.2505403111
0
LINE
5
484
100
AcDbEntity
8
0
100
AcDbLine
62
7
6
CONTINUOUS
10
11.2507195317
20
11.2505403111
11
11.2221995317
21
11.3674403111
0
LINE
5
485
100
AcDbEntity
8
0
100
AcDbLine
62
7
6
CONTINUOUS
10
11.2221995317
20
11.3674403111
11
11.2949095317
21
11.4130603111
0
LINE
5
486
100
AcDbEntity
8
0
100
AcDbLine
62
7
6
CONTINUOUS
10
11.2949095317
20
11.4130603111
11
11.2977595317
21
11.5057303111
0
LINE
5
487
100
AcDbEntity
8
0
100
AcDbLine
62
7
6
CONTINUOUS
10
11.2977595317
20
11.5057303111
11
11.3889995317
21
11.5520603111
0
LINE
5
488
100
AcDbEntity
8
0
100
AcDbLine
62
7
6
CONTINUOUS
10
11.3889995317
20
11.5520603111
11
12.8112361479
21
11.5520603111
0
LINE
5
489
100
AcDbEntity
8
0
100
AcDbLine
62
7
6
CONTINUOUS
10
12.8687795317
20
11.4690461258
11
12.8687795317
21
11.0210103111
0
LINE
5
48A
100
AcDbEntity
8
0
100
AcDbLine
62
7
6
CONTINUOUS
10
12.8620012965
20
11.0851703111
11
12.2458095317
21
11.0851703111
0
LINE
5
48B
100
AcDbEntity
8
0
100
AcDbLine
62
2
6
CONTINUOUS
10
11.2949095317
20
11.4155903111
11
11.4469793265
21
11.5520603111
0
LINE
5
48C
100
AcDbEntity
8
0
100
AcDbLine
62
7
6
CONTINUOUS
10
12.2458095317
20
10.9100505674
11
12.2458095317
21
10.8333103111
0
LINE
5
48D
100
AcDbEntity
8
0
100
AcDbLine
62
7
6
CONTINUOUS
10
12.2458095317
20
10.8333103111
11
12.2907195317
21
10.7739003111
0
LINE
5
48E
100
AcDbEntity
8
0
100
AcDbLine
62
7
6
CONTINUOUS
10
12.2907195317
20
10.7739003111
11
12.1089495317
21
10.7739003111
0
LINE
5
48F
100
AcDbEntity
8
0
100
AcDbLine
62
7
6
CONTINUOUS
10
12.1089495317
20
10.7739003111
11
12.1552795317
21
10.8333103111
0
LINE
5
490
100
AcDbEntity
8
0
100
AcDbLine
62
7
6
CONTINUOUS
10
12.1552795317
20
10.8333103111
11
12.1552795317
21
10.9167687531
0
SPLINE
5
491
100
AcDbEntity
8
0
100
AcDbSpline
62
7
6
CONTINUOUS
70
0
71
3
72
10
73
6
74
4
42
0.0000001000
43
0.0000001000
44
0.0000000001
40
0.0000000000
40
0.0000000000
40
0.0000000000
40
0.0000000000
40
0.3333333333
40
0.6666666667
40
1.0000000000
40
1.0000000000
40
1.0000000000
40
1.0000000000
10
12.6242110171
20
11.0627688765
30
0.0000000000
10
12.6231450570
20
11.0640116024
30
0.0000000000
10
12.6203490345
20
11.0659247035
30
0.0000000000
10
12.6152794553
20
11.0663150325
30
0.0000000000
10
12.6122234150
20
11.0648525073
30
0.0000000000
10
12.6109797036
20
11.0637876130
30
0.0000000000
11
12.6242110171
21
11.0627688765
31
0.0000000000
11
12.6202031103
21
11.0655114830
31
0.0000000000
11
12.6153603751
21
11.0658843464
31
0.0000000000
11
12.6109797036
21
11.0637876130
31
0.0000000000
0
SPLINE
5
492
100
AcDbEntity
8
0
100
AcDbSpline
62
7
6
CONTINUOUS
70
0
71
3
72
10
73
6
74
4
42
0.0000001000
43
0.0000001000
44
0.0000000001
40
0.0000000000
40
0.0000000000
40
0.0000000000
40
0.0000000000
40
0.3333333333
40
0.6666666667
40
1.0000000000
40
1.0000000000
40
1.0000000000
40
1.0000000000
10
12.4897993959
20
11.0627619705
30
0.0000000000
10
12.4885557894
20
11.0648956253
30
0.0000000000
10
12.4849275146
20
11.0684933432
30
0.0000000000
10
12.4775126722
20
11.0704458475
30
0.0000000000
10
12.4725826284
20
11.0691017383
30
0.0000000000
10
12.4704491805
20
11.0678573422
30
0.0000000000
11
12.4897993959
21
11.0627619705
31
0.0000000000
11
12.4845987763
21
11.0679193311
31
0.0000000000
11
12.4775159683
21
11.0697844028
31
0.0000000000
11
12.4704491805
21
11.0678573422
31
0.0000000000
0
LINE
5
493
100
AcDbEntity
8
0
100
AcDbLine
62
7
6
CONTINUOUS
10
12.6191195317
20
11.0291603111
11
12.6160695317
21
11.0332303111
0
LINE
5
494
100
AcDbEntity
8
0
100
AcDbLine
62
7
6
CONTINUOUS
10
12.6160695317
20
11.0332303111
11
12.6119895317
21
11.0342503111
0
LINE
5
495
100
AcDbEntity
8
0
100
AcDbLine
62
7
6
CONTINUOUS
10
12.6119895317
20
11.0342503111
11
12.6018095317
21
11.0342503111
0
SPLINE
5
496
100
AcDbEntity
8
0
100
AcDbSpline
62
7
6
CONTINUOUS
70
0
71
3
72
10
73
6
74
4
42
0.0000001000
43
0.0000001000
44
0.0000000001
40
0.0000000000
40
0.0000000000
40
0.0000000000
40
0.0000000000
40
0.3333333333
40
0.6666666667
40
1.0000000000
40
1.0000000000
40
1.0000000000
40
1.0000000000
10
12.6741079176
20
11.0322183313
30
0.0000000000
10
12.6749957100
20
11.0313295144
30
0.0000000000
10
12.6772479156
20
11.0300285963
30
0.0000000000
10
12.6811530354
20
11.0300276231
30
0.0000000000
10
12.6834058836
20
11.0313274186
30
0.0000000000
10
12.6842941152
20
11.0322157928
30
0.0000000000
11
12.6741079176
21
11.0322183313
31
0.0000000000
11
12.6773357175
21
11.0303536636
31
0.0000000000
11
12.6810653941
21
11.0303527342
31
0.0000000000
11
12.6842941152
21
11.0322157928
31
0.0000000000
0
SPLINE
5
497
100
AcDbEntity
8
0
100
AcDbSpline
62
7
6
CONTINUOUS
70
0
71
3
72
10
73
6
74
4
42
0.0000001000
43
0.0000001000
44
0.0000000001
40
0.0000000000
40
0.0000000000
40
0.0000000000
40
0.0000000000
40
0.3333333333
40
0.6666666667
40
1.0000000000
40
1.0000000000
40
1.0000000000
40
1.0000000000
10
12.4103681117
20
11.0444345171
30
0.0000000000
10
12.4101018109
20
11.0463002471
30
0.0000000000
10
12.4085690458
20
11.0498875787
30
0.0000000000
10
12.4038844507
20
11.0534012146
30
0.0000000000
10
12.4000118901
20
11.0538680959
30
0.0000000000
10
12.3981465036
20
11.0536012177
30
0.0000000000
11
12.4103681117
21
11.0444345171
31
0.0000000000
11
12.4081714713
21
11.0495763518
31
0.0000000000
11
12.4036970764
21
11.0529323290
31
0.0000000000
11
12.3981465036
21
11.0536012177
31
0.0000000000
0
SPLINE
5
498
100
AcDbEntity
8
0
100
AcDbSpline
62
7
6
CONTINUOUS
70
0
71
3
72
10
73
6
74
4
42
0.0000001000
43
0.0000001000
44
0.0000000001
40
0.0000000000
40
0.0000000000
40
0.0000000000
40
0.0000000000
40
0.3333333333
40
0.6666666667
40
1.0000000000
40
1.0000000000
40
1.0000000000
40
1.0000000000
10
12.5305282207
20
11.0607313619
30
0.0000000000
10
12.5302610069
20
11.0615312466
30
0.0000000000
10
12.5292986127
20
11.0629866989
30
0.0000000000
10
12.5269560998
20
11.0641561364
30
0.0000000000
10
12.5252146687
20
11.0640504974
30
0.0000000000
10
12.5244149264
20
11.0637832624
30
0.0000000000
11
12.5305282207
21
11.0607313619
31
0.0000000000
11
12.5291487924
21
11.0628177421
31
0.0000000000
11
12.5269111608
21
11.0639348204
31
0.0000000000
11
12.5244149264
21
11.0637832624
31
0.0000000000
0
SPLINE
5
499
100
AcDbEntity
8
0
100
AcDbSpline
62
7
6
CONTINUOUS
70
0
71
3
72
10
73
6
74
4
42
0.0000001000
43
0.0000001000
44
0.0000000001
40
0.0000000000
40
0.0000000000
40
0.0000000000
40
0.0000000000
40
0.3333333333
40
0.6666666667
40
1.0000000000
40
1.0000000000
40
1.0000000000
40
1.0000000000
10
12.8360212546
20
11.0597083808
30
0.0000000000
10
12.8364662703
20
11.0606863029
30
0.0000000000
10
12.8368314579
20
11.0628789368
30
0.0000000000
10
12.8356597885
20
11.0660020457
30
0.0000000000
10
12.8339423171
20
11.0674139522
30
0.0000000000
10
12.8329637524
20
11.0678582160
30
0.0000000000
11
12.8360212546
21
11.0597083808
31
0.0000000000
11
12.8365448828
21
11.0628512965
31
0.0000000000
11
12.8354256989
21
11.0658345042
31
0.0000000000
11
12.8329637524
21
11.0678582160
31
0.0000000000
0
LINE
5
49A
100
AcDbEntity
8
0
100
AcDbLine
62
7
6
CONTINUOUS
10
12.8380595317
20
11.0383303111
11
12.8227795317
21
11.0403603111
0
LINE
5
49B
100
AcDbEntity
8
0
100
AcDbLine
62
7
6
CONTINUOUS
10
12.8227795317
20
11.0403603111
11
12.8166795317
21
11.0424003111
0
LINE
5
49C
100
AcDbEntity
8
0
100
AcDbLine
62
7
6
CONTINUOUS
10
12.8166795317
20
11.0424003111
11
12.8095495317
21
11.0424003111
0
LINE
5
49D
100
AcDbEntity
8
0
100
AcDbLine
62
2
6
CONTINUOUS
10
12.4439695317
20
10.9782503111
11
12.4903095317
21
11.0210103111
0
LINE
5
49E
100
AcDbEntity
8
0
100
AcDbLine
62
2
6
CONTINUOUS
10
12.5663395317
20
10.9782503111
11
12.6126695317
21
11.0210103111
0
LINE
5
49F
100
AcDbEntity
8
0
100
AcDbLine
62
2
6
CONTINUOUS
10
12.6257395317
20
10.9782503111
11
12.6720695317
21
11.0210103111
0
LINE
5
4A0
100
AcDbEntity
8
0
100
AcDbLine
62
2
6
CONTINUOUS
10
12.6839595317
20
10.9782503111
11
12.7302895317
21
11.0210103111
0
LINE
5
4A1
100
AcDbEntity
8
0
100
AcDbLine
62
2
6
CONTINUOUS
10
12.7409795317
20
10.9782503111
11
12.7873095317
21
11.0210103111
0
LINE
5
4A2
100
AcDbEntity
8
0
100
AcDbLine
62
2
6
CONTINUOUS
10
12.8051295317
20
10.9782503111
11
12.8514646014
21
11.0210103111
0
LINE
5
4A3
100
AcDbEntity
8
0
100
AcDbLine
62
2
6
CONTINUOUS
10
12.9935706971
20
10.9324375407
11
13.0251014205
21
10.9615428239
0
LINE
5
4A4
100
AcDbEntity
8
0
100
AcDbLine
62
2
6
CONTINUOUS
10
13.0021095317
20
10.8675716861
11
13.0424995317
21
10.9048603111
0
LINE
5
4A5
100
AcDbEntity
8
0
100
AcDbLine
62
2
6
CONTINUOUS
10
13.0021095317
20
10.8055203111
11
13.0424995317
21
10.8428103111
0
LINE
5
4A6
100
AcDbEntity
8
0
100
AcDbLine
62
2
6
CONTINUOUS
10
13.0021095317
20
10.7354303111
11
13.0424995317
21
10.7727203111
0
LINE
5
4A7
100
AcDbEntity
8
0
100
AcDbLine
62
2
6
CONTINUOUS
10
13.0021095317
20
10.6653403111
11
13.0424995317
21
10.7026203111
0
LINE
5
4A8
100
AcDbEntity
8
0
100
AcDbLine
62
2
6
CONTINUOUS
10
13.0021095317
20
10.5893003111
11
13.0424995317
21
10.6265903111
0
LINE
5
4A9
100
AcDbEntity
8
0
100
AcDbLine
62
2
6
CONTINUOUS
10
13.0021095317
20
10.5239603111
11
13.0424995317
21
10.5612503111
0
LINE
5
4AA
100
AcDbEntity
8
0
100
AcDbLine
62
2
6
CONTINUOUS
10
13.0021095317
20
10.4574303111
11
13.0424995317
21
10.4947203111
0
LINE
5
4AB
100
AcDbEntity
8
0
100
AcDbLine
62
2
6
CONTINUOUS
10
13.0021095317
20
10.3802103111
11
13.0424995317
21
10.4175003111
0
LINE
5
4AC
100
AcDbEntity
8
0
100
AcDbLine
62
2
6
CONTINUOUS
10
13.0021095317
20
10.3113103111
11
13.0424995317
21
10.3485903111
0
LINE
5
4AD
100
AcDbEntity
8
0
100
AcDbLine
62
2
6
CONTINUOUS
10
13.0021095317
20
10.2412103111
11
13.0424995317
21
10.2784903111
0
LINE
5
4AE
100
AcDbEntity
8
0
100
AcDbLine
62
2
6
CONTINUOUS
10
13.0021095317
20
10.1829972342
11
13.0424995317
21
10.2202803111
0
LINE
5
4AF
100
AcDbEntity
8
0
100
AcDbLine
62
7
6
CONTINUOUS
10
12.1552795317
20
10.8333103111
11
12.2458095317
21
10.8333103111
0
LINE
5
4B0
100
AcDbEntity
8
0
100
AcDbLine
62
2
6
CONTINUOUS
10
11.9231695317
20
11.0862203111
11
12.0982595317
21
11.2433603111
0
LINE
5
4B1
100
AcDbEntity
8
0
100
AcDbLine
62
2
6
CONTINUOUS
10
12.8660095317
20
10.9782503111
11
12.9123446014
21
11.0210103111
0
LINE
5
4B2
100
AcDbEntity
8
0
100
AcDbLine
62
2
6
CONTINUOUS
10
12.9251653651
20
10.9782503111
11
12.9640723181
21
11.0141644216
0
ENDBLK
5
4B3
100
AcDbEntity
8
0
100
AcDbBlockEnd
0
ENDSEC
0
SECTION
2
ENTITIES
0
SOLID
5
4B4
100
AcDbEntity
8
0
100
AcDbTrace
62
2
6
CONTINUOUS
10
4.1169852895
20
18.5400883926
11
4.2547494562
21
18.7039095822
12
4.4468112682
22
18.7039095822
13
4.4468112682
23
18.7039095822
0
SOLID
5
4B5
100
AcDbEntity
8
0
100
AcDbTrace
62
2
6
CONTINUOUS
10
4.4468112682
20
18.7039095822
11
4.2335078164
21
18.4502613093
12
4.1169852895
22
18.5400883926
13
4.1169852895
23
18.5400883926
0
SOLID
5
4B6
100
AcDbEntity
8
0
100
AcDbTrace
62
2
6
CONTINUOUS
10
4.1169852895
20
18.3194957669
11
4.2335078164
21
18.4502613093
12
4.2707232295
22
18.1179959329
13
4.2707232295
23
18.1179959329
0
SOLID
5
4B7
100
AcDbEntity
8
0
100
AcDbTrace
62
2
6
CONTINUOUS
10
4.2335078164
20
18.4502613093
11
4.4870156511
21
18.1179959329
12
4.2707232295
22
18.1179959329
13
4.2707232295
23
18.1179959329
0
SOLID
5
4B8
100
AcDbEntity
8
0
100
AcDbTrace
62
2
6
CONTINUOUS
10
4.1169852895
20
18.1179959329
11
3.9424850625
21
18.1179719294
12
4.1169852895
22
18.3194957669
13
4.1169852895
23
18.3194957669
0
SOLID
5
4B9
100
AcDbEntity
8
0
100
AcDbTrace
62
2
6
CONTINUOUS
10
4.2335078164
20
18.4502613093
11
4.1169852895
21
18.3194957669
12
4.1169852895
22
18.5400883926
13
4.1169852895
23
18.5400883926
0
SOLID
5
4BA
100
AcDbEntity
8
0
100
AcDbTrace
62
2
6
CONTINUOUS
10
4.1169852895
20
18.3194957669
11
3.9424850625
21
18.1179719294
12
4.1169852895
22
18.5400883926
13
4.1169852895
23
18.5400883926
0
SOLID
5
4BB
100
AcDbEntity
8
0
100
AcDbTrace
62
2
6
CONTINUOUS
10
4.1169852895
20
18.5400883926
11
3.9424850625
21
18.1179719294
12
4.1169852895
22
18.7039095822
13
4.1169852895
23
18.7039095822
0
SOLID
5
4BC
100
AcDbEntity
8
0
100
AcDbTrace
62
2
6
CONTINUOUS
10
3.9424850625
20
18.1179719294
11
3.9424850625
21
18.7039095822
12
4.1169852895
22
18.7039095822
13
4.1169852895
23
18.7039095822
0
SOLID
5
4BD
100
AcDbEntity
8
0
100
AcDbTrace
62
2
6
CONTINUOUS
10
4.5714199358
20
18.6933001688
11
4.6323690903
21
18.7062553115
12
4.6946798851
22
18.7062553115
13
4.6946798851
23
18.7062553115
0
SOLID
5
4BE
100
AcDbEntity
8
0
100
AcDbTrace
62
2
6
CONTINUOUS
10
4.6946798851
20
18.7062553115
11
4.7556290396
21
18.6933001688
12
4.5714199358
22
18.6933001688
13
4.5714199358
23
18.6933001688
0
SOLID
5
4BF
100
AcDbEntity
8
0
100
AcDbTrace
62
2
6
CONTINUOUS
10
4.5144961922
20
18.6679560853
11
4.5714199358
21
18.6933001688
12
4.7556290396
22
18.6933001688
13
4.7556290396
23
18.6933001688
0
SOLID
5
4C0
100
AcDbEntity
8
0
100
AcDbTrace
62
2
6
CONTINUOUS
10
4.7556290396
20
18.6933001688
11
4.8125527832
21
18.6679560853
12
4.5144961922
22
18.6679560853
13
4.5144961922
23
18.6679560853
0
SOLID
5
4C1
100
AcDbEntity
8
0
100
AcDbTrace
62
2
6
CONTINUOUS
10
4.4640857003
20
18.6313307190
11
4.5144961922
21
18.6679560853
12
4.8125527832
22
18.6679560853
13
4.8125527832
23
18.6679560853
0
SOLID
5
4C2
100
AcDbEntity
8
0
100
AcDbTrace
62
2
6
CONTINUOUS
10
4.8125527832
20
18.6679560853
11
4.8629632752
21
18.6313307190
12
4.4640857003
22
18.6313307190
13
4.4640857003
23
18.6313307190
0
SOLID
5
4C3
100
AcDbEntity
8
0
100
AcDbTrace
62
2
6
CONTINUOUS
10
4.4223916403
20
18.5850247742
11
4.4640857003
21
18.6313307190
12
4.8629632752
22
18.6313307190
13
4.8629632752
23
18.6313307190
0
SOLID
5
4C4
100
AcDbEntity
8
0
100
AcDbTrace
62
2
6
CONTINUOUS
10
4.8629632752
20
18.6313307190
11
4.9046573351
21
18.5850247742
12
4.4223916403
22
18.5850247742
13
4.4223916403
23
18.5850247742
0
SOLID
5
4C5
100
AcDbEntity
8
0
100
AcDbTrace
62
2
6
CONTINUOUS
10
4.6635244877
20
18.5346009208
11
4.3912362429
21
18.5310620430
12
4.9046573351
22
18.5850247742
13
4.9046573351
23
18.5850247742
0
SOLID
5
4C6
100
AcDbEntity
8
0
100
AcDbTrace
62
2
6
CONTINUOUS
10
4.3912362429
20
18.5310620430
11
4.4223916403
21
18.5850247742
12
4.9046573351
22
18.5850247742
13
4.9046573351
23
18.5850247742
0
SOLID
5
4C7
100
AcDbEntity
8
0
100
AcDbTrace
62
2
6
CONTINUOUS
10
4.9046573351
20
18.5850247742
11
4.9358127325
21
18.5310620430
12
4.6635244877
22
18.5346009208
13
4.6635244877
23
18.5346009208
0
SOLID
5
4C8
100
AcDbEntity
8
0
100
AcDbTrace
62
2
6
CONTINUOUS
10
4.6635244877
20
18.5346009208
11
4.6249686181
21
18.5284942710
12
4.3912362429
22
18.5310620430
13
4.3912362429
23
18.5310620430
0
SOLID
5
4C9
100
AcDbEntity
8
0
100
AcDbTrace
62
2
6
CONTINUOUS
10
4.7020803574
20
18.5284942710
11
4.6635244877
21
18.5346009208
12
4.9358127325
22
18.5310620430
13
4.9358127325
23
18.5310620430
0
SOLID
5
4CA
100
AcDbEntity
8
0
100
AcDbTrace
62
2
6
CONTINUOUS
10
4.5625839105
20
18.4831691278
11
4.3719811484
21
18.4718009555
12
4.5901868656
22
18.5107720829
13
4.5901868656
23
18.5107720829
0
SOLID
5
4CB
100
AcDbEntity
8
0
100
AcDbTrace
62
2
6
CONTINUOUS
10
4.5901868656
20
18.5107720829
11
4.3719811484
21
18.4718009555
12
4.6249686181
22
18.5284942710
13
4.6249686181
23
18.5284942710
0
SOLID
5
4CC
100
AcDbEntity
8
0
100
AcDbTrace
62
2
6
CONTINUOUS
10
4.3719811484
20
18.4718009555
11
4.3912362429
21
18.5310620430
12
4.6249686181
22
18.5284942710
13
4.6249686181
23
18.5284942710
0
SOLID
5
4CD
100
AcDbEntity
8
0
100
AcDbTrace
62
2
6
CONTINUOUS
10
4.7020803574
20
18.5284942710
11
4.9358127325
21
18.5310620430
12
4.7368621098
22
18.5107720829
13
4.7368621098
23
18.5107720829
0
SOLID
5
4CE
100
AcDbEntity
8
0
100
AcDbTrace
62
2
6
CONTINUOUS
10
4.7368621098
20
18.5107720829
11
4.9358127325
21
18.5310620430
12
4.7644650649
22
18.4831691278
13
4.7644650649
23
18.4831691278
0
SOLID
5
4CF
100
AcDbEntity
8
0
100
AcDbTrace
62
2
6
CONTINUOUS
10
4.9358127325
20
18.5310620430
11
4.9550678271
21
18.4718009555
12
4.7644650649
22
18.4831691278
13
4.7644650649
23
18.4831691278
0
SOLID
5
4D0
100
AcDbEntity
8
0
100
AcDbTrace
62
2
6
CONTINUOUS
10
4.5625839105
20
18.4831691278
11
4.5448617225
21
18.4483873754
12
4.3719811484
22
18.4718009555
13
4.3719811484
23
18.4718009555
0
SOLID
5
4D1
100
AcDbEntity
8
0
100
AcDbTrace
62
2
6
CONTINUOUS
10
4.7821872530
20
18.4483873754
11
4.7644650649
21
18.4831691278
12
4.9550678271
22
18.4718009555
13
4.9550678271
23
18.4718009555
0
SOLID
5
4D2
100
AcDbEntity
8
0
100
AcDbTrace
62
2
6
CONTINUOUS
10
4.3654678967
20
18.4098315057
11
4.3719811484
21
18.4718009555
12
4.5448617225
22
18.4483873754
13
4.5448617225
23
18.4483873754
0
SOLID
5
4D3
100
AcDbEntity
8
0
100
AcDbTrace
62
2
6
CONTINUOUS
10
4.5448617225
20
18.4483873754
11
4.5387550726
21
18.4098315057
12
4.3654678967
22
18.4098315057
13
4.3654678967
23
18.4098315057
0
SOLID
5
4D4
100
AcDbEntity
8
0
100
AcDbTrace
62
2
6
CONTINUOUS
10
4.7821872530
20
18.4483873754
11
4.9550678271
21
18.4718009555
12
4.7882939028
22
18.4098315057
13
4.7882939028
23
18.4098315057
0
SOLID
5
4D5
100
AcDbEntity
8
0
100
AcDbTrace
62
2
6
CONTINUOUS
10
4.9550678271
20
18.4718009555
11
4.9615810787
21
18.4098315057
12
4.7882939028
22
18.4098315057
13
4.7882939028
23
18.4098315057
0
SOLID
5
4D6
100
AcDbEntity
8
0
100
AcDbTrace
62
2
6
CONTINUOUS
10
4.7821872530
20
18.3712756361
11
4.7882939028
21
18.4098315057
12
4.9615810787
22
18.4098315057
13
4.9615810787
23
18.4098315057
0
SOLID
5
4D7
100
AcDbEntity
8
0
100
AcDbTrace
62
2
6
CONTINUOUS
10
4.5448617225
20
18.3712756361
11
4.3719811484
21
18.3478620559
12
4.5387550726
22
18.4098315057
13
4.5387550726
23
18.4098315057
0
SOLID
5
4D8
100
AcDbEntity
8
0
100
AcDbTrace
62
2
6
CONTINUOUS
10
4.3719811484
20
18.3478620559
11
4.3654678967
21
18.4098315057
12
4.5387550726
22
18.4098315057
13
4.5387550726
23
18.4098315057
0
SOLID
5
4D9
100
AcDbEntity
8
0
100
AcDbTrace
62
2
6
CONTINUOUS
10
4.9615810787
20
18.4098315057
11
4.9550678271
21
18.3478620559
12
4.7821872530
22
18.3712756361
13
4.7821872530
23
18.3712756361
0
SOLID
5
4DA
100
AcDbEntity
8
0
100
AcDbTrace
62
2
6
CONTINUOUS
10
4.5448617225
20
18.3712756361
11
4.5625839105
21
18.3364938836
12
4.3719811484
22
18.3478620559
13
4.3719811484
23
18.3478620559
0
SOLID
5
4DB
100
AcDbEntity
8
0
100
AcDbTrace
62
2
6
CONTINUOUS
10
4.7644650649
20
18.3364938836
11
4.7821872530
21
18.3712756361
12
4.9550678271
22
18.3478620559
13
4.9550678271
23
18.3478620559
0
SOLID
5
4DC
100
AcDbEntity
8
0
100
AcDbTrace
62
2
6
CONTINUOUS
10
4.6249686181
20
18.2911687405
11
4.3912362429
21
18.2886009684
12
4.5901868656
22
18.3088909285
13
4.5901868656
23
18.3088909285
0
SOLID
5
4DD
100
AcDbEntity
8
0
100
AcDbTrace
62
2
6
CONTINUOUS
10
4.5901868656
20
18.3088909285
11
4.3912362429
21
18.2886009684
12
4.5625839105
22
18.3364938836
13
4.5625839105
23
18.3364938836
0
SOLID
5
4DE
100
AcDbEntity
8
0
100
AcDbTrace
62
2
6
CONTINUOUS
10
4.3912362429
20
18.2886009684
11
4.3719811484
21
18.3478620559
12
4.5625839105
22
18.3364938836
13
4.5625839105
23
18.3364938836
0
SOLID
5
4DF
100
AcDbEntity
8
0
100
AcDbTrace
62
2
6
CONTINUOUS
10
4.7644650649
20
18.3364938836
11
4.9550678271
21
18.3478620559
12
4.7368621098
22
18.3088909285
13
4.7368621098
23
18.3088909285
0
SOLID
5
4E0
100
AcDbEntity
8
0
100
AcDbTrace
62
2
6
CONTINUOUS
10
4.7368621098
20
18.3088909285
11
4.9550678271
21
18.3478620559
12
4.7020803574
22
18.2911687405
13
4.7020803574
23
18.2911687405
0
SOLID
5
4E1
100
AcDbEntity
8
0
100
AcDbTrace
62
2
6
CONTINUOUS
10
4.9550678271
20
18.3478620559
11
4.9358127325
21
18.2886009684
12
4.7020803574
22
18.2911687405
13
4.7020803574
23
18.2911687405
0
SOLID
5
4E2
100
AcDbEntity
8
0
100
AcDbTrace
62
2
6
CONTINUOUS
10
4.6249686181
20
18.2911687405
11
4.6635244877
21
18.2850620906
12
4.3912362429
22
18.2886009684
13
4.3912362429
23
18.2886009684
0
SOLID
5
4E3
100
AcDbEntity
8
0
100
AcDbTrace
62
2
6
CONTINUOUS
10
4.6635244877
20
18.2850620906
11
4.7020803574
21
18.2911687405
12
4.9358127325
22
18.2886009684
13
4.9358127325
23
18.2886009684
0
SOLID
5
4E4
100
AcDbEntity
8
0
100
AcDbTrace
62
2
6
CONTINUOUS
10
4.4223916403
20
18.2346382372
11
4.3912362429
21
18.2886009684
12
4.6635244877
22
18.2850620906
13
4.6635244877
23
18.2850620906
0
SOLID
5
4E5
100
AcDbEntity
8
0
100
AcDbTrace
62
2
6
CONTINUOUS
10
4.6635244877
20
18.2850620906
11
4.9358127325
21
18.2886009684
12
4.4223916403
22
18.2346382372
13
4.4223916403
23
18.2346382372
0
SOLID
5
4E6
100
AcDbEntity
8
0
100
AcDbTrace
62
2
6
CONTINUOUS
10
4.9358127325
20
18.2886009684
11
4.9046573351
21
18.2346382372
12
4.4223916403
22
18.2346382372
13
4.4223916403
23
18.2346382372
0
SOLID
5
4E7
100
AcDbEntity
8
0
100
AcDbTrace
62
2
6
CONTINUOUS
10
4.4640857003
20
18.1883322924
11
4.4223916403
21
18.2346382372
12
4.9046573351
22
18.2346382372
13
4.9046573351
23
18.2346382372
0
SOLID
5
4E8
100
AcDbEntity
8
0
100
AcDbTrace
62
2
6
CONTINUOUS
10
4.9046573351
20
18.2346382372
11
4.8629632752
21
18.1883322924
12
4.4640857003
22
18.1883322924
13
4.4640857003
23
18.1883322924
0
SOLID
5
4E9
100
AcDbEntity
8
0
100
AcDbTrace
62
2
6
CONTINUOUS
10
4.5144961922
20
18.1517069262
11
4.4640857003
21
18.1883322924
12
4.8629632752
22
18.1883322924
13
4.8629632752
23
18.1883322924
0
SOLID
5
4EA
100
AcDbEntity
8
0
100
AcDbTrace
62
2
6
CONTINUOUS
10
4.8629632752
20
18.1883322924
11
4.8125527832
21
18.1517069262
12
4.5144961922
22
18.1517069262
13
4.5144961922
23
18.1517069262
0
SOLID
5
4EB
100
AcDbEntity
8
0
100
AcDbTrace
62
2
6
CONTINUOUS
10
4.5714199358
20
18.1263628426
11
4.5144961922
21
18.1517069262
12
4.8125527832
22
18.1517069262
13
4.8125527832
23
18.1517069262
0
SOLID
5
4EC
100
AcDbEntity
8
0
100
AcDbTrace
62
2
6
CONTINUOUS
10
4.8125527832
20
18.1517069262
11
4.7556290396
21
18.1263628426
12
4.5714199358
22
18.1263628426
13
4.5714199358
23
18.1263628426
0
SOLID
5
4ED
100
AcDbEntity
8
0
100
AcDbTrace
62
2
6
CONTINUOUS
10
4.6323690903
20
18.1134076999
11
4.5714199358
21
18.1263628426
12
4.7556290396
22
18.1263628426
13
4.7556290396
23
18.1263628426
0
SOLID
5
4EE
100
AcDbEntity
8
0
100
AcDbTrace
62
2
6
CONTINUOUS
10
4.7556290396
20
18.1263628426
11
4.6946798851
21
18.1134076999
12
4.6323690903
22
18.1134076999
13
4.6323690903
23
18.1134076999
0
SOLID
5
4EF
100
AcDbEntity
8
0
100
AcDbTrace
62
2
6
CONTINUOUS
10
5.2914268171
20
18.4835258226
11
5.2914268171
21
18.7039095822
12
5.4561604969
22
18.7039095822
13
5.4561604969
23
18.7039095822
0
SOLID
5
4F0
100
AcDbEntity
8
0
100
AcDbTrace
62
2
6
CONTINUOUS
10
5.2914268171
20
18.4835258226
11
5.1434300060
21
18.3463205427
12
5.1434300060
22
18.4835258226
13
5.1434300060
23
18.4835258226
0
SOLID
5
4F1
100
AcDbEntity
8
0
100
AcDbTrace
62
2
6
CONTINUOUS
10
5.1434300060
20
18.3463205427
11
4.9786963261
21
18.1179959329
12
5.1434300060
22
18.4835258226
13
5.1434300060
23
18.4835258226
0
SOLID
5
4F2
100
AcDbEntity
8
0
100
AcDbTrace
62
2
6
CONTINUOUS
10
5.1434300060
20
18.4835258226
11
4.9786963261
21
18.1179959329
12
5.1434300060
22
18.7039095822
13
5.1434300060
23
18.7039095822
0
SOLID
5
4F3
100
AcDbEntity
8
0
100
AcDbTrace
62
2
6
CONTINUOUS
10
4.9786963261
20
18.1179959329
11
4.9786963261
21
18.7039095822
12
5.1434300060
22
18.7039095822
13
5.1434300060
23
18.7039095822
0
SOLID
5
4F4
100
AcDbEntity
8
0
100
AcDbTrace
62
2
6
CONTINUOUS
10
5.1434300060
20
18.3463205427
11
5.1434300060
21
18.1179959329
12
4.9786963261
22
18.1179959329
13
4.9786963261
23
18.1179959329
0
SOLID
5
4F5
100
AcDbEntity
8
0
100
AcDbTrace
62
2
6
CONTINUOUS
10
5.1434300060
20
18.3463205427
11
5.2914268171
21
18.4835258226
12
5.2914268171
22
18.3463205427
13
5.2914268171
23
18.3463205427
0
SOLID
5
4F6
100
AcDbEntity
8
0
100
AcDbTrace
62
2
6
CONTINUOUS
10
5.2914268171
20
18.4835258226
11
5.4561604969
21
18.7039095822
12
5.2914268171
22
18.3463205427
13
5.2914268171
23
18.3463205427
0
SOLID
5
4F7
100
AcDbEntity
8
0
100
AcDbTrace
62
2
6
CONTINUOUS
10
5.2914268171
20
18.3463205427
11
5.4561604969
21
18.7039095822
12
5.2914268171
22
18.1179959329
13
5.2914268171
23
18.1179959329
0
SOLID
5
4F8
100
AcDbEntity
8
0
100
AcDbTrace
62
2
6
CONTINUOUS
10
5.4561604969
20
18.7039095822
11
5.4561604969
21
18.1179959329
12
5.2914268171
22
18.1179959329
13
5.2914268171
23
18.1179959329
0
SOLID
5
4F9
100
AcDbEntity
8
0
100
AcDbTrace
62
2
6
CONTINUOUS
10
5.8139354738
20
18.2592226900
11
5.5012053411
21
18.1179959329
12
5.6512514039
22
18.2592226900
13
5.6512514039
23
18.2592226900
0
SOLID
5
4FA
100
AcDbEntity
8
0
100
AcDbTrace
62
2
6
CONTINUOUS
10
5.6512514039
20
18.2592226900
11
5.5012053411
21
18.1179959329
12
5.6512514039
22
18.7039095822
13
5.6512514039
23
18.7039095822
0
SOLID
5
4FB
100
AcDbEntity
8
0
100
AcDbTrace
62
2
6
CONTINUOUS
10
5.5012053411
20
18.1179959329
11
5.5012053411
21
18.7039095822
12
5.6512514039
22
18.7039095822
13
5.6512514039
23
18.7039095822
0
SOLID
5
4FC
100
AcDbEntity
8
0
100
AcDbTrace
62
2
6
CONTINUOUS
10
5.5012053411
20
18.1179959329
11
5.8139354738
21
18.2592226900
12
5.6512514039
22
18.1179959329
13
5.6512514039
23
18.1179959329
0
SOLID
5
4FD
100
AcDbEntity
8
0
100
AcDbTrace
62
2
6
CONTINUOUS
10
5.8139354738
20
18.2592226900
11
5.8139354738
21
18.1179959329
12
5.6512514039
22
18.1179959329
13
5.6512514039
23
18.1179959329
0
SOLID
5
4FE
100
AcDbEntity
8
0
100
AcDbTrace
62
2
6
CONTINUOUS
10
6.1521873879
20
18.7039095822
11
6.1521873879
21
18.5611501855
12
6.0013298645
22
18.5611501855
13
6.0013298645
23
18.5611501855
0
SOLID
5
4FF
100
AcDbEntity
8
0
100
AcDbTrace
62
2
6
CONTINUOUS
10
6.1521873879
20
18.4835258226
11
6.1521873879
21
18.3391442210
12
6.0013298645
22
18.3391442210
13
6.0013298645
23
18.3391442210
0
SOLID
5
500
100
AcDbEntity
8
0
100
AcDbTrace
62
2
6
CONTINUOUS
10
6.1521873879
20
18.2592226900
11
5.8430832125
21
18.1179959329
12
6.0013298645
22
18.2592226900
13
6.0013298645
23
18.2592226900
0
SOLID
5
501
100
AcDbEntity
8
0
100
AcDbTrace
62
2
6
CONTINUOUS
10
6.0013298645
20
18.2592226900
11
5.8430832125
21
18.1179959329
12
6.0013298645
22
18.3391442210
13
6.0013298645
23
18.3391442210
0
SOLID
5
502
100
AcDbEntity
8
0
100
AcDbTrace
62
2
6
CONTINUOUS
10
6.1521873879
20
18.4835258226
11
6.0013298645
21
18.3391442210
12
6.0013298645
22
18.4835258226
13
6.0013298645
23
18.4835258226
0
SOLID
5
503
100
AcDbEntity
8
0
100
AcDbTrace
62
2
6
CONTINUOUS
10
6.0013298645
20
18.3391442210
11
5.8430832125
21
18.1179959329
12
6.0013298645
22
18.4835258226
13
6.0013298645
23
18.4835258226
0
SOLID
5
504
100
AcDbEntity
8
0
100
AcDbTrace
62
2
6
CONTINUOUS
10
6.0013298645
20
18.4835258226
11
5.8430832125
21
18.1179959329
12
6.0013298645
22
18.5611501855
13
6.0013298645
23
18.5611501855
0
SOLID
5
505
100
AcDbEntity
8
0
100
AcDbTrace
62
2
6
CONTINUOUS
10
6.1521873879
20
18.7039095822
11
6.0013298645
21
18.5611501855
12
6.0155341878
22
18.7039095822
13
6.0155341878
23
18.7039095822
0
SOLID
5
506
100
AcDbEntity
8
0
100
AcDbTrace
62
2
6
CONTINUOUS
10
6.0013298645
20
18.5611501855
11
5.8430832125
21
18.1179959329
12
6.0155341878
22
18.7039095822
13
6.0155341878
23
18.7039095822
0
SOLID
5
507
100
AcDbEntity
8
0
100
AcDbTrace
62
2
6
CONTINUOUS
10
5.8430832125
20
18.1179959329
11
5.8430832125
21
18.7039095822
12
6.0155341878
22
18.7039095822
13
6.0155341878
23
18.7039095822
0
SOLID
5
508
100
AcDbEntity
8
0
100
AcDbTrace
62
2
6
CONTINUOUS
10
6.1521873879
20
18.2592226900
11
6.1521873879
21
18.1179959329
12
5.8430832125
22
18.1179959329
13
5.8430832125
23
18.1179959329
0
SOLID
5
509
100
AcDbEntity
8
0
100
AcDbTrace
62
2
6
CONTINUOUS
10
6.4305553032
20
18.7039166879
11
6.4774883267
21
18.6975064394
12
6.1970076026
22
18.7039095822
13
6.1970076026
23
18.7039095822
0
SOLID
5
50A
100
AcDbEntity
8
0
100
AcDbTrace
62
2
6
CONTINUOUS
10
6.3476634251
20
18.5613307489
11
6.6016031662
21
18.5659600844
12
6.4035933066
22
18.5613307489
13
6.4035933066
23
18.5613307489
0
SOLID
5
50B
100
AcDbEntity
8
0
100
AcDbTrace
62
2
6
CONTINUOUS
10
6.4035933066
20
18.5613307489
11
6.6016031662
21
18.5659600844
12
6.4273158882
22
18.5557965806
13
6.4273158882
23
18.5557965806
0
SOLID
5
50C
100
AcDbEntity
8
0
100
AcDbTrace
62
2
6
CONTINUOUS
10
6.4273158882
20
18.5557965806
11
6.6016031662
21
18.5659600844
12
6.4461408758
22
18.5403367055
13
6.4461408758
23
18.5403367055
0
SOLID
5
50D
100
AcDbEntity
8
0
100
AcDbTrace
62
2
6
CONTINUOUS
10
6.6016031662
20
18.5659600844
11
6.6052764126
21
18.5187339556
12
6.4461408758
22
18.5403367055
13
6.4461408758
23
18.5403367055
0
SOLID
5
50E
100
AcDbEntity
8
0
100
AcDbTrace
62
2
6
CONTINUOUS
10
6.4561818144
20
18.5181428449
11
6.4461408758
21
18.5403367055
12
6.6052764126
22
18.5187339556
13
6.6052764126
23
18.5187339556
0
SOLID
5
50F
100
AcDbEntity
8
0
100
AcDbTrace
62
2
6
CONTINUOUS
10
6.4561818144
20
18.5181428449
11
6.6052764126
21
18.5187339556
12
6.4553657327
22
18.4937969642
13
6.4553657327
23
18.4937969642
0
SOLID
5
510
100
AcDbEntity
8
0
100
AcDbTrace
62
2
6
CONTINUOUS
10
6.4553657327
20
18.4937969642
11
6.6052764126
21
18.5187339556
12
6.4438611124
22
18.4723253176
13
6.4438611124
23
18.4723253176
0
SOLID
5
511
100
AcDbEntity
8
0
100
AcDbTrace
62
2
6
CONTINUOUS
10
6.6052764126
20
18.5187339556
11
6.5961508090
21
18.4722525256
12
6.4438611124
22
18.4723253176
13
6.4438611124
23
18.4723253176
0
SOLID
5
512
100
AcDbEntity
8
0
100
AcDbTrace
62
2
6
CONTINUOUS
10
6.4240431046
20
18.4581607681
11
6.4438611124
21
18.4723253176
12
6.5961508090
22
18.4722525256
13
6.5961508090
23
18.4722525256
0
SOLID
5
513
100
AcDbEntity
8
0
100
AcDbTrace
62
2
6
CONTINUOUS
10
6.4240431046
20
18.4581607681
11
6.5961508090
21
18.4722525256
12
6.4000031753
22
18.4542276144
13
6.4000031753
23
18.4542276144
0
SOLID
5
514
100
AcDbEntity
8
0
100
AcDbTrace
62
2
6
CONTINUOUS
10
6.5961508090
20
18.4722525256
11
6.5748948333
21
18.4299206997
12
6.4000031753
22
18.4542276144
13
6.4000031753
23
18.4542276144
0
SOLID
5
515
100
AcDbEntity
8
0
100
AcDbTrace
62
2
6
CONTINUOUS
10
6.5029945509
20
18.3695784742
11
6.3476634251
21
18.3149523037
12
6.5430655501
22
18.3948394124
13
6.5430655501
23
18.3948394124
0
SOLID
5
516
100
AcDbEntity
8
0
100
AcDbTrace
62
2
6
CONTINUOUS
10
6.5430655501
20
18.3948394124
11
6.3476634251
21
18.3149523037
12
6.5748948333
22
18.4299206997
13
6.5748948333
23
18.4299206997
0
SOLID
5
517
100
AcDbEntity
8
0
100
AcDbTrace
62
2
6
CONTINUOUS
10
6.5748948333
20
18.4299206997
11
6.3476634251
21
18.3149523037
12
6.4000031753
22
18.4542276144
13
6.4000031753
23
18.4542276144
0
SOLID
5
518
100
AcDbEntity
8
0
100
AcDbTrace
62
2
6
CONTINUOUS
10
6.3476634251
20
18.3149523037
11
6.1970076026
21
18.1179959329
12
6.4000031753
22
18.4542276144
13
6.4000031753
23
18.4542276144
0
SOLID
5
519
100
AcDbEntity
8
0
100
AcDbTrace
62
2
6
CONTINUOUS
10
6.4000031753
20
18.4542276144
11
6.1970076026
21
18.1179959329
12
6.3476634251
22
18.4542276144
13
6.3476634251
23
18.4542276144
0
SOLID
5
51A
100
AcDbEntity
8
0
100
AcDbTrace
62
2
6
CONTINUOUS
10
6.3476634251
20
18.4542276144
11
6.1970076026
21
18.1179959329
12
6.3476634251
22
18.5613307489
13
6.3476634251
23
18.5613307489
0
SOLID
5
51B
100
AcDbEntity
8
0
100
AcDbTrace
62
2
6
CONTINUOUS
10
6.6016031662
20
18.5659600844
11
6.3476634251
21
18.5613307489
12
6.5854001461
22
18.6104714551
13
6.5854001461
23
18.6104714551
0
SOLID
5
51C
100
AcDbEntity
8
0
100
AcDbTrace
62
2
6
CONTINUOUS
10
6.5854001461
20
18.6104714551
11
6.3476634251
21
18.5613307489
12
6.5578542726
22
18.6490074751
13
6.5578542726
23
18.6490074751
0
SOLID
5
51D
100
AcDbEntity
8
0
100
AcDbTrace
62
2
6
CONTINUOUS
10
6.5578542726
20
18.6490074751
11
6.3476634251
21
18.5613307489
12
6.5209833642
22
18.6787452642
13
6.5209833642
23
18.6787452642
0
SOLID
5
51E
100
AcDbEntity
8
0
100
AcDbTrace
62
2
6
CONTINUOUS
10
6.5209833642
20
18.6787452642
11
6.3476634251
21
18.5613307489
12
6.4774883267
22
18.6975064394
13
6.4774883267
23
18.6975064394
0
SOLID
5
51F
100
AcDbEntity
8
0
100
AcDbTrace
62
2
6
CONTINUOUS
10
6.4774883267
20
18.6975064394
11
6.3476634251
21
18.5613307489
12
6.1970076026
22
18.7039095822
13
6.1970076026
23
18.7039095822
0
SOLID
5
520
100
AcDbEntity
8
0
100
AcDbTrace
62
2
6
CONTINUOUS
10
6.1970076026
20
18.1179959329
11
6.1970076026
21
18.7039095822
12
6.3476634251
22
18.5613307489
13
6.3476634251
23
18.5613307489
0
SOLID
5
521
100
AcDbEntity
8
0
100
AcDbTrace
62
2
6
CONTINUOUS
10
6.3476634251
20
18.3149523037
11
6.3476634251
21
18.1179959329
12
6.1970076026
22
18.1179959329
13
6.1970076026
23
18.1179959329
0
SOLID
5
522
100
AcDbEntity
8
0
100
AcDbTrace
62
2
6
CONTINUOUS
10
6.3476634251
20
18.3149523037
11
6.5029945509
21
18.3695784742
12
6.4724868543
22
18.1179959329
13
6.4724868543
23
18.1179959329
0
SOLID
5
523
100
AcDbEntity
8
0
100
AcDbTrace
62
2
6
CONTINUOUS
10
6.5029945509
20
18.3695784742
11
6.6624377938
21
18.1179959329
12
6.4724868543
22
18.1179959329
13
6.4724868543
23
18.1179959329
0
SOLID
5
524
100
AcDbEntity
8
0
100
AcDbTrace
62
7
6
CONTINUOUS
10
13.2312445486
20
17.7915876864
11
13.2312445486
21
17.9132226864
12
13.5741970446
22
17.9132226864
13
13.5741970446
23
17.9132226864
0
SOLID
5
525
100
AcDbEntity
8
0
100
AcDbTrace
62
7
6
CONTINUOUS
10
13.5741970446
20
17.9132226864
11
13.5741970446
21
17.7915876864
12
13.2312445486
22
17.7915876864
13
13.2312445486
23
17.7915876864
0
SOLID
5
526
100
AcDbEntity
8
0
100
AcDbTrace
62
7
6
CONTINUOUS
10
11.6430370671
20
17.7915876864
11
11.6430370671
21
17.9132226864
12
12.4987420571
22
17.9132226864
13
12.4987420571
23
17.9132226864
0
SOLID
5
527
100
AcDbEntity
8
0
100
AcDbTrace
62
7
6
CONTINUOUS
10
12.4987420571
20
17.9132226864
11
12.4987420571
21
17.7915876864
12
11.6430370671
22
17.7915876864
13
11.6430370671
23
17.7915876864
0
SOLID
5
528
100
AcDbEntity
8
0
100
AcDbTrace
62
7
6
CONTINUOUS
10
11.6430370671
20
17.5049752004
11
11.6430370671
21
17.5399551824
12
12.4987420571
22
17.5399551824
13
12.4987420571
23
17.5399551824
0
SOLID
5
529
100
AcDbEntity
8
0
100
AcDbTrace
62
7
6
CONTINUOUS
10
12.4987420571
20
17.5399551824
11
12.4987420571
21
17.5049752004
12
11.6430370671
22
17.5049752004
13
11.6430370671
23
17.5049752004
0
SOLID
5
52A
100
AcDbEntity
8
0
100
AcDbTrace
62
7
6
CONTINUOUS
10
11.6896870666
20
18.3848076844
11
11.6896870666
21
18.4464576744
12
12.5453920566
22
18.4464576744
13
12.5453920566
23
18.4464576744
0
SOLID
5
52B
100
AcDbEntity
8
0
100
AcDbTrace
62
7
6
CONTINUOUS
10
12.5453920566
20
18.4464576744
11
12.5453920566
21
18.3848076844
12
11.6896870666
22
18.3848076844
13
11.6896870666
23
18.3848076844
0
SOLID
5
52C
100
AcDbEntity
8
0
100
AcDbTrace
62
7
6
CONTINUOUS
10
11.6896870666
20
18.2848251764
11
11.6896870666
21
18.3464752004
12
12.5453920566
22
18.3464752004
13
12.5453920566
23
18.3464752004
0
SOLID
5
52D
100
AcDbEntity
8
0
100
AcDbTrace
62
7
6
CONTINUOUS
10
12.5453920566
20
18.3464752004
11
12.5453920566
21
18.2848251764
12
11.6896870666
22
18.2848251764
13
11.6896870666
23
18.2848251764
0
SOLID
5
52E
100
AcDbEntity
8
0
100
AcDbTrace
62
7
6
CONTINUOUS
10
11.6896870666
20
18.1848501824
11
11.6896870666
21
18.2464926924
12
12.5453920566
22
18.2464926924
13
12.5453920566
23
18.2464926924
0
SOLID
5
52F
100
AcDbEntity
8
0
100
AcDbTrace
62
7
6
CONTINUOUS
10
12.5453920566
20
18.2464926924
11
12.5453920566
21
18.1848501824
12
11.6896870666
22
18.1848501824
13
11.6896870666
23
18.1848501824
0
SOLID
5
530
100
AcDbEntity
8
0
100
AcDbTrace
62
7
6
CONTINUOUS
10
11.6896870666
20
18.0848677084
11
11.6896870666
21
18.1465101844
12
12.5453920566
22
18.1465101844
13
12.5453920566
23
18.1465101844
0
SOLID
5
531
100
AcDbEntity
8
0
100
AcDbTrace
62
7
6
CONTINUOUS
10
12.5453920566
20
18.1465101844
11
12.5453920566
21
18.0848677084
12
11.6896870666
22
18.0848677084
13
11.6896870666
23
18.0848677084
0
SOLID
5
532
100
AcDbEntity
8
0
100
AcDbTrace
62
7
6
CONTINUOUS
10
11.6896870666
20
17.9582227064
11
11.6896870666
21
18.0198726964
12
12.5453920566
22
18.0198726964
13
12.5453920566
23
18.0198726964
0
SOLID
5
533
100
AcDbEntity
8
0
100
AcDbTrace
62
7
6
CONTINUOUS
10
12.5453920566
20
18.0198726964
11
12.5453920566
21
17.9582227064
12
11.6896870666
22
17.9582227064
13
11.6896870666
23
17.9582227064
0
DIMENSION
5
534
100
AcDbEntity
8
0
100
AcDbDimension
62
2
6
CONTINUOUS
2
*D0
10
17.1779689127
20
12.6722481884
11
8.1042639962
21
12.5550606884
70
160
3
DIMSTYLE_1
100
AcDbAlignedDimension
13
2.9667380946
23
12.7972481884
14
17.1779689127
24
12.7972481884
100
AcDbRotatedDimension
0
DIMENSION
5
535
100
AcDbEntity
8
0
100
AcDbDimension
62
2
6
CONTINUOUS
2
*D1
10
17.9279689127
20
13.4061513021
11
7.1776725003
21
13.2889638021
70
160
3
DIMSTYLE_1
100
AcDbAlignedDimension
13
2.2167380946
23
13.0774892264
14
17.9279689127
24
13.0774892264
100
AcDbRotatedDimension
0
DIMENSION
5
536
100
AcDbEntity
8
0
100
AcDbDimension
62
2
6
CONTINUOUS
2
*D2
10
9.3300411620
20
3.2769979590
11
9.3300411685
21
11.5969841520
70
160
3
DIMSTYLE_1
100
AcDbAlignedDimension
13
10.7560179184
23
21.7382287764
14
10.6468826470
24
3.2769979590
50
270.000000
100
AcDbRotatedDimension
0
DIMENSION
5
537
100
AcDbEntity
8
0
100
AcDbDimension
62
2
6
CONTINUOUS
2
*D3
10
10.0901109720
20
2.5269979590
11
10.0901109795
21
10.3898144537
70
160
3
DIMSTYLE_1
100
AcDbAlignedDimension
13
11.5199648178
23
22.4882287764
14
11.3890024922
24
2.5269979590
50
270.000000
100
AcDbRotatedDimension
0
TEXT
5
538
100
AcDbEntity
8
0
100
AcDbText
62
2
6
CONTINUOUS
10
5.9328476276
20
1.8797099839
7
TEXTSTYLE_0
40
0.0705000000
1
1016734-7-A
72
5
11
6.5532476276
21
1.8797099839
100
AcDbText
0
TEXT
5
539
100
AcDbEntity
8
0
100
AcDbText
62
2
6
CONTINUOUS
10
5.9238664905
20
3.3027364856
7
TEXTSTYLE_0
40
0.0705000000
1
1016734-7-A
72
5
11
6.5442664905
21
3.3027364856
100
AcDbText
0
TEXT
5
53A
100
AcDbEntity
8
0
100
AcDbText
62
2
6
CONTINUOUS
10
11.9376376772
20
3.4564763889
7
TEXTSTYLE_0
40
0.0705000000
1
2002 KOHLER CO.
72
5
11
12.7836376772
21
3.4564763889
100
AcDbText
0
TEXT
5
53B
100
AcDbEntity
8
0
100
AcDbText
62
7
6
CONTINUOUS
10
11.8576119282
20
3.4729613891
7
TEXTSTYLE_0
40
0.0421874995
1
C
72
5
11
11.8997994277
21
3.4729613891
100
AcDbText
0
TEXT
5
53C
100
AcDbEntity
8
0
100
AcDbText
62
7
6
CONTINUOUS
10
11.7905770654
20
17.6374476973
7
TEXTSTYLE_0
40
0.0593587493
1
XXXXX-XX-X-XX
72
5
11
12.4278903079
21
17.6374476973
100
AcDbText
0
TEXT
5
53D
100
AcDbEntity
8
0
100
AcDbText
62
7
6
CONTINUOUS
10
13.4245570463
20
17.5082826988
7
TEXTSTYLE_0
40
0.0445192495
1
xxxxxx-xx
72
5
11
13.6946192931
21
17.5082826988
100
AcDbText
0
TEXT
5
53E
100
AcDbEntity
8
0
100
AcDbText
62
2
6
CONTINUOUS
10
3.4629323540
20
10.5505584563
7
TEXTSTYLE_1
40
0.1559999413
1
WHEN PLOTTING TEMPLATE FULL SIZE:
72
5
11
8.6109304155
21
10.5505584563
100
AcDbText
0
TEXT
5
53F
100
AcDbEntity
8
0
100
AcDbText
62
2
6
CONTINUOUS
10
3.4629323540
20
10.3162460445
7
TEXTSTYLE_1
40
0.1562499412
1
Make sure horizontal and vertical
72
5
11
8.1035556066
21
10.3162460445
100
AcDbText
0
TEXT
5
540
100
AcDbEntity
8
0
100
AcDbText
62
2
6
CONTINUOUS
10
3.4629323540
20
10.0818710592
7
TEXTSTYLE_0
40
0.1562500000
1
dimensions match the dimensions labeled on
72
5
11
8.7129323540
21
10.0818710592
100
AcDbText
0
TEXT
5
541
100
AcDbEntity
8
0
100
AcDbText
62
2
6
CONTINUOUS
10
3.4629323540
20
9.8474960592
7
TEXTSTYLE_0
40
0.1562500000
1
the template.
72
5
11
5.0879323540
21
9.8474960592
100
AcDbText
0
TEXT
5
542
100
AcDbEntity
8
0
100
AcDbText
62
2
6
CONTINUOUS
10
3.4629323540
20
9.6131210592
7
TEXTSTYLE_0
40
0.1562500000
1
 
72
5
11
3.5879323540
21
9.6131210592
100
AcDbText
0
TEXT
5
543
100
AcDbEntity
8
0
100
AcDbText
62
2
6
CONTINUOUS
10
3.4629323540
20
9.3787461328
7
TEXTSTYLE_1
40
0.1562499412
1
Al trazar una plantilla a escala,
72
5
11
8.1035556066
21
9.3787461328
100
AcDbText
0
TEXT
5
544
100
AcDbEntity
8
0
100
AcDbText
62
2
6
CONTINUOUS
10
3.4629323540
20
9.1443711475
7
TEXTSTYLE_0
40
0.1562500000
1
asegúrese de que las dimensiones
72
5
11
7.4629323540
21
9.1443711475
100
AcDbText
0
TEXT
5
545
100
AcDbEntity
8
0
100
AcDbText
62
2
6
CONTINUOUS
10
3.4629323540
20
8.9099961475
7
TEXTSTYLE_0
40
0.1562500000
1
horizontales y verticales concuerden con
72
5
11
8.4629323540
21
8.9099961475
100
AcDbText
0
TEXT
5
546
100
AcDbEntity
8
0
100
AcDbText
62
2
6
CONTINUOUS
10
3.4629323540
20
8.6756211475
7
TEXTSTYLE_0
40
0.1562500000
1
las dimensiones marcadas en la plantilla.
72
5
11
8.5879323540
21
8.6756211475
100
AcDbText
0
TEXT
5
547
100
AcDbEntity
8
0
100
AcDbText
62
2
6
CONTINUOUS
10
3.4629323540
20
8.4412461475
7
TEXTSTYLE_0
40
0.1562500000
1
 
72
5
11
3.5879323540
21
8.4412461475
100
AcDbText
0
TEXT
5
548
100
AcDbEntity
8
0
100
AcDbText
62
2
6
CONTINUOUS
10
3.4629323540
20
8.2068711475
7
TEXTSTYLE_0
40
0.1562500000
1
Au moment de tracer un gabarit à l’échelle
72
5
11
8.7129323540
21
8.2068711475
100
AcDbText
0
TEXT
5
549
100
AcDbEntity
8
0
100
AcDbText
62
2
6
CONTINUOUS
10
3.4629323540
20
7.9724961475
7
TEXTSTYLE_0
40
0.1562500000
1
s'assurer que les dimensions horizontales
72
5
11
8.5879323540
21
7.9724961475
100
AcDbText
0
TEXT
5
54A
100
AcDbEntity
8
0
100
AcDbText
62
2
6
CONTINUOUS
10
3.4629323540
20
7.7381211475
7
TEXTSTYLE_0
40
0.1562500000
1
et verticales correspondent avec les
72
5
11
7.9629323540
21
7.7381211475
100
AcDbText
0
TEXT
5
54B
100
AcDbEntity
8
0
100
AcDbText
62
2
6
CONTINUOUS
10
3.4629323540
20
7.5037461475
7
TEXTSTYLE_0
40
0.1562500000
1
dimensions sur le gabarit
72
5
11
6.5879323540
21
7.5037461475
100
AcDbText
0
TEXT
5
54C
100
AcDbEntity
8
0
100
AcDbText
62
2
6
CONTINUOUS
10
10.6602327701
20
19.1810763617
7
TEXTSTYLE_0
40
0.1562500052
1
PACKAGING/UPC LABEL ON BOX
72
5
11
13.9102327701
21
19.1810763617
100
AcDbText
0
TEXT
5
54D
100
AcDbEntity
8
0
100
AcDbText
62
2
6
CONTINUOUS
10
10.6602327701
20
18.9467013617
7
TEXTSTYLE_0
40
0.1562500052
1
ETIQUETA DE EMBALAJE/UPC EN LA CAJA
72
5
11
15.0352327701
21
18.9467013617
100
AcDbText
0
TEXT
5
54E
100
AcDbEntity
8
0
100
AcDbText
62
2
6
CONTINUOUS
10
10.6602327701
20
18.7123263617
7
TEXTSTYLE_0
40
0.1562500000
1
ETIQUETTE D'EMBALLAGE/UPC SUR LA BOÎTE
72
5
11
15.4102327701
21
18.7123263617
100
AcDbText
0
TEXT
5
54F
100
AcDbEntity
8
0
100
AcDbText
62
2
6
CONTINUOUS
10
10.6370778609
20
16.9929374460
7
TEXTSTYLE_0
40
0.1562500052
1
The template and the label suffixes circled
72
5
11
16.0120778609
21
16.9929374460
100
AcDbText
0
TEXT
5
550
100
AcDbEntity
8
0
100
AcDbText
62
2
6
CONTINUOUS
10
10.6370778609
20
16.7585624460
7
TEXTSTYLE_0
40
0.1562500052
1
must match for proper cut-out.
72
5
11
14.3870778609
21
16.7585624460
100
AcDbText
0
TEXT
5
551
100
AcDbEntity
8
0
100
AcDbText
62
2
6
CONTINUOUS
10
10.6370778609
20
16.5241874460
7
TEXTSTYLE_0
40
0.1562500000
1
 
72
5
11
10.7620778609
21
16.5241874460
100
AcDbText
0
TEXT
5
552
100
AcDbEntity
8
0
100
AcDbText
62
2
6
CONTINUOUS
10
10.6370778609
20
16.2898124460
7
TEXTSTYLE_0
40
0.1562500052
1
A fin de realizar el corte apropiado, la
72
5
11
15.6370778609
21
16.2898124460
100
AcDbText
0
TEXT
5
553
100
AcDbEntity
8
0
100
AcDbText
62
2
6
CONTINUOUS
10
10.6370778609
20
16.0554374460
7
TEXTSTYLE_0
40
0.1562500000
1
plantilla y los sufijos de la etiqueta
72
5
11
15.3870778609
21
16.0554374460
100
AcDbText
0
TEXT
5
554
100
AcDbEntity
8
0
100
AcDbText
62
2
6
CONTINUOUS
10
10.6370778609
20
15.8210624460
7
TEXTSTYLE_0
40
0.1562500000
1
demarcados deben concordar.
72
5
11
14.0120778609
21
15.8210624460
100
AcDbText
0
TEXT
5
555
100
AcDbEntity
8
0
100
AcDbText
62
2
6
CONTINUOUS
10
10.6370778609
20
15.5866874460
7
TEXTSTYLE_0
40
0.1562500000
1
 
72
5
11
10.7620778609
21
15.5866874460
100
AcDbText
0
TEXT
5
556
100
AcDbEntity
8
0
100
AcDbText
62
2
6
CONTINUOUS
10
10.6370778609
20
15.3523124460
7
TEXTSTYLE_0
40
0.1562500000
1
Afin de découper l'ouverture correctement,
72
5
11
15.8870778609
21
15.3523124460
100
AcDbText
0
TEXT
5
557
100
AcDbEntity
8
0
100
AcDbText
62
2
6
CONTINUOUS
10
10.6370778609
20
15.1179374460
7
TEXTSTYLE_0
40
0.1562500000
1
le gabarit et les suffixes encerclés
72
5
11
15.1370778609
21
15.1179374460
100
AcDbText
0
TEXT
5
558
100
AcDbEntity
8
0
100
AcDbText
62
2
6
CONTINUOUS
10
10.6370778609
20
14.8835624460
7
TEXTSTYLE_0
40
0.1562500000
1
doivent correspondre
72
5
11
13.1370778609
21
14.8835624460
100
AcDbText
0
TEXT
5
559
100
AcDbEntity
8
0
100
AcDbText
62
2
6
CONTINUOUS
10
3.9189347153
20
17.7043583121
7
TEXTSTYLE_0
40
0.2500000000
1
CUT-OUT TEMPLATE
72
5
11
7.1189347153
21
17.7043583121
100
AcDbText
0
TEXT
5
55A
100
AcDbEntity
8
0
100
AcDbText
62
2
6
CONTINUOUS
10
3.9189347153
20
17.3293583121
7
TEXTSTYLE_0
40
0.2500000000
1
UNDERCOUNTER SINK
72
5
11
7.3189347153
21
17.3293583121
100
AcDbText
0
TEXT
5
55B
100
AcDbEntity
8
0
100
AcDbText
62
2
6
CONTINUOUS
10
3.9189347153
20
16.9543583121
7
TEXTSTYLE_0
40
0.2500000000
1
PLANTILLA DE RECORTE
72
5
11
7.9189347153
21
16.9543583121
100
AcDbText
0
TEXT
5
55C
100
AcDbEntity
8
0
100
AcDbText
62
2
6
CONTINUOUS
10
3.9189347153
20
16.5793583121
7
TEXTSTYLE_0
40
0.2500000000
1
FREGADERO MONTADO DEBAJO
72
5
11
8.7189347153
21
16.5793583121
100
AcDbText
0
TEXT
5
55D
100
AcDbEntity
8
0
100
AcDbText
62
2
6
CONTINUOUS
10
3.9189347153
20
16.2043583121
7
TEXTSTYLE_0
40
0.2500000000
1
  DEL MOSTRADOR
72
5
11
6.9189347153
21
16.2043583121
100
AcDbText
0
TEXT
5
55E
100
AcDbEntity
8
0
100
AcDbText
62
2
6
CONTINUOUS
10
3.9189347153
20
15.8293583121
7
TEXTSTYLE_0
40
0.2500000000
1
GABARIT
72
5
11
5.3189347153
21
15.8293583121
100
AcDbText
0
TEXT
5
55F
100
AcDbEntity
8
0
100
AcDbText
62
2
6
CONTINUOUS
10
3.9189347153
20
15.4543583121
7
TEXTSTYLE_0
40
0.2500000000
1
ÉVIER SOUS-COMPTOIR
72
5
11
7.7189347153
21
15.4543583121
100
AcDbText
0
TEXT
5
560
100
AcDbEntity
8
0
100
AcDbText
62
2
6
CONTINUOUS
10
3.9189347153
20
15.0793583121
7
TEXTSTYLE_0
40
0.2500000000
1
UNDERTONE   3182-**-AA
72
5
11
8.3189347153
21
15.0793583121
100
AcDbText
0
TEXT
5
561
100
AcDbEntity
8
0
100
AcDbText
62
2
6
CONTINUOUS
10
5.7305363854
20
15.2489864667
7
TEXTSTYLE_0
40
0.0940000000
1
TM
72
5
11
5.8809363854
21
15.2489864667
100
AcDbText
0
SOLID
5
562
100
AcDbEntity
8
0
100
AcDbTrace
62
2
6
CONTINUOUS
10
18.1973535037
20
11.3038543865
11
18.0106012218
21
11.3393000876
12
18.0321918428
22
11.3979524113
13
18.0321918428
23
11.3979524113
0
TEXT
5
563
100
AcDbEntity
8
0
100
AcDbText
62
2
6
CONTINUOUS
10
14.6928157141
20
11.9176096982
7
TEXTSTYLE_0
40
0.1562500000
1
RIM OF SINK
72
5
11
16.0678157141
21
11.9176096982
100
AcDbText
0
TEXT
5
564
100
AcDbEntity
8
0
100
AcDbText
62
2
6
CONTINUOUS
10
13.5678157141
20
11.6832346982
7
TEXTSTYLE_0
40
0.1562500000
1
REBORDE DE FREGADERO
72
5
11
16.0678157141
21
11.6832346982
100
AcDbText
0
TEXT
5
565
100
AcDbEntity
8
0
100
AcDbText
62
2
6
CONTINUOUS
10
14.3178157141
20
11.4488596982
7
TEXTSTYLE_0
40
0.1562500000
1
REBORD D'ÉVIER
72
5
11
16.0678157141
21
11.4488596982
100
AcDbText
0
SOLID
5
566
100
AcDbEntity
8
0
100
AcDbTrace
62
2
6
CONTINUOUS
10
17.8443822047
20
9.2382294358
11
17.6799086730
21
9.3335251328
12
17.7197058468
22
9.3817167811
13
17.7197058468
23
9.3817167811
0
TEXT
5
567
100
AcDbEntity
8
0
100
AcDbText
62
2
6
CONTINUOUS
10
13.4145997040
20
10.0311549999
7
TEXTSTYLE_0
40
0.1562500000
1
CUT OUT LINE FOR A REVEAL
72
5
11
16.5395997040
21
10.0311549999
100
AcDbText
0
TEXT
5
568
100
AcDbEntity
8
0
100
AcDbText
62
2
6
CONTINUOUS
10
13.1645997040
20
9.7967799999
7
TEXTSTYLE_0
40
0.1562500000
1
LÍNEA DE CORTE CON BATIENTE
72
5
11
16.5395997040
21
9.7967799999
100
AcDbText
0
TEXT
5
569
100
AcDbEntity
8
0
100
AcDbText
62
2
6
CONTINUOUS
10
12.6645997040
20
9.5624049999
7
TEXTSTYLE_0
40
0.1562500000
1
LINGE DE COUPE AVEC EBRASEMENTS
72
5
11
16.5395997040
21
9.5624049999
100
AcDbText
0
INSERT
5
56A
100
AcDbEntity
8
0
100
AcDbBlockReference
62
2
6
CONTINUOUS
2
REVEAL_BL0
10
0.0000000000
20
0.0000000000
0
SOLID
5
56B
100
AcDbEntity
8
0
100
AcDbTrace
62
2
6
CONTINUOUS
10
16.9324418005
20
6.9741907095
11
16.7462515246
21
7.0124790064
12
16.7687336899
22
7.0707954041
13
16.7687336899
23
7.0707954041
0
TEXT
5
56C
100
AcDbEntity
8
0
100
AcDbText
62
2
6
CONTINUOUS
10
12.6612355718
20
7.1933814996
7
TEXTSTYLE_0
40
0.1562500000
1
CUT OUT LINE FOR NO REVEAL
72
5
11
15.9112355718
21
7.1933814996
100
AcDbText
0
TEXT
5
56D
100
AcDbEntity
8
0
100
AcDbText
62
2
6
CONTINUOUS
10
12.5362355718
20
6.9590064996
7
TEXTSTYLE_0
40
0.1562500000
1
LÍNEA DE CORTE SIN BATIENTE
72
5
11
15.9112355718
21
6.9590064996
100
AcDbText
0
TEXT
5
56E
100
AcDbEntity
8
0
100
AcDbText
62
2
6
CONTINUOUS
10
12.0362355718
20
6.7246314996
7
TEXTSTYLE_0
40
0.1562500000
1
LINGE DE COUPE SANS ÉBRASEMENTS
72
5
11
15.9112355718
21
6.7246314996
100
AcDbText
0
INSERT
5
56F
100
AcDbEntity
8
0
100
AcDbBlockReference
62
2
6
CONTINUOUS
2
NO_REVEAL_BL1
10
0.0000000000
20
0.0000000000
0
INSERT
5
570
100
AcDbEntity
8
0
100
AcDbBlockReference
62
2
6
CONTINUOUS
2
NO_REVEAL_BL2
10
0.0000000000
20
0.0000000000
0
INSERT
5
571
100
AcDbEntity
8
0
100
AcDbBlockReference
62
2
6
CONTINUOUS
2
REVEAL_BL3
10
0.0000000000
20
0.0000000000
0
LINE
5
572
100
AcDbEntity
8
0
100
AcDbLine
62
7
6
CONTINUOUS
10
0.0000000000
20
0.0000000000
11
20.0000000000
21
0.0000000000
0
LINE
5
573
100
AcDbEntity
8
0
100
AcDbLine
62
7
6
CONTINUOUS
10
0.0000000000
20
0.0000000000
11
0.0000000000
21
25.0000000000
0
LINE
5
574
100
AcDbEntity
8
0
100
AcDbLine
62
2
6
CONTINUOUS
10
4.2547494562
20
18.7039095822
11
4.1169852895
21
18.5400883926
0
LINE
5
575
100
AcDbEntity
8
0
100
AcDbLine
62
2
6
CONTINUOUS
10
4.4468112682
20
18.7039095822
11
4.2335078164
21
18.4502613093
0
LINE
5
576
100
AcDbEntity
8
0
100
AcDbLine
62
2
6
CONTINUOUS
10
3.9424850625
20
18.7039095822
11
3.9424850625
21
18.1179719294
0
LINE
5
577
100
AcDbEntity
8
0
100
AcDbLine
62
2
6
CONTINUOUS
10
4.1169852895
20
18.7039095822
11
4.1169852895
21
18.5400883926
0
LINE
5
578
100
AcDbEntity
8
0
100
AcDbLine
62
2
6
CONTINUOUS
10
4.1169852895
20
18.3194957669
11
4.1169852895
21
18.1179959329
0
LINE
5
579
100
AcDbEntity
8
0
100
AcDbLine
62
2
6
CONTINUOUS
10
4.9786963261
20
18.7039095822
11
4.9786963261
21
18.1179959329
0
LINE
5
57A
100
AcDbEntity
8
0
100
AcDbLine
62
2
6
CONTINUOUS
10
5.1434300060
20
18.7039095822
11
5.1434300060
21
18.4835258226
0
LINE
5
57B
100
AcDbEntity
8
0
100
AcDbLine
62
2
6
CONTINUOUS
10
5.1434300060
20
18.3463205427
11
5.1434300060
21
18.1179959329
0
LINE
5
57C
100
AcDbEntity
8
0
100
AcDbLine
62
2
6
CONTINUOUS
10
5.2914268171
20
18.7039095822
11
5.2914268171
21
18.4835258226
0
LINE
5
57D
100
AcDbEntity
8
0
100
AcDbLine
62
2
6
CONTINUOUS
10
5.2914268171
20
18.3463205427
11
5.2914268171
21
18.1179959329
0
LINE
5
57E
100
AcDbEntity
8
0
100
AcDbLine
62
2
6
CONTINUOUS
10
5.4561604969
20
18.7039095822
11
5.4561604969
21
18.1179959329
0
LINE
5
57F
100
AcDbEntity
8
0
100
AcDbLine
62
2
6
CONTINUOUS
10
5.5012053411
20
18.1179959329
11
5.5012053411
21
18.7039095822
0
LINE
5
580
100
AcDbEntity
8
0
100
AcDbLine
62
2
6
CONTINUOUS
10
5.6512514039
20
18.7039095822
11
5.6512514039
21
18.2592226900
0
LINE
5
581
100
AcDbEntity
8
0
100
AcDbLine
62
2
6
CONTINUOUS
10
5.8139354738
20
18.2592226900
11
5.8139354738
21
18.1179959329
0
LINE
5
582
100
AcDbEntity
8
0
100
AcDbLine
62
2
6
CONTINUOUS
10
5.8430832125
20
18.1179959329
11
5.8430832125
21
18.7039095822
0
LINE
5
583
100
AcDbEntity
8
0
100
AcDbLine
62
2
6
CONTINUOUS
10
6.0013298645
20
18.5611501855
11
6.0013298645
21
18.4835258226
0
LINE
5
584
100
AcDbEntity
8
0
100
AcDbLine
62
2
6
CONTINUOUS
10
6.0013298645
20
18.3391442210
11
6.0013298645
21
18.2592226900
0
LINE
5
585
100
AcDbEntity
8
0
100
AcDbLine
62
2
6
CONTINUOUS
10
6.1521873879
20
18.1179959329
11
6.1521873879
21
18.2592226900
0
LINE
5
586
100
AcDbEntity
8
0
100
AcDbLine
62
2
6
CONTINUOUS
10
6.1521873879
20
18.3391442210
11
6.1521873879
21
18.4835258226
0
LINE
5
587
100
AcDbEntity
8
0
100
AcDbLine
62
2
6
CONTINUOUS
10
6.1521873879
20
18.5611501855
11
6.1521873879
21
18.7039095822
0
LINE
5
588
100
AcDbEntity
8
0
100
AcDbLine
62
2
6
CONTINUOUS
10
6.1970076026
20
18.1179959329
11
6.1970076026
21
18.7039095822
0
LINE
5
589
100
AcDbEntity
8
0
100
AcDbLine
62
2
6
CONTINUOUS
10
6.3476634251
20
18.5613307489
11
6.3476634251
21
18.4542276144
0
LINE
5
58A
100
AcDbEntity
8
0
100
AcDbLine
62
2
6
CONTINUOUS
10
6.3476634251
20
18.3149523037
11
6.3476634251
21
18.1179959329
0
LINE
5
58B
100
AcDbEntity
8
0
100
AcDbLine
62
2
6
CONTINUOUS
10
6.7873217690
20
18.0851552421
11
6.7873217690
21
18.1511214410
0
LINE
5
58C
100
AcDbEntity
8
0
100
AcDbLine
62
2
6
CONTINUOUS
10
4.2707232295
20
18.1179959329
11
4.1169852895
21
18.3194957669
0
LINE
5
58D
100
AcDbEntity
8
0
100
AcDbLine
62
2
6
CONTINUOUS
10
4.4870156511
20
18.1179959329
11
4.2335078164
21
18.4502613093
0
LINE
5
58E
100
AcDbEntity
8
0
100
AcDbLine
62
2
6
CONTINUOUS
10
6.4724868543
20
18.1179959329
11
6.3476634251
21
18.3149523037
0
LINE
5
58F
100
AcDbEntity
8
0
100
AcDbLine
62
2
6
CONTINUOUS
10
6.6624377938
20
18.1179959329
11
6.5029945509
21
18.3695784742
0
LINE
5
590
100
AcDbEntity
8
0
100
AcDbLine
62
7
6
CONTINUOUS
10
11.5609720681
20
17.4141351999
11
11.5609720681
21
18.5070426871
0
LINE
5
591
100
AcDbEntity
8
0
100
AcDbLine
62
7
6
CONTINUOUS
10
11.5943395677
20
17.4815526991
11
11.5943395677
21
18.4745826875
0
LINE
5
592
100
AcDbEntity
8
0
100
AcDbLine
62
7
6
CONTINUOUS
10
11.6430370671
20
17.5049751988
11
11.6430370671
21
17.5399551984
0
LINE
5
593
100
AcDbEntity
8
0
100
AcDbLine
62
7
6
CONTINUOUS
10
11.6430370671
20
17.7915876955
11
11.6430370671
21
17.9132226940
0
LINE
5
594
100
AcDbEntity
8
0
100
AcDbLine
62
7
6
CONTINUOUS
10
11.6896870666
20
17.9582226935
11
11.6896870666
21
18.0198726928
0
LINE
5
595
100
AcDbEntity
8
0
100
AcDbLine
62
7
6
CONTINUOUS
10
11.6896870666
20
18.0848676920
11
11.6896870666
21
18.1465101913
0
LINE
5
596
100
AcDbEntity
8
0
100
AcDbLine
62
7
6
CONTINUOUS
10
11.6896870666
20
18.1848501909
11
11.6896870666
21
18.2464926902
0
LINE
5
597
100
AcDbEntity
8
0
100
AcDbLine
62
7
6
CONTINUOUS
10
11.6896870666
20
18.2848251897
11
11.6896870666
21
18.3464751890
0
LINE
5
598
100
AcDbEntity
8
0
100
AcDbLine
62
7
6
CONTINUOUS
10
11.6896870666
20
18.3848076885
11
11.6896870666
21
18.4464576878
0
LINE
5
599
100
AcDbEntity
8
0
100
AcDbLine
62
2
6
CONTINUOUS
10
6.7989197452
20
18.1174581835
11
6.8307877580
21
18.0851552421
0
LINE
5
59A
100
AcDbEntity
8
0
100
AcDbLine
62
7
6
CONTINUOUS
10
12.4987420571
20
17.9132226940
11
12.4987420571
21
17.7915876955
0
LINE
5
59B
100
AcDbEntity
8
0
100
AcDbLine
62
7
6
CONTINUOUS
10
12.4987420571
20
17.5399551984
11
12.4987420571
21
17.5049751988
0
LINE
5
59C
100
AcDbEntity
8
0
100
AcDbLine
62
7
6
CONTINUOUS
10
12.5453920566
20
18.4464576878
11
12.5453920566
21
18.3848076885
0
LINE
5
59D
100
AcDbEntity
8
0
100
AcDbLine
62
7
6
CONTINUOUS
10
12.5453920566
20
18.3464751890
11
12.5453920566
21
18.2848251897
0
LINE
5
59E
100
AcDbEntity
8
0
100
AcDbLine
62
7
6
CONTINUOUS
10
12.5453920566
20
18.2464926902
11
12.5453920566
21
18.1848501909
0
LINE
5
59F
100
AcDbEntity
8
0
100
AcDbLine
62
7
6
CONTINUOUS
10
12.5453920566
20
18.1465101913
11
12.5453920566
21
18.0848676920
0
LINE
5
5A0
100
AcDbEntity
8
0
100
AcDbLine
62
7
6
CONTINUOUS
10
12.5453920566
20
18.0198726928
11
12.5453920566
21
17.9582226935
0
LINE
5
5A1
100
AcDbEntity
8
0
100
AcDbLine
62
7
6
CONTINUOUS
10
13.2312445486
20
17.7915876955
11
13.2312445486
21
17.9132226940
0
LINE
5
5A2
100
AcDbEntity
8
0
100
AcDbLine
62
7
6
CONTINUOUS
10
13.5741970446
20
17.9132226940
11
13.5741970446
21
17.7915876955
0
LINE
5
5A3
100
AcDbEntity
8
0
100
AcDbLine
62
7
6
CONTINUOUS
10
13.7793820422
20
18.4745826875
11
13.7793820422
21
17.4815526991
0
LINE
5
5A4
100
AcDbEntity
8
0
100
AcDbLine
62
7
6
CONTINUOUS
10
13.8135370418
20
18.5070426871
11
13.8135370418
21
17.4141351999
0
LINE
5
5A5
100
AcDbEntity
8
0
100
AcDbLine
62
7
6
CONTINUOUS
10
13.8135370418
20
17.4141351999
11
11.5609720681
21
17.4141351999
0
LINE
5
5A6
100
AcDbEntity
8
0
100
AcDbLine
62
7
6
CONTINUOUS
10
13.7793820422
20
17.4815526991
11
11.5943395677
21
17.4815526991
0
LINE
5
5A7
100
AcDbEntity
8
0
100
AcDbLine
62
7
6
CONTINUOUS
10
12.4987420571
20
17.5049751988
11
11.6430370671
21
17.5049751988
0
LINE
5
5A8
100
AcDbEntity
8
0
100
AcDbLine
62
7
6
CONTINUOUS
10
11.6430370671
20
17.5399551984
11
12.4987420571
21
17.5399551984
0
LINE
5
5A9
100
AcDbEntity
8
0
100
AcDbLine
62
7
6
CONTINUOUS
10
13.5741970446
20
17.7915876955
11
13.2312445486
21
17.7915876955
0
LINE
5
5AA
100
AcDbEntity
8
0
100
AcDbLine
62
7
6
CONTINUOUS
10
12.4987420571
20
17.7915876955
11
11.6430370671
21
17.7915876955
0
LINE
5
5AB
100
AcDbEntity
8
0
100
AcDbLine
62
2
6
CONTINUOUS
10
4.1169852895
20
18.1179959329
11
3.9424850625
21
18.1179719294
0
LINE
5
5AC
100
AcDbEntity
8
0
100
AcDbLine
62
7
6
CONTINUOUS
10
11.6430370671
20
17.9132226940
11
12.4987420571
21
17.9132226940
0
LINE
5
5AD
100
AcDbEntity
8
0
100
AcDbLine
62
7
6
CONTINUOUS
10
13.2312445486
20
17.9132226940
11
13.5741970446
21
17.9132226940
0
LINE
5
5AE
100
AcDbEntity
8
0
100
AcDbLine
62
7
6
CONTINUOUS
10
12.5453920566
20
17.9582226935
11
11.6896870666
21
17.9582226935
0
LINE
5
5AF
100
AcDbEntity
8
0
100
AcDbLine
62
7
6
CONTINUOUS
10
11.6896870666
20
18.0198726928
11
12.5453920566
21
18.0198726928
0
LINE
5
5B0
100
AcDbEntity
8
0
100
AcDbLine
62
7
6
CONTINUOUS
10
12.5453920566
20
18.0848676920
11
11.6896870666
21
18.0848676920
0
LINE
5
5B1
100
AcDbEntity
8
0
100
AcDbLine
62
2
6
CONTINUOUS
10
6.8116011020
20
18.1174581835
11
6.7873217690
21
18.1174581835
0
LINE
5
5B2
100
AcDbEntity
8
0
100
AcDbLine
62
2
6
CONTINUOUS
10
5.4561604969
20
18.1179959329
11
5.2914268171
21
18.1179959329
0
LINE
5
5B3
100
AcDbEntity
8
0
100
AcDbLine
62
2
6
CONTINUOUS
10
5.1434300060
20
18.1179959329
11
4.9786963261
21
18.1179959329
0
LINE
5
5B4
100
AcDbEntity
8
0
100
AcDbLine
62
2
6
CONTINUOUS
10
4.2707232295
20
18.1179959329
11
4.4870156511
21
18.1179959329
0
LINE
5
5B5
100
AcDbEntity
8
0
100
AcDbLine
62
2
6
CONTINUOUS
10
5.5012053411
20
18.1179959329
11
5.8139354738
21
18.1179959329
0
LINE
5
5B6
100
AcDbEntity
8
0
100
AcDbLine
62
2
6
CONTINUOUS
10
5.8430832125
20
18.1179959329
11
6.1521873879
21
18.1179959329
0
LINE
5
5B7
100
AcDbEntity
8
0
100
AcDbLine
62
2
6
CONTINUOUS
10
6.1970076026
20
18.1179959329
11
6.3476634251
21
18.1179959329
0
LINE
5
5B8
100
AcDbEntity
8
0
100
AcDbLine
62
2
6
CONTINUOUS
10
6.4724868543
20
18.1179959329
11
6.6624377938
21
18.1179959329
0
LINE
5
5B9
100
AcDbEntity
8
0
100
AcDbLine
62
7
6
CONTINUOUS
10
11.6896870666
20
18.1465101913
11
12.5453920566
21
18.1465101913
0
LINE
5
5BA
100
AcDbEntity
8
0
100
AcDbLine
62
2
6
CONTINUOUS
10
6.7873217690
20
18.1511214410
11
6.8116011020
21
18.1511214410
0
LINE
5
5BB
100
AcDbEntity
8
0
100
AcDbLine
62
7
6
CONTINUOUS
10
12.5453920566
20
18.1848501909
11
11.6896870666
21
18.1848501909
0
LINE
5
5BC
100
AcDbEntity
8
0
100
AcDbLine
62
7
6
CONTINUOUS
10
11.6896870666
20
18.2464926902
11
12.5453920566
21
18.2464926902
0
LINE
5
5BD
100
AcDbEntity
8
0
100
AcDbLine
62
2
6
CONTINUOUS
10
5.6512514039
20
18.2592226900
11
5.8139354738
21
18.2592226900
0
LINE
5
5BE
100
AcDbEntity
8
0
100
AcDbLine
62
2
6
CONTINUOUS
10
6.0013298645
20
18.2592226900
11
6.1521873879
21
18.2592226900
0
LINE
5
5BF
100
AcDbEntity
8
0
100
AcDbLine
62
7
6
CONTINUOUS
10
12.5453920566
20
18.2848251897
11
11.6896870666
21
18.2848251897
0
LINE
5
5C0
100
AcDbEntity
8
0
100
AcDbLine
62
2
6
CONTINUOUS
10
6.0013298645
20
18.3391442210
11
6.1521873879
21
18.3391442210
0
LINE
5
5C1
100
AcDbEntity
8
0
100
AcDbLine
62
2
6
CONTINUOUS
10
5.1434300060
20
18.3463205427
11
5.2914268171
21
18.3463205427
0
LINE
5
5C2
100
AcDbEntity
8
0
100
AcDbLine
62
7
6
CONTINUOUS
10
11.6896870666
20
18.3464751890
11
12.5453920566
21
18.3464751890
0
LINE
5
5C3
100
AcDbEntity
8
0
100
AcDbLine
62
7
6
CONTINUOUS
10
12.5453920566
20
18.3848076885
11
11.6896870666
21
18.3848076885
0
LINE
5
5C4
100
AcDbEntity
8
0
100
AcDbLine
62
7
6
CONTINUOUS
10
11.6896870666
20
18.4464576878
11
12.5453920566
21
18.4464576878
0
LINE
5
5C5
100
AcDbEntity
8
0
100
AcDbLine
62
2
6
CONTINUOUS
10
6.3476634251
20
18.4542276144
11
6.4000031753
21
18.4542276144
0
LINE
5
5C6
100
AcDbEntity
8
0
100
AcDbLine
62
7
6
CONTINUOUS
10
11.5943395677
20
18.4745826875
11
13.7793820422
21
18.4745826875
0
LINE
5
5C7
100
AcDbEntity
8
0
100
AcDbLine
62
2
6
CONTINUOUS
10
5.1434300060
20
18.4835258226
11
5.2914268171
21
18.4835258226
0
LINE
5
5C8
100
AcDbEntity
8
0
100
AcDbLine
62
2
6
CONTINUOUS
10
6.0013298645
20
18.4835258226
11
6.1521873879
21
18.4835258226
0
LINE
5
5C9
100
AcDbEntity
8
0
100
AcDbLine
62
7
6
CONTINUOUS
10
11.5609720681
20
18.5070426871
11
13.8135370418
21
18.5070426871
0
LINE
5
5CA
100
AcDbEntity
8
0
100
AcDbLine
62
2
6
CONTINUOUS
10
6.0013298645
20
18.5611501855
11
6.1521873879
21
18.5611501855
0
LINE
5
5CB
100
AcDbEntity
8
0
100
AcDbLine
62
2
6
CONTINUOUS
10
6.4035933066
20
18.5613307489
11
6.3476634251
21
18.5613307489
0
LINE
5
5CC
100
AcDbEntity
8
0
100
AcDbLine
62
2
6
CONTINUOUS
10
3.9424850625
20
18.7039095822
11
4.1169852895
21
18.7039095822
0
LINE
5
5CD
100
AcDbEntity
8
0
100
AcDbLine
62
2
6
CONTINUOUS
10
4.2547494562
20
18.7039095822
11
4.4468112682
21
18.7039095822
0
LINE
5
5CE
100
AcDbEntity
8
0
100
AcDbLine
62
2
6
CONTINUOUS
10
4.9786963261
20
18.7039095822
11
5.1434300060
21
18.7039095822
0
LINE
5
5CF
100
AcDbEntity
8
0
100
AcDbLine
62
2
6
CONTINUOUS
10
5.2914268171
20
18.7039095822
11
5.4561604969
21
18.7039095822
0
LINE
5
5D0
100
AcDbEntity
8
0
100
AcDbLine
62
2
6
CONTINUOUS
10
5.5012053411
20
18.7039095822
11
5.6512514039
21
18.7039095822
0
LINE
5
5D1
100
AcDbEntity
8
0
100
AcDbLine
62
2
6
CONTINUOUS
10
5.8430832125
20
18.7039095822
11
6.1521873879
21
18.7039095822
0
LINE
5
5D2
100
AcDbEntity
8
0
100
AcDbLine
62
2
6
CONTINUOUS
10
6.1970076026
20
18.7039095822
11
6.4305553032
21
18.7039095822
0
LINE
5
5D3
100
AcDbEntity
8
0
100
AcDbLine
62
7
6
CONTINUOUS
10
20.0000000000
20
0.0000000000
11
20.0000000000
21
25.0000000000
0
LINE
5
5D4
100
AcDbEntity
8
0
100
AcDbLine
62
7
6
CONTINUOUS
10
0.0000000000
20
25.0000000000
11
20.0000000000
21
25.0000000000
0
LINE
5
5D5
100
AcDbEntity
8
DEFAULT_2
100
AcDbLine
62
8
6
HIDDEN
10
3.3473535037
20
22.7576133677
11
1.9473535037
21
21.3576133677
0
LINE
5
5D6
100
AcDbEntity
8
DEFAULT_2
100
AcDbLine
62
8
6
HIDDEN
10
1.9473535037
20
3.6576133677
11
3.3473535037
21
2.2576133677
0
LINE
5
5D7
100
AcDbEntity
8
DEFAULT_2
100
AcDbLine
62
8
6
HIDDEN
10
3.3473535037
20
2.2576133677
11
16.7973535037
21
2.2576133677
0
LINE
5
5D8
100
AcDbEntity
8
0
100
AcDbLine
62
7
6
CONTINUOUS
10
13.7123803284
20
2.5269979590
11
6.4323266790
21
2.5269979590
0
LINE
5
5D9
100
AcDbEntity
8
0
100
AcDbLine
62
7
6
CONTINUOUS
10
13.7123803284
20
3.2769979590
11
6.4323266790
21
3.2769979590
0
LINE
5
5DA
100
AcDbEntity
8
DEFAULT_2
100
AcDbLine
62
8
6
HIDDEN
10
1.9473535037
20
21.3576133677
11
1.9473535037
21
3.6576133677
0
LINE
5
5DB
100
AcDbEntity
8
0
100
AcDbLine
62
2
6
CONTINUOUS
10
16.1612355718
20
7.2715064996
11
15.9112355718
21
7.2715064996
0
LINE
5
5DC
100
AcDbEntity
8
0
100
AcDbLine
62
2
6
CONTINUOUS
10
16.9324418005
20
6.9741907095
11
16.1612355718
21
7.2715064996
0
LINE
5
5DD
100
AcDbEntity
8
0
100
AcDbLine
62
2
6
CONTINUOUS
10
16.7895997040
20
10.1092799999
11
16.5395997040
21
10.1092799999
0
LINE
5
5DE
100
AcDbEntity
8
0
100
AcDbLine
62
2
6
CONTINUOUS
10
16.3178157141
20
11.9957346982
11
16.0678157141
21
11.9957346982
0
LINE
5
5DF
100
AcDbEntity
8
0
100
AcDbLine
62
2
6
CONTINUOUS
10
18.1973535037
20
11.3038543865
11
16.3178157141
21
11.9957346982
0
LINE
5
5E0
100
AcDbEntity
8
0
100
AcDbLine
62
2
6
CONTINUOUS
10
17.8443822047
20
9.2382294358
11
16.7895997040
21
10.1092799999
0
LINE
5
5E1
100
AcDbEntity
8
DEFAULT_2
100
AcDbLine
62
8
6
HIDDEN
10
18.1973535037
20
3.6576133677
11
18.1973535037
21
21.3576133677
0
LINE
5
5E2
100
AcDbEntity
8
0
100
AcDbLine
62
7
6
CONTINUOUS
10
6.4323266790
20
21.7382287764
11
13.7123803283
21
21.7382287764
0
LINE
5
5E3
100
AcDbEntity
8
0
100
AcDbLine
62
7
6
CONTINUOUS
10
6.4323266790
20
22.4882287764
11
13.7123803283
21
22.4882287764
0
LINE
5
5E4
100
AcDbEntity
8
DEFAULT_2
100
AcDbLine
62
8
6
HIDDEN
10
16.7973535037
20
22.7576133677
11
3.3473535037
21
22.7576133677
0
LINE
5
5E5
100
AcDbEntity
8
DEFAULT_2
100
AcDbLine
62
8
6
HIDDEN
10
16.7973535037
20
2.2576133677
11
18.1973535037
21
3.6576133677
0
LINE
5
5E6
100
AcDbEntity
8
DEFAULT_2
100
AcDbLine
62
8
6
HIDDEN
10
18.1973535037
20
21.3576133677
11
16.7973535037
21
22.7576133677
0
CIRCLE
5
5E7
100
AcDbEntity
8
0
100
AcDbCircle
62
2
6
CONTINUOUS
10
4.6635244877
20
18.4098315057
40
0.2980565910
0
CIRCLE
5
5E8
100
AcDbEntity
8
0
100
AcDbCircle
62
2
6
CONTINUOUS
10
4.6635244877
20
18.4098315057
40
0.1247694151
0
ARC
5
5E9
100
AcDbEntity
8
0
100
AcDbCircle
62
2
6
CONTINUOUS
10
6.4305553032
20
18.5289000715
40
0.1750166163
100
AcDbArc
50
294.4500166359
51
90.0000000000
0
ARC
5
5EA
100
AcDbEntity
8
0
100
AcDbCircle
62
2
6
CONTINUOUS
10
6.4035932046
20
18.5077190139
40
0.0536117350
100
AcDbArc
50
266.1604009902
51
89.9998910512
0
CIRCLE
5
5EB
100
AcDbEntity
8
0
100
AcDbCircle
62
2
6
CONTINUOUS
10
6.8032077685
20
18.1179959329
40
0.0653578721
0
ARC
5
5EC
100
AcDbEntity
8
0
100
AcDbCircle
62
2
6
CONTINUOUS
10
6.8116011020
20
18.1342899914
40
0.0168314496
100
AcDbArc
50
270.0000000000
51
90.0000000000
0
CIRCLE
5
5ED
100
AcDbEntity
8
0
100
AcDbCircle
62
7
6
CONTINUOUS
10
11.8718469280
20
3.4941976389
40
0.0328259996
0
ARC
5
5EE
100
AcDbEntity
8
0
100
AcDbCircle
62
7
6
CONTINUOUS
10
66.1973535037
20
12.5076133677
40
63.2306154090
100
AcDbArc
50
175.2551547596
51
184.7448452714
0
ARC
5
5EF
100
AcDbEntity
8
0
100
AcDbCircle
62
7
6
CONTINUOUS
10
-46.0526464963
20
12.5076133677
40
63.2306154090
100
AcDbArc
50
355.2551547581
51
4.7448452711
0
ARC
5
5F0
100
AcDbEntity
8
0
100
AcDbCircle
62
7
6
CONTINUOUS
10
66.1973535037
20
12.5076133677
40
63.9806154090
100
AcDbArc
50
175.2551547596
51
184.7448452714
0
ARC
5
5F1
100
AcDbEntity
8
0
100
AcDbCircle
62
7
6
CONTINUOUS
10
-46.0526464963
20
12.5076133677
40
63.9806154090
100
AcDbArc
50
355.2551547581
51
4.7448452711
0
SPLINE
5
5F2
100
AcDbEntity
8
0
100
AcDbSpline
62
7
6
CONTINUOUS
70
0
71
3
72
39
73
35
74
33
42
0.0000001000
43
0.0000001000
44
0.0000000001
40
0.0000000000
40
0.0000000000
40
0.0000000000
40
0.0000000000
40
0.0312500000
40
0.0625000000
40
0.0937500000
40
0.1250000000
40
0.1562500000
40
0.1875000000
40
0.2187500000
40
0.2500000000
40
0.2812500000
40
0.3125000000
40
0.3437500000
40
0.3750000000
40
0.4062500000
40
0.4375000000
40
0.4687500000
40
0.5000000000
40
0.5312500000
40
0.5625000000
40
0.5937500000
40
0.6250000000
40
0.6562500000
40
0.6875000000
40
0.7187500000
40
0.7500000000
40
0.7812500000
40
0.8125000000
40
0.8437500000
40
0.8750000000
40
0.9062500000
40
0.9375000000
40
0.9687500000
40
1.0000000000
40
1.0000000000
40
1.0000000000
40
1.0000000000
10
12.3647470107
20
17.7517328162
30
0.0000000000
10
12.3595155137
20
17.7505020533
30
0.0000000000
10
12.3492945502
20
17.7470123287
30
0.0000000000
10
12.3352752583
20
17.7388933028
30
0.0000000000
10
12.3231046883
20
17.7282005305
30
0.0000000000
10
12.3132484806
20
17.7153431380
30
0.0000000000
10
12.3060837723
20
17.7008130883
30
0.0000000000
10
12.3018847027
20
17.6851663416
30
0.0000000000
10
12.3008119409
20
17.6690015871
30
0.0000000000
10
12.3029065336
20
17.6529373342
30
0.0000000000
10
12.3080883357
20
17.6375882467
30
0.0000000000
10
12.3161590769
20
17.6235416244
30
0.0000000000
10
12.3268099476
20
17.6113349309
30
0.0000000000
10
12.3396334152
20
17.6014352289
30
0.0000000000
10
12.3541388176
20
17.5942213092
30
0.0000000000
10
12.3697711367
20
17.5899691969
30
0.0000000000
10
12.3859322357
20
17.5888415898
30
0.0000000000
10
12.4020037451
20
17.5908816333
30
0.0000000000
10
12.4173707232
20
17.5960112696
30
0.0000000000
10
12.4314451859
20
17.6040342243
30
0.0000000000
10
12.4436886042
20
17.6146435164
30
0.0000000000
10
12.4536325102
20
17.6274332041
30
0.0000000000
10
12.4608964218
20
17.6419139177
30
0.0000000000
10
12.4652024011
20
17.6575315840
30
0.0000000000
10
12.4663856891
20
17.6736886268
30
0.0000000000
10
12.4644010099
20
17.6897668317
30
0.0000000000
10
12.4593243029
20
17.7051510009
30
0.0000000000
10
12.4513498174
20
17.7192524924
30
0.0000000000
10
12.4407826797
20
17.7315317431
30
0.0000000000
10
12.4280272192
20
17.7415189142
30
0.0000000000
10
12.4135714931
20
17.7488318674
30
0.0000000000
10
12.3979686294
20
17.7531907909
30
0.0000000000
10
12.3818155975
20
17.7544288909
30
0.0000000000
10
12.3710922723
20
17.7531421820
30
0.0000000000
10
12.3658444324
20
17.7519830878
30
0.0000000000
11
12.3647470107
21
17.7517328162
31
0.0000000000
11
12.3495132424
21
17.7465315889
31
0.0000000000
11
12.3355833786
21
17.7384643451
31
0.0000000000
11
12.3234904154
21
17.7278397604
31
0.0000000000
11
12.3136970638
21
17.7150643618
31
0.0000000000
11
12.3065780454
21
17.7006269721
31
0.0000000000
11
12.3024057540
21
17.6850800070
31
0.0000000000
11
12.3013398333
21
17.6690183374
31
0.0000000000
11
12.3034210685
21
17.6530565284
31
0.0000000000
11
12.3085698255
21
17.6378053242
31
0.0000000000
11
12.3165890985
21
17.6238482792
31
0.0000000000
11
12.3271720471
21
17.6117194295
31
0.0000000000
11
12.3399137377
21
17.6018828593
31
0.0000000000
11
12.3543266370
21
17.5947149438
31
0.0000000000
11
12.3698592667
21
17.5904899478
31
0.0000000000
11
12.3859173041
21
17.5893695315
31
0.0000000000
11
12.4018863232
21
17.5913965654
31
0.0000000000
11
12.4171553040
21
17.5964934894
31
0.0000000000
11
12.4311400119
21
17.6044652806
31
0.0000000000
11
12.4433053522
21
17.6150069156
31
0.0000000000
11
12.4531858445
21
17.6277150417
31
0.0000000000
11
12.4604034331
21
17.6421034098
31
0.0000000000
11
12.4646819526
21
17.6576214801
31
0.0000000000
11
12.4658576946
21
17.6736754872
31
0.0000000000
11
12.4638856720
21
17.6896511591
31
0.0000000000
11
12.4588413399
21
17.7049372213
31
0.0000000000
11
12.4509177087
21
17.7189487856
31
0.0000000000
11
12.4404179592
21
17.7311497298
31
0.0000000000
11
12.4277438416
21
17.7410732112
31
0.0000000000
11
12.4133803035
21
17.7483395291
31
0.0000000000
11
12.3978769347
21
17.7526706537
31
0.0000000000
11
12.3818269382
21
17.7539008637
31
0.0000000000
11
12.3658444324
21
17.7519830878
31
0.0000000000
0
SPLINE
5
5F3
100
AcDbEntity
8
0
100
AcDbSpline
62
7
6
CONTINUOUS
70
0
71
3
72
71
73
67
74
65
42
0.0000001000
43
0.0000001000
44
0.0000000001
40
0.0000000000
40
0.0000000000
40
0.0000000000
40
0.0000000000
40
0.0156250000
40
0.0312500000
40
0.0468750000
40
0.0625000000
40
0.0781250000
40
0.0937500000
40
0.1093750000
40
0.1250000000
40
0.1406250000
40
0.1562500000
40
0.1718750000
40
0.1875000000
40
0.2031250000
40
0.2187500000
40
0.2343750000
40
0.2500000000
40
0.2656250000
40
0.2812500000
40
0.2968750000
40
0.3125000000
40
0.3281250000
40
0.3437500000
40
0.3593750000
40
0.3750000000
40
0.3906250000
40
0.4062500000
40
0.4218750000
40
0.4375000000
40
0.4531250000
40
0.4687500000
40
0.4843750000
40
0.5000000000
40
0.5156250000
40
0.5312500000
40
0.5468750000
40
0.5625000000
40
0.5781250000
40
0.5937500000
40
0.6093750000
40
0.6250000000
40
0.6406250000
40
0.6562500000
40
0.6718750000
40
0.6875000000
40
0.7031250000
40
0.7187500000
40
0.7343750000
40
0.7500000000
40
0.7656250000
40
0.7812500000
40
0.7968750000
40
0.8125000000
40
0.8281250000
40
0.8437500000
40
0.8593750000
40
0.8750000000
40
0.8906250000
40
0.9062500000
40
0.9218750000
40
0.9375000000
40
0.9531250000
40
0.9687500000
40
0.9843750000
40
1.0000000000
40
1.0000000000
40
1.0000000000
40
1.0000000000
10
8.0590291719
20
15.4025872736
30
0.0000000000
10
8.0516204774
20
15.4008439646
30
0.0000000000
10
8.0369740532
20
15.3966310561
30
0.0000000000
10
8.0157279216
20
15.3881934045
30
0.0000000000
10
7.9954090306
20
15.3777183731
30
0.0000000000
10
7.9762122082
20
15.3653064029
30
0.0000000000
10
7.9583215277
20
15.3510765086
30
0.0000000000
10
7.9419085368
20
15.3351651361
30
0.0000000000
10
7.9271306148
20
15.3177248547
30
0.0000000000
10
7.9141294625
20
15.2989228937
30
0.0000000000
10
7.9030297439
20
15.2789395394
30
0.0000000000
10
7.8939378907
20
15.2579664057
30
0.0000000000
10
7.8869410819
20
15.2362045976
30
0.0000000000
10
7.8821064076
20
15.2138627822
30
0.0000000000
10
7.8794802260
20
15.1911551882
30
0.0000000000
10
7.8790877189
20
15.1682995517
30
0.0000000000
10
7.8809326497
20
15.1455150281
30
0.0000000000
10
7.8849973281
20
15.1230200912
30
0.0000000000
10
7.8912427791
20
15.1010304379
30
0.0000000000
10
7.8996091171
20
15.0797569200
30
0.0000000000
10
7.9100161198
20
15.0594035228
30
0.0000000000
10
7.9223639977
20
15.0401654085
30
0.0000000000
10
7.9365343509
20
15.0222270455
30
0.0000000000
10
7.9523913043
20
15.0057604390
30
0.0000000000
10
7.9697828106
20
14.9909234823
30
0.0000000000
10
7.9885421080
20
14.9778584422
30
0.0000000000
10
8.0084893194
20
14.9666905954
30
0.0000000000
10
8.0294331774
20
14.9575270269
30
0.0000000000
10
8.0511728578
20
14.9504556032
30
0.0000000000
10
8.0734999056
20
14.9455441300
30
0.0000000000
10
8.0962002337
20
14.9428397019
30
0.0000000000
10
8.1190561757
20
14.9423682509
30
0.0000000000
10
8.1418485732
20
14.9441342974
30
0.0000000000
10
8.1643588771
20
14.9481209075
30
0.0000000000
10
8.1863712429
20
14.9542898547
30
0.0000000000
10
8.2076746012
20
14.9625819871
30
0.0000000000
10
8.2280646805
20
14.9729177938
30
0.0000000000
10
8.2473459668
20
14.9851981682
30
0.0000000000
10
8.2653335778
20
14.9993053575
30
0.0000000000
10
8.2818550361
20
15.0151040922
30
0.0000000000
10
8.2967519224
20
15.0324428833
30
0.0000000000
10
8.3098813953
20
15.0511554746
30
0.0000000000
10
8.3211175602
20
15.0710624367
30
0.0000000000
10
8.3303526772
20
15.0919728882
30
0.0000000000
10
8.3374981935
20
15.1136863251
30
0.0000000000
10
8.3424855931
20
15.1359945442
30
0.0000000000
10
8.3452670533
20
15.1586836389
30
0.0000000000
10
8.3458159036
20
15.1815360505
30
0.0000000000
10
8.3441268812
20
15.2043326545
30
0.0000000000
10
8.3402161816
20
15.2268548613
30
0.0000000000
10
8.3341213034
20
15.2488867126
30
0.0000000000
10
8.3259006883
20
15.2702169517
30
0.0000000000
10
8.3156331613
20
15.2906410497
30
0.0000000000
10
8.3034171746
20
15.3099631663
30
0.0000000000
10
8.2893698633
20
15.3279980277
30
0.0000000000
10
8.2736259228
20
15.3445727034
30
0.0000000000
10
8.2563363167
20
15.3595282639
30
0.0000000000
10
8.2376668298
20
15.3727213050
30
0.0000000000
10
8.2177964779
20
15.3840253228
30
0.0000000000
10
8.1969157915
20
15.3933319266
30
0.0000000000
10
8.1752249891
20
15.4005518782
30
0.0000000000
10
8.1529320570
20
15.4056159479
30
0.0000000000
10
8.1302507550
20
15.4084755778
30
0.0000000000
10
8.1073985679
20
15.4091033480
30
0.0000000000
10
8.0845946146
20
15.4074932382
30
0.0000000000
10
8.0695699172
20
15.4049382062
30
0.0000000000
10
8.0621380614
20
15.4032964068
30
0.0000000000
11
8.0590291719
21
15.4025872736
31
0.0000000000
11
8.0370946373
21
15.3962780080
31
0.0000000000
11
8.0158824617
21
15.3878538412
31
0.0000000000
11
7.9955960420
21
15.3773955500
31
0.0000000000
11
7.9764298985
21
15.3650034155
31
0.0000000000
11
7.9585678093
21
15.3507962622
31
0.0000000000
11
7.9421810483
21
15.3349103179
31
0.0000000000
11
7.9274267431
21
15.3174979081
31
0.0000000000
11
7.9144463682
21
15.2987259948
31
0.0000000000
11
7.9033643882
21
15.2787745762
31
0.0000000000
11
7.8942870648
21
15.2578349600
31
0.0000000000
11
7.8873014376
21
15.2361079297
31
0.0000000000
11
7.8824744897
21
15.2138018191
31
0.0000000000
11
7.8798525051
21
15.1911305145
31
0.0000000000
11
7.8794606252
21
15.1683114039
31
0.0000000000
11
7.8813026077
21
15.1455632926
31
0.0000000000
11
7.8853607902
21
15.1231043051
31
0.0000000000
11
7.8915962603
21
15.1011497938
31
0.0000000000
11
7.8999492279
21
15.0799102735
31
0.0000000000
11
7.9103395990
21
15.0595894033
31
0.0000000000
11
7.9226677436
21
15.0403820337
31
0.0000000000
11
7.9368154509
21
15.0224723382
31
0.0000000000
11
7.9526470631
21
15.0060320473
31
0.0000000000
11
7.9700107758
21
14.9912188017
31
0.0000000000
11
7.9887400937
21
14.9781746411
31
0.0000000000
11
8.0086554272
21
14.9670246418
31
0.0000000000
11
8.0295658145
21
14.9578757177
31
0.0000000000
11
8.0512707524
21
14.9508155949
31
0.0000000000
11
8.0735621190
21
14.9459119709
31
0.0000000000
11
8.0962261693
21
14.9432118648
31
0.0000000000
11
8.1190455850
21
14.9427411671
31
0.0000000000
11
8.1418015576
21
14.9445043913
31
0.0000000000
11
8.1642758874
21
14.9484846303
31
0.0000000000
11
8.1862530750
21
14.9546437189
31
0.0000000000
11
8.2075223880
21
14.9629225995
31
0.0000000000
11
8.2278798816
21
14.9732418884
31
0.0000000000
11
8.2471303542
21
14.9855026373
31
0.0000000000
11
8.2650892190
21
14.9995872817
31
0.0000000000
11
8.2815842741
21
15.0153607683
31
0.0000000000
11
8.2964573535
21
15.0326718500
31
0.0000000000
11
8.3095658440
21
15.0513545364
31
0.0000000000
11
8.3207840522
21
15.0712296849
31
0.0000000000
11
8.3300044104
21
15.0921067191
31
0.0000000000
11
8.3371385074
21
15.1137854555
31
0.0000000000
11
8.3421179366
21
15.1360580235
31
0.0000000000
11
8.3448949517
21
15.1587108584
31
0.0000000000
11
8.3454429248
21
15.1815267493
31
0.0000000000
11
8.3437566017
21
15.2042869217
31
0.0000000000
11
8.3398521519
21
15.2267731354
31
0.0000000000
11
8.3337670139
21
15.2487697772
31
0.0000000000
11
8.3255595363
21
15.2700659282
31
0.0000000000
11
8.3153084180
21
15.2904573861
31
0.0000000000
11
8.3031119538
21
15.3097486237
31
0.0000000000
11
8.2890870917
21
15.3277546634
31
0.0000000000
11
8.2733683118
21
15.3443028508
31
0.0000000000
11
8.2561063366
21
15.3592345106
31
0.0000000000
11
8.2374666856
21
15.3724064678
31
0.0000000000
11
8.2176280888
21
15.3836924204
31
0.0000000000
11
8.1967807722
21
15.3929841512
31
0.0000000000
11
8.1751246342
21
15.4001925646
31
0.0000000000
11
8.1528673287
21
15.4052485413
31
0.0000000000
11
8.1302222742
21
15.4081036012
31
0.0000000000
11
8.1074066069
21
15.4087303680
31
0.0000000000
11
8.0846390991
21
15.4071228318
31
0.0000000000
11
8.0621380614
21
15.4032964068
31
0.0000000000
0
SPLINE
5
5F4
100
AcDbEntity
8
0
100
AcDbSpline
62
7
6
CONTINUOUS
70
0
71
3
72
24
73
20
74
18
42
0.0000001000
43
0.0000001000
44
0.0000000001
40
0.0000000000
40
0.0000000000
40
0.0000000000
40
0.0000000000
40
0.0334088647
40
0.0679055274
40
0.1045918102
40
0.1444767575
40
0.1885505142
40
0.2377784506
40
0.2931059681
40
0.3554213550
40
0.4246838710
40
0.4964764777
40
0.5655749295
40
0.6305420250
40
0.6926924971
40
0.7556237833
40
0.8254315446
40
0.9069269353
40
1.0000000000
40
1.0000000000
40
1.0000000000
40
1.0000000000
10
3.1834326307
20
7.2772685937
30
4.1619655790
10
3.1887786202
20
7.2127952161
30
4.1619655790
10
3.2006113506
20
7.0818268872
30
4.1619655790
10
3.2221318956
20
6.8804267255
30
4.1619655790
10
3.2489938496
20
6.6670183705
30
4.1619655790
10
3.2833246320
20
6.4359082344
30
4.1619655790
10
3.3281485214
20
6.1818842848
30
4.1619655790
10
3.3878209890
20
5.9002533639
30
4.1619655790
10
3.4686527395
20
5.5872518823
30
4.1619655790
10
3.5794286659
20
5.2424055607
30
4.1619655790
10
3.7293431451
20
4.8776369194
30
4.1619655790
10
3.9233183036
20
4.5187766930
30
4.1619655790
10
4.1577323917
20
4.1947159691
30
4.1619655790
10
4.4242513682
20
3.9218535590
30
4.1619655790
10
4.7199009071
20
3.7002774792
30
4.1619655790
10
5.0541982052
20
3.5220931830
30
4.1619655790
10
5.4471099746
20
3.3841246443
30
4.1619655790
10
5.9135071508
20
3.2950674429
30
4.1619655790
10
6.2520952366
20
3.2769466708
30
4.1619655790
10
6.4323266790
20
3.2769976733
30
4.1619655790
11
3.1834326307
21
7.2772685937
31
4.1619655790
11
3.2009396352
21
7.0839758906
31
4.1619655790
11
3.2222847793
21
6.8847125650
31
4.1619655790
11
3.2489709333
21
6.6732663204
31
4.1619655790
11
3.2831177267
21
6.4440904972
31
4.1619655790
11
3.3277658216
21
6.1919733627
31
4.1619655790
11
3.3872938243
21
5.9122549281
31
4.1619655790
11
3.4680855321
21
5.6011574146
31
4.1619655790
11
3.5795747547
21
5.2567406194
31
4.1619655790
11
3.7337994305
21
4.8851000283
31
4.1619655790
11
3.9336959575
21
4.5190568190
31
4.1619655790
11
4.1702568313
21
4.1947501168
31
4.1619655790
11
4.4346300595
21
3.9253985571
31
4.1619655790
11
4.7236169425
21
3.7089577458
31
4.1619655790
11
5.0459446577
21
3.5364440835
31
4.1619655790
11
5.4280738248
21
3.4006562071
31
4.1619655790
11
5.8925922522
21
3.3092021347
31
4.1619655790
11
6.4323266790
21
3.2769976733
31
4.1619655790
0
SPLINE
5
5F5
100
AcDbEntity
8
0
100
AcDbSpline
62
7
6
CONTINUOUS
70
0
71
3
72
25
73
21
74
19
42
0.0000001000
43
0.0000001000
44
0.0000000001
40
0.0000000000
40
0.0000000000
40
0.0000000000
40
0.0000000000
40
0.0535952788
40
0.1091827488
40
0.1660284012
40
0.2235638248
40
0.2814910794
40
0.3400309028
40
0.4002030569
40
0.4640288909
40
0.5328363799
40
0.6036169118
40
0.6707949793
40
0.7317259538
40
0.7868339173
40
0.8368131982
40
0.8823719708
40
0.9242406613
40
0.9631723617
40
1.0000000000
40
1.0000000000
40
1.0000000000
40
1.0000000000
10
13.7123803284
20
3.2769977735
30
4.1619655790
10
13.8161779151
20
3.2769693145
30
4.1619655790
10
14.0277151911
20
3.2835744381
30
4.1619655790
10
14.3477976151
20
3.3177665251
30
4.1619655790
10
14.6710990973
20
3.3825444571
30
4.1619655790
10
14.9899622992
20
3.4835750879
30
4.1619655790
10
15.2966385195
20
3.6257235707
30
4.1619655790
10
15.5847059253
20
3.8124419581
30
4.1619655790
10
15.8512133493
20
4.0466064986
30
4.1619655790
10
16.0941309041
20
4.3318311482
30
4.1619655790
10
16.3069729998
20
4.6646605387
30
4.1619655790
10
16.4813751711
20
5.0260020696
30
4.1619655790
10
16.6153903724
20
5.3875834093
30
4.1619655790
10
16.7148838436
20
5.7284087937
30
4.1619655790
10
16.7885076031
20
6.0415091615
30
4.1619655790
10
16.8435685396
20
6.3280863547
30
4.1619655790
10
16.8852580785
20
6.5909527144
30
4.1619655790
10
16.9172254308
20
6.8335978772
30
4.1619655790
10
16.9420671856
20
7.0600632154
30
4.1619655790
10
16.9553806106
20
7.2061887340
30
4.1619655790
10
16.9612743863
20
7.2772686256
30
4.1619655790
11
13.7123803284
21
3.2769977735
31
4.1619655790
11
14.0236032808
21
3.2872803884
31
4.1619655790
11
14.3446642540
21
3.3223217240
31
4.1619655790
11
14.6683296640
21
3.3880793061
31
4.1619655790
11
14.9867126037
21
3.4899565863
31
4.1619655790
11
15.2917656356
21
3.6321415151
31
4.1619655790
11
15.5771129965
21
3.8172337980
31
4.1619655790
11
15.8400360360
21
4.0476575046
31
4.1619655790
11
16.0812951255
21
4.3292800164
31
4.1619655790
11
16.2980275247
21
4.6652095347
31
4.1619655790
11
16.4782527130
21
5.0348547437
31
4.1619655790
11
16.6149927565
21
5.4004281714
31
4.1619655790
11
16.7148603330
21
5.7400635553
31
4.1619655790
11
16.7885287999
21
6.0516549653
31
4.1619655790
11
16.8435606646
21
6.3367761575
31
4.1619655790
11
16.8851807775
21
6.5981836511
31
4.1619655790
11
16.9170616145
21
6.8393458823
31
4.1619655790
11
16.9418021918
21
7.0641850226
31
4.1619655790
11
16.9612743863
21
7.2772686256
31
4.1619655790
0
SPLINE
5
5F6
100
AcDbEntity
8
0
100
AcDbSpline
62
7
6
CONTINUOUS
70
0
71
3
72
25
73
21
74
19
42
0.0000001000
43
0.0000001000
44
0.0000000001
40
0.0000000000
40
0.0000000000
40
0.0000000000
40
0.0000000000
40
0.0315177106
40
0.0639765411
40
0.0983025138
40
0.1353449521
40
0.1759392410
40
0.2209013719
40
0.2710269350
40
0.3271084852
40
0.3897010884
40
0.4570262304
40
0.5242502341
40
0.5879493374
40
0.6482556716
40
0.7065780979
40
0.7667486422
40
0.8339630610
40
0.9118522177
40
1.0000000000
40
1.0000000000
40
1.0000000000
40
1.0000000000
10
16.9612743699
20
17.7379581407
30
4.1619655790
10
16.9562307040
20
17.7987854010
30
4.1619655790
10
16.9451334300
20
17.9221870205
30
4.1619655790
10
16.9251777739
20
18.1115151618
30
4.1619655790
10
16.9006194154
20
18.3110895054
30
4.1619655790
10
16.8697513946
20
18.5257215785
30
4.1619655790
10
16.8301958245
20
18.7598527081
30
4.1619655790
10
16.7786042092
20
19.0175448959
30
4.1619655790
10
16.7102188377
20
19.3022855139
30
4.1619655790
10
16.6183230322
20
19.6161703722
30
4.1619655790
10
16.4946777666
20
19.9548425777
30
4.1619655790
10
16.3327631942
20
20.3012875943
30
4.1619655790
10
16.1320746566
20
20.6297141914
30
4.1619655790
10
15.8986842663
20
20.9187469925
30
4.1619655790
10
15.6392913117
20
21.1601179373
30
4.1619655790
10
15.3533190456
20
21.3574528366
30
4.1619655790
10
15.0299982971
20
21.5176637662
30
4.1619655790
10
14.6510119728
20
21.6420165411
30
4.1619655790
10
14.2050749359
20
21.7219440820
30
4.1619655790
10
13.8830839849
20
21.7382775914
30
4.1619655790
10
13.7123803283
20
21.7382292967
30
4.1619655790
11
16.9612743699
21
17.7379581407
31
4.1619655790
11
16.9448379442
21
17.9203269740
31
4.1619655790
11
16.9250278739
21
18.1078591855
31
4.1619655790
11
16.9006152882
21
18.3057824428
31
4.1619655790
11
16.8699009702
21
18.5187843316
31
4.1619655790
11
16.8304957029
21
18.7513091170
31
4.1619655790
11
16.7790338949
21
19.0074056288
31
4.1619655790
11
16.7107359781
21
19.2904972729
31
4.1619655790
11
16.6186780195
21
19.6030377482
31
4.1619655790
11
16.4931028632
21
19.9443109652
31
4.1619655790
11
16.3262457833
21
20.2980730758
31
4.1619655790
11
16.1213211857
21
20.6305419000
31
4.1619655790
11
15.8879273055
21
20.9177360055
31
4.1619655790
11
15.6310507535
21
21.1559946855
31
4.1619655790
11
15.3522095665
21
21.3484960160
31
4.1619655790
11
15.0392712411
21
21.5042849475
31
4.1619655790
11
14.6686781641
21
21.6273576438
31
4.1619655790
11
14.2236849804
21
21.7095026737
31
4.1619655790
11
13.7123803283
21
21.7382292967
31
4.1619655790
0
SPLINE
5
5F7
100
AcDbEntity
8
0
100
AcDbSpline
62
7
6
CONTINUOUS
70
0
71
3
72
25
73
21
74
19
42
0.0000001000
43
0.0000001000
44
0.0000000001
40
0.0000000000
40
0.0000000000
40
0.0000000000
40
0.0000000000
40
0.0533655695
40
0.1088429876
40
0.1656698205
40
0.2232444122
40
0.2812337887
40
0.3398251927
40
0.4000150270
40
0.4638353634
40
0.5326385011
40
0.6034350431
40
0.6706462851
40
0.7316099577
40
0.7867435292
40
0.8367435981
40
0.8823200811
40
0.9242050941
40
0.9631534247
40
1.0000000000
40
1.0000000000
40
1.0000000000
40
1.0000000000
10
6.4323266790
20
21.7382289551
30
4.1619655790
10
6.3289739882
20
21.7382572865
30
4.1619655790
10
6.1180959602
20
21.7317010833
30
4.1619655790
10
5.7986926545
20
21.6977168570
30
4.1619655790
10
5.4755236757
20
21.6331718679
30
4.1619655790
10
5.1564375177
20
21.5323164718
30
4.1619655790
10
4.8493942674
20
21.3902509289
30
4.1619655790
10
4.5610041607
20
21.2035573845
30
4.1619655790
10
4.2942915376
20
20.9694370764
30
4.1619655790
10
4.0512434121
20
20.6843029205
30
4.1619655790
10
3.8382714282
20
20.3515412526
30
4.1619655790
10
3.6637261429
20
19.9901708084
30
4.1619655790
10
3.5295826944
20
19.6284668150
30
4.1619655790
10
3.4299947059
20
19.2874839983
30
4.1619655790
10
3.3563089082
20
18.9742406944
30
4.1619655790
10
3.3012079304
20
18.6875447174
30
4.1619655790
10
3.2594916586
20
18.4245750937
30
4.1619655790
10
3.2275055207
20
18.1818334533
30
4.1619655790
10
3.2026497085
20
17.9552685825
30
4.1619655790
10
3.1893294257
20
17.8090745359
30
4.1619655790
10
3.1834326203
20
17.7379581082
30
4.1619655790
11
6.4323266790
21
21.7382289551
31
4.1619655790
11
6.1224361488
21
21.7280370557
31
4.1619655790
11
5.8019958737
21
21.6932027911
31
4.1619655790
11
5.4783971697
21
21.6276666982
31
4.1619655790
11
5.1597267113
21
21.5259417187
31
4.1619655790
11
4.8542518127
21
21.3838078641
31
4.1619655790
11
4.5685485836
21
21.1987137255
31
4.1619655790
11
4.3054397466
21
20.9683463265
31
4.1619655790
11
4.0640837004
21
20.6868490695
31
4.1619655790
11
3.8472412855
21
20.3510207390
31
4.1619655790
11
3.6668669974
21
19.9813448447
31
4.1619655790
11
3.5299841985
21
19.6156191131
31
4.1619655790
11
3.4300173927
21
19.2758149586
31
4.1619655790
11
3.3562873467
21
18.9640852849
31
4.1619655790
11
3.3012158504
21
18.6788487897
31
4.1619655790
11
3.2595693556
21
18.4173413522
31
4.1619655790
11
3.2276700666
21
18.1760859465
31
4.1619655790
11
3.2029157737
21
17.9511511527
31
4.1619655790
11
3.1834326203
21
17.7379581082
31
4.1619655790
0
SPLINE
5
5F8
100
AcDbEntity
8
0
100
AcDbSpline
62
7
6
CONTINUOUS
70
0
71
3
72
25
73
21
74
19
42
0.0000001000
43
0.0000001000
44
0.0000000001
40
0.0000000000
40
0.0000000000
40
0.0000000000
40
0.0000000000
40
0.0533655695
40
0.1088429876
40
0.1656698205
40
0.2232444122
40
0.2812337887
40
0.3398251927
40
0.4000150270
40
0.4638353634
40
0.5326385011
40
0.6034350431
40
0.6706462851
40
0.7316099577
40
0.7867435292
40
0.8367435981
40
0.8823200811
40
0.9242050941
40
0.9631534247
40
1.0000000000
40
1.0000000000
40
1.0000000000
40
1.0000000000
10
6.4325322719
20
22.4882289269
30
4.1619655790
10
6.3134913599
20
22.4882615589
30
4.1619655790
10
6.0680115758
20
22.4807243346
30
4.1619655790
10
5.6870070635
20
22.4403947785
30
4.1619655790
10
5.2903877546
20
22.3614881372
30
4.1619655790
10
4.8864900804
20
22.2342329582
30
4.1619655790
10
4.4867974763
20
22.0496485311
30
4.1619655790
10
4.1064990100
20
21.8035446028
30
4.1619655790
10
3.7567605900
20
21.4962403092
30
4.1619655790
10
3.4447361044
20
21.1294723705
30
4.1619655790
10
3.1804423358
20
20.7154349567
30
4.1619655790
10
2.9717659601
20
20.2823165760
30
4.1619655790
10
2.8165527553
20
19.8630166522
30
4.1619655790
10
2.7041985904
20
19.4778542909
30
4.1619655790
10
2.6225495786
20
19.1304799674
30
4.1619655790
10
2.5622914101
20
18.8167712301
30
4.1619655790
10
2.5171521393
20
18.5320960340
30
4.1619655790
10
2.4828305909
20
18.2715405523
30
4.1619655790
10
2.4563434623
20
18.0300365037
30
4.1619655790
10
2.4422305630
20
17.8751035680
30
4.1619655790
10
2.4359976511
20
17.7999336424
30
4.1619655790
11
6.4325322719
21
22.4882289269
31
4.1619655790
11
6.0716121560
21
22.4763130220
31
4.1619655790
11
5.6891529762
21
22.4346651843
31
4.1619655790
11
5.2919020869
21
22.3541098027
31
4.1619655790
11
4.8888354009
21
22.2253113619
31
4.1619655790
11
4.4923232360
21
22.0407003251
31
4.1619655790
11
4.1167602470
21
21.7973682995
31
4.1619655790
11
3.7723917018
21
21.4959444519
31
4.1619655790
11
3.4625971756
21
21.1348601860
31
4.1619655790
11
3.1928741145
21
20.7174953023
31
4.1619655790
11
2.9764630216
21
20.2743334966
31
4.1619655790
11
2.8175702735
21
19.8500682538
31
4.1619655790
11
2.7045099252
21
19.4659173379
31
4.1619655790
11
2.6226786948
21
19.1200286909
31
4.1619655790
11
2.5623916843
21
18.8078404619
31
4.1619655790
11
2.5172905450
21
18.5246827109
31
4.1619655790
11
2.4830409906
21
18.2656824822
31
4.1619655790
11
2.4566485392
21
18.0258854469
31
4.1619655790
11
2.4359976511
21
17.7999336424
31
4.1619655790
0
SPLINE
5
5F9
100
AcDbEntity
8
0
100
AcDbSpline
62
7
6
CONTINUOUS
70
0
71
3
72
24
73
20
74
18
42
0.0000001000
43
0.0000001000
44
0.0000000001
40
0.0000000000
40
0.0000000000
40
0.0000000000
40
0.0000000000
40
0.0334088647
40
0.0679055274
40
0.1045918102
40
0.1444767575
40
0.1885505142
40
0.2377784506
40
0.2931059681
40
0.3554213550
40
0.4246838710
40
0.4964764777
40
0.5655749295
40
0.6305420250
40
0.6926924971
40
0.7556237833
40
0.8254315446
40
0.9069269353
40
1.0000000000
40
1.0000000000
40
1.0000000000
40
1.0000000000
10
2.4359976711
20
7.2152929443
30
4.1619655790
10
2.4416483798
20
7.1471446110
30
4.1619655790
10
2.4541827634
20
7.0083808607
30
4.1619655790
10
2.4770969613
20
6.7938898950
30
4.1619655790
10
2.5058699100
20
6.5652385049
30
4.1619655790
10
2.5429058313
20
6.3158352552
30
4.1619655790
10
2.5916885556
20
6.0392543604
30
4.1619655790
10
2.6573579268
20
5.7291375868
30
4.1619655790
10
2.7475902900
20
5.3794272990
30
4.1619655790
10
2.8737462858
20
4.9861606105
30
4.1619655790
10
3.0492805657
20
4.5581431314
30
4.1619655790
10
3.2845615616
20
4.1216745304
30
4.1619655790
10
3.5799895143
20
3.7121873946
30
4.1619655790
10
3.9265180637
20
3.3568018815
30
4.1619655790
10
4.3164038964
20
3.0645265763
30
4.1619655790
10
4.7543425707
20
2.8314446173
30
4.1619655790
10
5.2562018987
20
2.6559368131
30
4.1619655790
10
5.8282893823
20
2.5476200971
30
4.1619655790
10
6.2253633142
20
2.5269390760
30
4.1619655790
10
6.4325389166
20
2.5269977033
30
4.1619655790
11
2.4359976711
21
7.2152929443
31
4.1619655790
11
2.4545489854
21
7.0104844087
31
4.1619655790
11
2.4772855500
21
6.7982478420
31
4.1619655790
11
2.5058836512
21
6.5716725644
31
4.1619655790
11
2.5427433515
21
6.3243166080
31
4.1619655790
11
2.5913738422
21
6.0497522229
31
4.1619655790
11
2.6569551932
21
5.7416516341
31
4.1619655790
11
2.7473047431
21
5.3938531594
31
4.1619655790
11
2.8746100565
21
5.0007625456
31
4.1619655790
11
3.0558183729
21
4.5644106373
31
4.1619655790
11
3.2991210689
21
4.1192884976
31
4.1619655790
11
3.5977049282
21
3.7103078413
31
4.1619655790
11
3.9409701582
21
3.3607748755
31
4.1619655790
11
4.3208427133
21
3.0762864881
31
4.1619655790
11
4.7417384104
21
2.8509088480
31
4.1619655790
11
5.2287725733
21
2.6776216220
31
4.1619655790
11
5.7986593973
21
2.5651076389
31
4.1619655790
11
6.4325389166
21
2.5269977033
31
4.1619655790
0
SPLINE
5
5FA
100
AcDbEntity
8
0
100
AcDbSpline
62
7
6
CONTINUOUS
70
0
71
3
72
25
73
21
74
19
42
0.0000001000
43
0.0000001000
44
0.0000000001
40
0.0000000000
40
0.0000000000
40
0.0000000000
40
0.0000000000
40
0.0535952788
40
0.1091827488
40
0.1660284012
40
0.2235638248
40
0.2814910794
40
0.3400309028
40
0.4002030569
40
0.4640288909
40
0.5328363799
40
0.6036169118
40
0.6707949793
40
0.7317259538
40
0.7868339173
40
0.8368131982
40
0.8823719708
40
0.9242406613
40
0.9631723617
40
1.0000000000
40
1.0000000000
40
1.0000000000
40
1.0000000000
10
13.7121746951
20
2.5269978017
30
4.1619655790
10
13.8317278112
20
2.5269650229
30
4.1619655790
10
14.0779863197
20
2.5345583289
30
4.1619655790
10
14.4598528155
20
2.5751397627
30
4.1619655790
10
14.8567076112
20
2.6543458752
30
4.1619655790
10
15.2603970112
20
2.7818468865
30
4.1619655790
10
15.6596540810
20
2.9665607182
30
4.1619655790
10
16.0395300060
20
3.2127010491
30
4.1619655790
10
16.3889833477
20
3.5200500853
30
4.1619655790
10
16.7008135234
20
3.8869037957
30
4.1619655790
10
16.9649181875
20
4.3009818199
30
4.1619655790
10
17.1734034210
20
4.7340229272
30
4.1619655790
10
17.3284573297
20
5.1531500075
30
4.1619655790
10
17.4406997468
20
5.5381162521
30
4.1619655790
10
17.5222777728
20
5.8853221671
30
4.1619655790
10
17.5824910722
20
6.1988951263
30
4.1619655790
10
17.6276008499
20
6.4834548600
30
4.1619655790
10
17.6619019895
20
6.7439047886
30
4.1619655790
10
17.6883740261
20
6.9853016662
30
4.1619655790
10
17.7024796457
20
7.1401617795
30
4.1619655790
10
17.7087093557
20
7.2152930947
30
4.1619655790
11
13.7121746951
21
2.5269978017
31
4.1619655790
11
14.0746646794
21
2.5390205849
31
4.1619655790
11
14.4579171693
21
2.5809218473
31
4.1619655790
11
14.8553219539
21
2.6617640278
31
4.1619655790
11
15.2580947189
21
2.7907772476
31
4.1619655790
11
15.6541004698
21
2.9754730539
31
4.1619655790
11
16.0292022544
21
3.2188064400
31
4.1619655790
11
16.3733139086
21
3.5202916821
31
4.1619655790
11
16.6829596299
21
3.8815079492
31
4.1619655790
11
16.9525188158
21
4.2989566851
31
4.1619655790
11
17.1687301366
21
4.7420392258
31
4.1619655790
11
17.3274454265
21
5.1660967972
31
4.1619655790
11
17.4403880483
21
5.5500384666
31
4.1619655790
11
17.5221484871
21
5.8957634818
31
4.1619655790
11
17.5823909566
21
6.2078195770
31
4.1619655790
11
17.6274629393
21
6.4908654688
31
4.1619655790
11
17.6616924062
21
6.7497636067
31
4.1619655790
11
17.6880701136
21
6.9894575917
31
4.1619655790
11
17.7087093557
21
7.2152930947
31
4.1619655790
0
SPLINE
5
5FB
100
AcDbEntity
8
0
100
AcDbSpline
62
7
6
CONTINUOUS
70
0
71
3
72
25
73
21
74
19
42
0.0000001000
43
0.0000001000
44
0.0000000001
40
0.0000000000
40
0.0000000000
40
0.0000000000
40
0.0000000000
40
0.0315177106
40
0.0639765411
40
0.0983025138
40
0.1353449521
40
0.1759392410
40
0.2209013719
40
0.2710269350
40
0.3271084852
40
0.3897010884
40
0.4570262304
40
0.5242502341
40
0.5879493374
40
0.6482556716
40
0.7065780979
40
0.7667486422
40
0.8339630610
40
0.9118522177
40
1.0000000000
40
1.0000000000
40
1.0000000000
40
1.0000000000
10
17.7087093251
20
17.7999338439
30
4.1619655790
10
17.7033781547
20
17.8642284451
30
4.1619655790
10
17.6916241365
20
17.9949576179
30
4.1619655790
10
17.6703852975
20
18.1964999819
30
4.1619655790
10
17.6441023621
20
18.4101387782
30
4.1619655790
10
17.6108502562
20
18.6414129747
30
4.1619655790
10
17.5679014129
20
18.8957223568
30
4.1619655790
10
17.5113271131
20
19.1784375619
30
4.1619655790
10
17.4354083413
20
19.4947593536
30
4.1619655790
10
17.3316848682
20
19.8494052443
30
4.1619655790
10
17.1888908233
20
20.2411441409
30
4.1619655790
10
16.9961870842
20
20.6543795109
30
4.1619655790
10
16.7486944378
20
21.0604121186
30
4.1619655790
10
16.4507439589
20
21.4301793489
30
4.1619655790
10
16.1112990953
20
21.7464057751
30
4.1619655790
10
15.7341762394
20
22.0066002632
30
4.1619655790
10
15.3122758614
20
22.2153108959
30
4.1619655790
10
14.8305817604
20
22.3727304770
30
4.1619655790
10
14.2856065780
20
22.4696261786
30
4.1619655790
10
13.9084122604
20
22.4882847872
30
4.1619655790
10
13.7121681417
20
22.4882292667
30
4.1619655790
11
17.7087093251
21
17.7999338439
31
4.1619655790
11
17.6912950220
21
17.9931406468
31
4.1619655790
11
17.6702036615
21
18.1927888365
31
4.1619655790
11
17.6440660322
21
18.4046813368
31
4.1619655790
11
17.6109626282
21
18.6342296392
31
4.1619655790
11
17.5681479608
21
18.8868419409
31
4.1619655790
11
17.5116676739
21
19.1678666703
31
4.1619655790
11
17.4357435878
21
19.4824971840
31
4.1619655790
11
17.3316246420
21
19.8358619599
31
4.1619655790
11
17.1861980113
21
20.2308752961
31
4.1619655790
11
16.9869618604
21
20.6529734358
31
4.1619655790
11
16.7336047215
21
21.0636802980
31
4.1619655790
11
16.4355220623
21
21.4302201343
31
4.1619655790
11
16.1000188459
21
21.7412885674
31
4.1619655790
11
15.7334049250
21
21.9943985617
31
4.1619655790
11
15.3261544644
21
22.1972481616
31
4.1619655790
11
14.8559473427
21
22.3536015799
31
4.1619655790
11
14.3119384050
21
22.4542921292
31
4.1619655790
11
13.7121681417
21
22.4882292667
31
4.1619655790
0
ENDSEC
0
SECTION
2
OBJECTS
0
DICTIONARY
5
5FC
100
AcDbDictionary
3
ACAD_GROUP
350
5FD
3
ACAD_MLINESTYLE
350
5FE
0
DICTIONARY
5
5FD
102
{ACAD_REACTORS
330
5FC
102
}
100
AcDbDictionary
0
DICTIONARY
5
5FE
102
{ACAD_REACTORS
330
5FC
102
}
100
AcDbDictionary
3
STANDARD
350
5FF
0
MLINESTYLE
5
5FF
102
{ACAD_REACTORS
330
5FE
102
}
100
AcDbMlineStyle
2
STANDARD
70
0
3

62
256
51
90.0
52
90.0
71
2
49
0.5
62
256
6
BYLAYER
49
-0.5
62
256
6
BYLAYER
0
ENDSEC
0
EOF
