  0
SECTION
  2
HEADER
  9
$ACADVER
  1
AC1015
  9
$ACADMAINTVER
 70
    20
  9
$DWGCODEPAGE
  3
ANSI_1252
  9
$INSBASE
 10
0.0
 20
0.0
 30
0.0
  9
$EXTMIN
 10
0.0
 20
0.0
 30
0.0
  9
$EXTMAX
 10
34.0
 20
22.0
 30
0.0
  9
$LIMMIN
 10
0.0
 20
0.0
  9
$LIMMAX
 10
12.0
 20
9.0
  9
$ORTHOMODE
 70
     0
  9
$REGENMODE
 70
     1
  9
$FILLMODE
 70
     1
  9
$QTEXTMODE
 70
     0
  9
$MIRRTEXT
 70
     0
  9
$LTSCALE
 40
1.0
  9
$ATTMODE
 70
     1
  9
$TEXTSIZE
 40
1.0
  9
$TRACEWID
 40
0.05
  9
$TEXTSTYLE
  7
STANDARD
  9
$CLAYER
  8
1
  9
$CELTYPE
  6
Continuous
  9
$CECOLOR
 62
     1
  9
$CELTSCALE
 40
1.0
  9
$DISPSILH
 70
     0
  9
$DIMSCALE
 40
1.0
  9
$DIMASZ
 40
0.125
  9
$DIMEXO
 40
0.0625
  9
$DIMDLI
 40
0.25
  9
$DIMRND
 40
0.0
  9
$DIMDLE
 40
0.0
  9
$DIMEXE
 40
0.125
  9
$DIMTP
 40
0.005
  9
$DIMTM
 40
-0.005
  9
$DIMTXT
 40
0.125
  9
$DIMCEN
 40
0.09
  9
$DIMTSZ
 40
0.0
  9
$DIMTOL
 70
     0
  9
$DIMLIM
 70
     0
  9
$DIMTIH
 70
     1
  9
$DIMTOH
 70
     1
  9
$DIMSE1
 70
     0
  9
$DIMSE2
 70
     0
  9
$DIMTAD
 70
     0
  9
$DIMZIN
 70
     0
  9
$DIMBLK
  1

  9
$DIMASO
 70
     1
  9
$DIMSHO
 70
     1
  9
$DIMPOST
  1

  9
$DIMAPOST
  1

  9
$DIMALT
 70
     0
  9
$DIMALTD
 70
     0
  9
$DIMALTF
 40
25.4
  9
$DIMLFAC
 40
1.0
  9
$DIMTOFL
 70
     1
  9
$DIMTVP
 40
0.0
  9
$DIMTIX
 70
     0
  9
$DIMSOXD
 70
     0
  9
$DIMSAH
 70
     0
  9
$DIMBLK1
  1

  9
$DIMBLK2
  1

  9
$DIMSTYLE
  2
DSTYLE1
  9
$DIMCLRD
 70
     0
  9
$DIMCLRE
 70
     0
  9
$DIMCLRT
 70
     0
  9
$DIMTFAC
 40
1.0
  9
$DIMGAP
 40
0.0625
  9
$DIMJUST
 70
     0
  9
$DIMSD1
 70
     0
  9
$DIMSD2
 70
     0
  9
$DIMTOLJ
 70
     1
  9
$DIMTZIN
 70
     0
  9
$DIMALTZ
 70
     0
  9
$DIMALTTZ
 70
     0
  9
$DIMUPT
 70
     0
  9
$DIMDEC
 70
     4
  9
$DIMTDEC
 70
     4
  9
$DIMALTU
 70
     2
  9
$DIMALTTD
 70
     2
  9
$DIMTXSTY
  7
STANDARD
  9
$DIMAUNIT
 70
     0
  9
$DIMADEC
 70
     0
  9
$DIMALTRND
 40
0.0
  9
$DIMAZIN
 70
     0
  9
$DIMDSEP
 70
    46
  9
$DIMATFIT
 70
     3
  9
$DIMFRAC
 70
     0
  9
$DIMLDRBLK
  1

  9
$DIMLUNIT
 70
     2
  9
$DIMLWD
 70
    -2
  9
$DIMLWE
 70
    -2
  9
$DIMTMOVE
 70
     0
  9
$LUNITS
 70
     2
  9
$LUPREC
 70
     3
  9
$SKETCHINC
 40
0.1
  9
$FILLETRAD
 40
0.5
  9
$AUNITS
 70
     0
  9
$AUPREC
 70
     1
  9
$MENU
  1
.
  9
$ELEVATION
 40
0.0
  9
$PELEVATION
 40
0.0
  9
$THICKNESS
 40
0.0
  9
$LIMCHECK
 70
     0
  9
$CHAMFERA
 40
0.25
  9
$CHAMFERB
 40
0.25
  9
$CHAMFERC
 40
0.0
  9
$CHAMFERD
 40
0.0
  9
$SKPOLY
 70
     0
  9
$TDCREATE
 40
2454965.342172106
  9
$TDUCREATE
 40
2454965.592172106
  9
$TDUPDATE
 40
2455153.697411042
  9
$TDUUPDATE
 40
2455153.947411042
  9
$TDINDWG
 40
0.0036101273
  9
$TDUSRTIMER
 40
0.0036099421
  9
$USRTIMER
 70
     1
  9
$ANGBASE
 50
0.0
  9
$ANGDIR
 70
     0
  9
$PDMODE
 70
     2
  9
$PDSIZE
 40
-0.01
  9
$PLINEWID
 40
0.0
  9
$SPLFRAME
 70
     0
  9
$SPLINETYPE
 70
     6
  9
$SPLINESEGS
 70
     8
  9
$HANDSEED
  5
2EA
  9
$SURFTAB1
 70
     6
  9
$SURFTAB2
 70
     6
  9
$SURFTYPE
 70
     6
  9
$SURFU
 70
     6
  9
$SURFV
 70
     6
  9
$UCSBASE
  2

  9
$UCSNAME
  2

  9
$UCSORG
 10
0.0
 20
0.0
 30
0.0
  9
$UCSXDIR
 10
1.0
 20
0.0
 30
0.0
  9
$UCSYDIR
 10
0.0
 20
1.0
 30
0.0
  9
$UCSORTHOREF
  2

  9
$UCSORTHOVIEW
 70
     0
  9
$UCSORGTOP
 10
0.0
 20
0.0
 30
0.0
  9
$UCSORGBOTTOM
 10
0.0
 20
0.0
 30
0.0
  9
$UCSORGLEFT
 10
0.0
 20
0.0
 30
0.0
  9
$UCSORGRIGHT
 10
0.0
 20
0.0
 30
0.0
  9
$UCSORGFRONT
 10
0.0
 20
0.0
 30
0.0
  9
$UCSORGBACK
 10
0.0
 20
0.0
 30
0.0
  9
$PUCSBASE
  2

  9
$PUCSNAME
  2

  9
$PUCSORG
 10
0.0
 20
0.0
 30
0.0
  9
$PUCSXDIR
 10
1.0
 20
0.0
 30
0.0
  9
$PUCSYDIR
 10
0.0
 20
1.0
 30
0.0
  9
$PUCSORTHOREF
  2

  9
$PUCSORTHOVIEW
 70
     0
  9
$PUCSORGTOP
 10
0.0
 20
0.0
 30
0.0
  9
$PUCSORGBOTTOM
 10
0.0
 20
0.0
 30
0.0
  9
$PUCSORGLEFT
 10
0.0
 20
0.0
 30
0.0
  9
$PUCSORGRIGHT
 10
0.0
 20
0.0
 30
0.0
  9
$PUCSORGFRONT
 10
0.0
 20
0.0
 30
0.0
  9
$PUCSORGBACK
 10
0.0
 20
0.0
 30
0.0
  9
$USERI1
 70
     0
  9
$USERI2
 70
     0
  9
$USERI3
 70
     0
  9
$USERI4
 70
     0
  9
$USERI5
 70
     0
  9
$USERR1
 40
0.0
  9
$USERR2
 40
0.0
  9
$USERR3
 40
0.0
  9
$USERR4
 40
0.0
  9
$USERR5
 40
0.0
  9
$WORLDVIEW
 70
     1
  9
$SHADEDGE
 70
     3
  9
$SHADEDIF
 70
    70
  9
$TILEMODE
 70
     1
  9
$MAXACTVP
 70
    64
  9
$PINSBASE
 10
0.0
 20
0.0
 30
0.0
  9
$PLIMCHECK
 70
     0
  9
$PEXTMIN
 10
1.000000000000000E+20
 20
1.000000000000000E+20
 30
1.000000000000000E+20
  9
$PEXTMAX
 10
-1.000000000000000E+20
 20
-1.000000000000000E+20
 30
-1.000000000000000E+20
  9
$PLIMMIN
 10
0.0
 20
0.0
  9
$PLIMMAX
 10
12.0
 20
9.0
  9
$UNITMODE
 70
     0
  9
$VISRETAIN
 70
     1
  9
$PLINEGEN
 70
     0
  9
$PSLTSCALE
 70
     1
  9
$TREEDEPTH
 70
  3020
  9
$CMLSTYLE
  2
Standard
  9
$CMLJUST
 70
     0
  9
$CMLSCALE
 40
1.0
  9
$PROXYGRAPHICS
 70
     1
  9
$MEASUREMENT
 70
     0
  9
$CELWEIGHT
370
    -1
  9
$ENDCAPS
280
     0
  9
$JOINSTYLE
280
     0
  9
$LWDISPLAY
290
     0
  9
$INSUNITS
 70
     0
  9
$HYPERLINKBASE
  1

  9
$STYLESHEET
  1

  9
$XEDIT
290
     1
  9
$CEPSNTYPE
380
     0
  9
$PSTYLEMODE
290
     1
  9
$FINGERPRINTGUID
  2
{CC3050BA-B316-4179-9D78-7F95E05843B8}
  9
$VERSIONGUID
  2
{E6D01E3B-AB1F-431D-B021-5D44A02FDDCF}
  9
$EXTNAMES
290
     1
  9
$PSVPSCALE
 40
0.0
  9
$OLESTARTUP
290
     0
  0
ENDSEC
  0
SECTION
  2
CLASSES
  0
CLASS
  1
ACDBDICTIONARYWDFLT
  2
AcDbDictionaryWithDefault
  3
ObjectDBX Classes
 90
        0
280
     0
281
     0
  0
CLASS
  1
TABLESTYLE
  2
AcDbTableStyle
  3
ObjectDBX Classes
 90
     2047
280
     0
281
     0
  0
CLASS
  1
DICTIONARYVAR
  2
AcDbDictionaryVar
  3
ObjectDBX Classes
 90
        0
280
     0
281
     0
  0
CLASS
  1
ACDBPLACEHOLDER
  2
AcDbPlaceHolder
  3
ObjectDBX Classes
 90
        0
280
     0
281
     0
  0
CLASS
  1
LAYOUT
  2
AcDbLayout
  3
ObjectDBX Classes
 90
        0
280
     0
281
     0
  0
CLASS
  1
SORTENTSTABLE
  2
AcDbSortentsTable
  3
ObjectDBX Classes
 90
        0
280
     0
281
     0
  0
ENDSEC
  0
SECTION
  2
TABLES
  0
TABLE
  2
VPORT
  5
8
330
0
100
AcDbSymbolTable
 70
     2
  0
VPORT
  5
2E4
330
8
100
AcDbSymbolTableRecord
100
AcDbViewportTableRecord
  2
*Active
 70
     0
 10
0.0
 20
0.0
 11
1.0
 21
1.0
 12
17.0000000791624
 22
11.53137676618175
 13
0.0
 23
0.0
 14
1.0
 24
1.0
 15
0.0
 25
0.0
 16
0.0
 26
0.0
 36
1.0
 17
0.0
 27
0.0
 37
0.0
 40
23.27430011520523
 41
1.601217656012176
 42
50.0
 43
0.0
 44
0.0
 50
0.0
 51
0.0
 71
     0
 72
   100
 73
     1
 74
     1
 75
     0
 76
     0
 77
     0
 78
     0
281
     0
 65
     1
110
0.0
120
0.0
130
0.0
111
1.0
121
0.0
131
0.0
112
0.0
122
1.0
132
0.0
 79
     0
146
0.0
  0
ENDTAB
  0
TABLE
  2
LTYPE
  5
5
330
0
100
AcDbSymbolTable
 70
     8
  0
LTYPE
  5
13
330
5
100
AcDbSymbolTableRecord
100
AcDbLinetypeTableRecord
  2
ByBlock
 70
     0
  3

 72
    65
 73
     0
 40
0.0
  0
LTYPE
  5
14
330
5
100
AcDbSymbolTableRecord
100
AcDbLinetypeTableRecord
  2
ByLayer
 70
     0
  3

 72
    65
 73
     0
 40
0.0
  0
LTYPE
  5
15
330
5
100
AcDbSymbolTableRecord
100
AcDbLinetypeTableRecord
  2
Continuous
 70
     0
  3
Solid line
 72
    65
 73
     0
 40
0.0
  0
LTYPE
  5
27
330
5
100
AcDbSymbolTableRecord
100
AcDbLinetypeTableRecord
  2
HIDDENNEW00
 70
     0
  3
_ 
 72
    65
 73
     2
 40
0.1875
 49
0.125
 74
     0
 49
-0.0625
 74
     0
  0
LTYPE
  5
28
330
5
100
AcDbSymbolTableRecord
100
AcDbLinetypeTableRecord
  2
HIDDENNEW01
 70
     0
  3
_ 
 72
    65
 73
     2
 40
0.1875
 49
0.125
 74
     0
 49
-0.0625
 74
     0
  0
LTYPE
  5
29
330
5
100
AcDbSymbolTableRecord
100
AcDbLinetypeTableRecord
  2
HIDDEN
 70
     0
  3
_ 
 72
    65
 73
     2
 40
0.1875
 49
0.125
 74
     0
 49
-0.0625
 74
     0
  0
LTYPE
  5
2A
330
5
100
AcDbSymbolTableRecord
100
AcDbLinetypeTableRecord
  2
CENTERLINE
 70
     0
  3
_ 
 72
    65
 73
     4
 40
1.25
 49
1.0
 74
     0
 49
-0.0625
 74
     0
 49
0.125
 74
     0
 49
-0.0625
 74
     0
  0
LTYPE
  5
2B
330
5
100
AcDbSymbolTableRecord
100
AcDbLinetypeTableRecord
  2
PHANTOM
 70
     0
  3
_ 
 72
    65
 73
     6
 40
1.1875
 49
0.75
 74
     0
 49
-0.0625
 74
     0
 49
0.125
 74
     0
 49
-0.0625
 74
     0
 49
0.125
 74
     0
 49
-0.0625
 74
     0
  0
LTYPE
  5
2C
330
5
100
AcDbSymbolTableRecord
100
AcDbLinetypeTableRecord
  2
SHORT_DASH
 70
     0
  3
_ 
 72
    65
 73
     2
 40
0.125
 49
0.0625
 74
     0
 49
-0.0625
 74
     0
  0
LTYPE
  5
2D
330
5
100
AcDbSymbolTableRecord
100
AcDbLinetypeTableRecord
  2
LONG_DASH
 70
     0
  3
_ 
 72
    65
 73
     2
 40
0.375
 49
0.1875
 74
     0
 49
-0.1875
 74
     0
  0
ENDTAB
  0
TABLE
  2
LAYER
  5
2
330
0
100
AcDbSymbolTable
 70
   182
  0
LAYER
  5
10
330
2
100
AcDbSymbolTableRecord
100
AcDbLayerTableRecord
  2
0
 70
     0
 62
     7
  6
Continuous
370
    -3
390
F
  0
LAYER
  5
26
330
2
100
AcDbSymbolTableRecord
100
AcDbLayerTableRecord
  2
1
 70
     0
 62
     7
  6
Continuous
370
    -3
390
F
  0
LAYER
  5
2E
330
2
100
AcDbSymbolTableRecord
100
AcDbLayerTableRecord
  2
2
 70
     0
 62
     7
  6
Continuous
370
    -3
390
F
  0
LAYER
  5
2F
330
2
100
AcDbSymbolTableRecord
100
AcDbLayerTableRecord
  2
3
 70
     0
 62
     7
  6
Continuous
370
    -3
390
F
  0
LAYER
  5
30
330
2
100
AcDbSymbolTableRecord
100
AcDbLayerTableRecord
  2
4
 70
     0
 62
     7
  6
Continuous
370
    -3
390
F
  0
LAYER
  5
31
330
2
100
AcDbSymbolTableRecord
100
AcDbLayerTableRecord
  2
5
 70
     0
 62
     7
  6
Continuous
370
    -3
390
F
  0
LAYER
  5
32
330
2
100
AcDbSymbolTableRecord
100
AcDbLayerTableRecord
  2
6
 70
     0
 62
     7
  6
Continuous
370
    -3
390
F
  0
LAYER
  5
33
330
2
100
AcDbSymbolTableRecord
100
AcDbLayerTableRecord
  2
7
 70
     0
 62
     7
  6
Continuous
370
    -3
390
F
  0
LAYER
  5
34
330
2
100
AcDbSymbolTableRecord
100
AcDbLayerTableRecord
  2
8
 70
     0
 62
     7
  6
Continuous
370
    -3
390
F
  0
LAYER
  5
35
330
2
100
AcDbSymbolTableRecord
100
AcDbLayerTableRecord
  2
9
 70
     0
 62
     7
  6
Continuous
370
    -3
390
F
  0
LAYER
  5
36
330
2
100
AcDbSymbolTableRecord
100
AcDbLayerTableRecord
  2
10
 70
     0
 62
     7
  6
Continuous
370
    -3
390
F
  0
LAYER
  5
37
330
2
100
AcDbSymbolTableRecord
100
AcDbLayerTableRecord
  2
11
 70
     0
 62
     7
  6
Continuous
370
    -3
390
F
  0
LAYER
  5
38
330
2
100
AcDbSymbolTableRecord
100
AcDbLayerTableRecord
  2
12
 70
     0
 62
     7
  6
Continuous
370
    -3
390
F
  0
LAYER
  5
39
330
2
100
AcDbSymbolTableRecord
100
AcDbLayerTableRecord
  2
13
 70
     0
 62
     7
  6
Continuous
370
    -3
390
F
  0
LAYER
  5
3A
330
2
100
AcDbSymbolTableRecord
100
AcDbLayerTableRecord
  2
14
 70
     0
 62
     7
  6
Continuous
370
    -3
390
F
  0
LAYER
  5
3B
330
2
100
AcDbSymbolTableRecord
100
AcDbLayerTableRecord
  2
15
 70
     0
 62
     7
  6
Continuous
370
    -3
390
F
  0
LAYER
  5
3C
330
2
100
AcDbSymbolTableRecord
100
AcDbLayerTableRecord
  2
16
 70
     0
 62
     7
  6
Continuous
370
    -3
390
F
  0
LAYER
  5
3D
330
2
100
AcDbSymbolTableRecord
100
AcDbLayerTableRecord
  2
17
 70
     0
 62
     7
  6
Continuous
370
    -3
390
F
  0
LAYER
  5
3E
330
2
100
AcDbSymbolTableRecord
100
AcDbLayerTableRecord
  2
18
 70
     0
 62
     7
  6
Continuous
370
    -3
390
F
  0
LAYER
  5
3F
330
2
100
AcDbSymbolTableRecord
100
AcDbLayerTableRecord
  2
19
 70
     0
 62
     7
  6
Continuous
370
    -3
390
F
  0
LAYER
  5
40
330
2
100
AcDbSymbolTableRecord
100
AcDbLayerTableRecord
  2
20
 70
     0
 62
     7
  6
Continuous
370
    -3
390
F
  0
LAYER
  5
41
330
2
100
AcDbSymbolTableRecord
100
AcDbLayerTableRecord
  2
21
 70
     0
 62
     7
  6
Continuous
370
    -3
390
F
  0
LAYER
  5
42
330
2
100
AcDbSymbolTableRecord
100
AcDbLayerTableRecord
  2
22
 70
     0
 62
     7
  6
Continuous
370
    -3
390
F
  0
LAYER
  5
43
330
2
100
AcDbSymbolTableRecord
100
AcDbLayerTableRecord
  2
23
 70
     0
 62
     7
  6
Continuous
370
    -3
390
F
  0
LAYER
  5
44
330
2
100
AcDbSymbolTableRecord
100
AcDbLayerTableRecord
  2
24
 70
     0
 62
     7
  6
Continuous
370
    -3
390
F
  0
LAYER
  5
45
330
2
100
AcDbSymbolTableRecord
100
AcDbLayerTableRecord
  2
25
 70
     0
 62
     7
  6
Continuous
370
    -3
390
F
  0
LAYER
  5
46
330
2
100
AcDbSymbolTableRecord
100
AcDbLayerTableRecord
  2
26
 70
     0
 62
     7
  6
Continuous
370
    -3
390
F
  0
LAYER
  5
47
330
2
100
AcDbSymbolTableRecord
100
AcDbLayerTableRecord
  2
27
 70
     0
 62
     7
  6
Continuous
370
    -3
390
F
  0
LAYER
  5
48
330
2
100
AcDbSymbolTableRecord
100
AcDbLayerTableRecord
  2
28
 70
     0
 62
     7
  6
Continuous
370
    -3
390
F
  0
LAYER
  5
49
330
2
100
AcDbSymbolTableRecord
100
AcDbLayerTableRecord
  2
29
 70
     0
 62
     7
  6
Continuous
370
    -3
390
F
  0
LAYER
  5
4A
330
2
100
AcDbSymbolTableRecord
100
AcDbLayerTableRecord
  2
30
 70
     0
 62
     7
  6
Continuous
370
    -3
390
F
  0
LAYER
  5
4B
330
2
100
AcDbSymbolTableRecord
100
AcDbLayerTableRecord
  2
31
 70
     0
 62
     7
  6
Continuous
370
    -3
390
F
  0
LAYER
  5
4C
330
2
100
AcDbSymbolTableRecord
100
AcDbLayerTableRecord
  2
32
 70
     0
 62
     7
  6
Continuous
370
    -3
390
F
  0
LAYER
  5
4D
330
2
100
AcDbSymbolTableRecord
100
AcDbLayerTableRecord
  2
33
 70
     0
 62
     7
  6
Continuous
370
    -3
390
F
  0
LAYER
  5
4E
330
2
100
AcDbSymbolTableRecord
100
AcDbLayerTableRecord
  2
34
 70
     0
 62
     7
  6
Continuous
370
    -3
390
F
  0
LAYER
  5
4F
330
2
100
AcDbSymbolTableRecord
100
AcDbLayerTableRecord
  2
35
 70
     0
 62
     7
  6
Continuous
370
    -3
390
F
  0
LAYER
  5
50
330
2
100
AcDbSymbolTableRecord
100
AcDbLayerTableRecord
  2
36
 70
     0
 62
     7
  6
Continuous
370
    -3
390
F
  0
LAYER
  5
51
330
2
100
AcDbSymbolTableRecord
100
AcDbLayerTableRecord
  2
37
 70
     0
 62
     7
  6
Continuous
370
    -3
390
F
  0
LAYER
  5
52
330
2
100
AcDbSymbolTableRecord
100
AcDbLayerTableRecord
  2
38
 70
     0
 62
     7
  6
Continuous
370
    -3
390
F
  0
LAYER
  5
53
330
2
100
AcDbSymbolTableRecord
100
AcDbLayerTableRecord
  2
39
 70
     0
 62
     7
  6
Continuous
370
    -3
390
F
  0
LAYER
  5
54
330
2
100
AcDbSymbolTableRecord
100
AcDbLayerTableRecord
  2
40
 70
     0
 62
     7
  6
Continuous
370
    -3
390
F
  0
LAYER
  5
55
330
2
100
AcDbSymbolTableRecord
100
AcDbLayerTableRecord
  2
41
 70
     0
 62
     7
  6
Continuous
370
    -3
390
F
  0
LAYER
  5
56
330
2
100
AcDbSymbolTableRecord
100
AcDbLayerTableRecord
  2
42
 70
     0
 62
     7
  6
Continuous
370
    -3
390
F
  0
LAYER
  5
57
330
2
100
AcDbSymbolTableRecord
100
AcDbLayerTableRecord
  2
43
 70
     0
 62
     7
  6
Continuous
370
    -3
390
F
  0
LAYER
  5
58
330
2
100
AcDbSymbolTableRecord
100
AcDbLayerTableRecord
  2
44
 70
     0
 62
     7
  6
Continuous
370
    -3
390
F
  0
LAYER
  5
59
330
2
100
AcDbSymbolTableRecord
100
AcDbLayerTableRecord
  2
45
 70
     0
 62
     7
  6
Continuous
370
    -3
390
F
  0
LAYER
  5
5A
330
2
100
AcDbSymbolTableRecord
100
AcDbLayerTableRecord
  2
46
 70
     0
 62
     7
  6
Continuous
370
    -3
390
F
  0
LAYER
  5
5B
330
2
100
AcDbSymbolTableRecord
100
AcDbLayerTableRecord
  2
47
 70
     0
 62
     7
  6
Continuous
370
    -3
390
F
  0
LAYER
  5
5C
330
2
100
AcDbSymbolTableRecord
100
AcDbLayerTableRecord
  2
48
 70
     0
 62
     7
  6
Continuous
370
    -3
390
F
  0
LAYER
  5
5D
330
2
100
AcDbSymbolTableRecord
100
AcDbLayerTableRecord
  2
49
 70
     0
 62
     7
  6
Continuous
370
    -3
390
F
  0
LAYER
  5
5E
330
2
100
AcDbSymbolTableRecord
100
AcDbLayerTableRecord
  2
50
 70
     0
 62
     7
  6
Continuous
370
    -3
390
F
  0
LAYER
  5
5F
330
2
100
AcDbSymbolTableRecord
100
AcDbLayerTableRecord
  2
51
 70
     0
 62
     7
  6
Continuous
370
    -3
390
F
  0
LAYER
  5
60
330
2
100
AcDbSymbolTableRecord
100
AcDbLayerTableRecord
  2
52
 70
     0
 62
     7
  6
Continuous
370
    -3
390
F
  0
LAYER
  5
61
330
2
100
AcDbSymbolTableRecord
100
AcDbLayerTableRecord
  2
53
 70
     0
 62
     7
  6
Continuous
370
    -3
390
F
  0
LAYER
  5
62
330
2
100
AcDbSymbolTableRecord
100
AcDbLayerTableRecord
  2
54
 70
     0
 62
     7
  6
Continuous
370
    -3
390
F
  0
LAYER
  5
63
330
2
100
AcDbSymbolTableRecord
100
AcDbLayerTableRecord
  2
55
 70
     0
 62
     7
  6
Continuous
370
    -3
390
F
  0
LAYER
  5
64
330
2
100
AcDbSymbolTableRecord
100
AcDbLayerTableRecord
  2
56
 70
     0
 62
     7
  6
Continuous
370
    -3
390
F
  0
LAYER
  5
65
330
2
100
AcDbSymbolTableRecord
100
AcDbLayerTableRecord
  2
57
 70
     0
 62
     7
  6
Continuous
370
    -3
390
F
  0
LAYER
  5
66
330
2
100
AcDbSymbolTableRecord
100
AcDbLayerTableRecord
  2
58
 70
     0
 62
     7
  6
Continuous
370
    -3
390
F
  0
LAYER
  5
67
330
2
100
AcDbSymbolTableRecord
100
AcDbLayerTableRecord
  2
59
 70
     0
 62
     7
  6
Continuous
370
    -3
390
F
  0
LAYER
  5
68
330
2
100
AcDbSymbolTableRecord
100
AcDbLayerTableRecord
  2
60
 70
     0
 62
     7
  6
Continuous
370
    -3
390
F
  0
LAYER
  5
69
330
2
100
AcDbSymbolTableRecord
100
AcDbLayerTableRecord
  2
61
 70
     0
 62
     7
  6
Continuous
370
    -3
390
F
  0
LAYER
  5
6A
330
2
100
AcDbSymbolTableRecord
100
AcDbLayerTableRecord
  2
62
 70
     0
 62
     7
  6
Continuous
370
    -3
390
F
  0
LAYER
  5
6B
330
2
100
AcDbSymbolTableRecord
100
AcDbLayerTableRecord
  2
63
 70
     0
 62
     7
  6
Continuous
370
    -3
390
F
  0
LAYER
  5
6C
330
2
100
AcDbSymbolTableRecord
100
AcDbLayerTableRecord
  2
64
 70
     0
 62
     7
  6
Continuous
370
    -3
390
F
  0
LAYER
  5
6D
330
2
100
AcDbSymbolTableRecord
100
AcDbLayerTableRecord
  2
65
 70
     0
 62
     7
  6
Continuous
370
    -3
390
F
  0
LAYER
  5
6E
330
2
100
AcDbSymbolTableRecord
100
AcDbLayerTableRecord
  2
66
 70
     0
 62
     7
  6
Continuous
370
    -3
390
F
  0
LAYER
  5
6F
330
2
100
AcDbSymbolTableRecord
100
AcDbLayerTableRecord
  2
67
 70
     0
 62
     7
  6
Continuous
370
    -3
390
F
  0
LAYER
  5
70
330
2
100
AcDbSymbolTableRecord
100
AcDbLayerTableRecord
  2
68
 70
     0
 62
     7
  6
Continuous
370
    -3
390
F
  0
LAYER
  5
71
330
2
100
AcDbSymbolTableRecord
100
AcDbLayerTableRecord
  2
69
 70
     0
 62
     7
  6
Continuous
370
    -3
390
F
  0
LAYER
  5
72
330
2
100
AcDbSymbolTableRecord
100
AcDbLayerTableRecord
  2
70
 70
     0
 62
     7
  6
Continuous
370
    -3
390
F
  0
LAYER
  5
73
330
2
100
AcDbSymbolTableRecord
100
AcDbLayerTableRecord
  2
71
 70
     0
 62
     7
  6
Continuous
370
    -3
390
F
  0
LAYER
  5
74
330
2
100
AcDbSymbolTableRecord
100
AcDbLayerTableRecord
  2
72
 70
     0
 62
     7
  6
Continuous
370
    -3
390
F
  0
LAYER
  5
75
330
2
100
AcDbSymbolTableRecord
100
AcDbLayerTableRecord
  2
73
 70
     0
 62
     7
  6
Continuous
370
    -3
390
F
  0
LAYER
  5
76
330
2
100
AcDbSymbolTableRecord
100
AcDbLayerTableRecord
  2
74
 70
     0
 62
     7
  6
Continuous
370
    -3
390
F
  0
LAYER
  5
77
330
2
100
AcDbSymbolTableRecord
100
AcDbLayerTableRecord
  2
75
 70
     0
 62
     7
  6
Continuous
370
    -3
390
F
  0
LAYER
  5
78
330
2
100
AcDbSymbolTableRecord
100
AcDbLayerTableRecord
  2
76
 70
     0
 62
     7
  6
Continuous
370
    -3
390
F
  0
LAYER
  5
79
330
2
100
AcDbSymbolTableRecord
100
AcDbLayerTableRecord
  2
77
 70
     0
 62
     7
  6
Continuous
370
    -3
390
F
  0
LAYER
  5
7A
330
2
100
AcDbSymbolTableRecord
100
AcDbLayerTableRecord
  2
78
 70
     0
 62
     7
  6
Continuous
370
    -3
390
F
  0
LAYER
  5
7B
330
2
100
AcDbSymbolTableRecord
100
AcDbLayerTableRecord
  2
79
 70
     0
 62
     7
  6
Continuous
370
    -3
390
F
  0
LAYER
  5
7C
330
2
100
AcDbSymbolTableRecord
100
AcDbLayerTableRecord
  2
80
 70
     0
 62
     7
  6
Continuous
370
    -3
390
F
  0
LAYER
  5
7D
330
2
100
AcDbSymbolTableRecord
100
AcDbLayerTableRecord
  2
81
 70
     0
 62
     7
  6
Continuous
370
    -3
390
F
  0
LAYER
  5
7E
330
2
100
AcDbSymbolTableRecord
100
AcDbLayerTableRecord
  2
82
 70
     0
 62
     7
  6
Continuous
370
    -3
390
F
  0
LAYER
  5
7F
330
2
100
AcDbSymbolTableRecord
100
AcDbLayerTableRecord
  2
83
 70
     0
 62
     7
  6
Continuous
370
    -3
390
F
  0
LAYER
  5
80
330
2
100
AcDbSymbolTableRecord
100
AcDbLayerTableRecord
  2
84
 70
     0
 62
     7
  6
Continuous
370
    -3
390
F
  0
LAYER
  5
81
330
2
100
AcDbSymbolTableRecord
100
AcDbLayerTableRecord
  2
85
 70
     0
 62
     7
  6
Continuous
370
    -3
390
F
  0
LAYER
  5
82
330
2
100
AcDbSymbolTableRecord
100
AcDbLayerTableRecord
  2
86
 70
     0
 62
     7
  6
Continuous
370
    -3
390
F
  0
LAYER
  5
83
330
2
100
AcDbSymbolTableRecord
100
AcDbLayerTableRecord
  2
87
 70
     0
 62
     7
  6
Continuous
370
    -3
390
F
  0
LAYER
  5
84
330
2
100
AcDbSymbolTableRecord
100
AcDbLayerTableRecord
  2
88
 70
     0
 62
     7
  6
Continuous
370
    -3
390
F
  0
LAYER
  5
85
330
2
100
AcDbSymbolTableRecord
100
AcDbLayerTableRecord
  2
89
 70
     0
 62
     7
  6
Continuous
370
    -3
390
F
  0
LAYER
  5
86
330
2
100
AcDbSymbolTableRecord
100
AcDbLayerTableRecord
  2
90
 70
     0
 62
     7
  6
Continuous
370
    -3
390
F
  0
LAYER
  5
87
330
2
100
AcDbSymbolTableRecord
100
AcDbLayerTableRecord
  2
91
 70
     0
 62
     7
  6
Continuous
370
    -3
390
F
  0
LAYER
  5
88
330
2
100
AcDbSymbolTableRecord
100
AcDbLayerTableRecord
  2
92
 70
     0
 62
     7
  6
Continuous
370
    -3
390
F
  0
LAYER
  5
89
330
2
100
AcDbSymbolTableRecord
100
AcDbLayerTableRecord
  2
93
 70
     0
 62
     7
  6
Continuous
370
    -3
390
F
  0
LAYER
  5
8A
330
2
100
AcDbSymbolTableRecord
100
AcDbLayerTableRecord
  2
94
 70
     0
 62
     7
  6
Continuous
370
    -3
390
F
  0
LAYER
  5
8B
330
2
100
AcDbSymbolTableRecord
100
AcDbLayerTableRecord
  2
95
 70
     0
 62
     7
  6
Continuous
370
    -3
390
F
  0
LAYER
  5
8C
330
2
100
AcDbSymbolTableRecord
100
AcDbLayerTableRecord
  2
96
 70
     0
 62
     7
  6
Continuous
370
    -3
390
F
  0
LAYER
  5
8D
330
2
100
AcDbSymbolTableRecord
100
AcDbLayerTableRecord
  2
97
 70
     0
 62
     7
  6
Continuous
370
    -3
390
F
  0
LAYER
  5
8E
330
2
100
AcDbSymbolTableRecord
100
AcDbLayerTableRecord
  2
98
 70
     0
 62
     7
  6
Continuous
370
    -3
390
F
  0
LAYER
  5
8F
330
2
100
AcDbSymbolTableRecord
100
AcDbLayerTableRecord
  2
99
 70
     0
 62
     7
  6
Continuous
370
    -3
390
F
  0
LAYER
  5
90
330
2
100
AcDbSymbolTableRecord
100
AcDbLayerTableRecord
  2
100
 70
     0
 62
     7
  6
Continuous
370
    -3
390
F
  0
LAYER
  5
91
330
2
100
AcDbSymbolTableRecord
100
AcDbLayerTableRecord
  2
101
 70
     0
 62
     7
  6
Continuous
370
    -3
390
F
  0
LAYER
  5
92
330
2
100
AcDbSymbolTableRecord
100
AcDbLayerTableRecord
  2
102
 70
     0
 62
     7
  6
Continuous
370
    -3
390
F
  0
LAYER
  5
93
330
2
100
AcDbSymbolTableRecord
100
AcDbLayerTableRecord
  2
103
 70
     0
 62
     7
  6
Continuous
370
    -3
390
F
  0
LAYER
  5
94
330
2
100
AcDbSymbolTableRecord
100
AcDbLayerTableRecord
  2
104
 70
     0
 62
     7
  6
Continuous
370
    -3
390
F
  0
LAYER
  5
95
330
2
100
AcDbSymbolTableRecord
100
AcDbLayerTableRecord
  2
105
 70
     0
 62
     7
  6
Continuous
370
    -3
390
F
  0
LAYER
  5
96
330
2
100
AcDbSymbolTableRecord
100
AcDbLayerTableRecord
  2
106
 70
     0
 62
     7
  6
Continuous
370
    -3
390
F
  0
LAYER
  5
97
330
2
100
AcDbSymbolTableRecord
100
AcDbLayerTableRecord
  2
107
 70
     0
 62
     7
  6
Continuous
370
    -3
390
F
  0
LAYER
  5
98
330
2
100
AcDbSymbolTableRecord
100
AcDbLayerTableRecord
  2
108
 70
     0
 62
     7
  6
Continuous
370
    -3
390
F
  0
LAYER
  5
99
330
2
100
AcDbSymbolTableRecord
100
AcDbLayerTableRecord
  2
109
 70
     0
 62
     7
  6
Continuous
370
    -3
390
F
  0
LAYER
  5
9A
330
2
100
AcDbSymbolTableRecord
100
AcDbLayerTableRecord
  2
110
 70
     0
 62
     7
  6
Continuous
370
    -3
390
F
  0
LAYER
  5
9B
330
2
100
AcDbSymbolTableRecord
100
AcDbLayerTableRecord
  2
111
 70
     0
 62
     7
  6
Continuous
370
    -3
390
F
  0
LAYER
  5
9C
330
2
100
AcDbSymbolTableRecord
100
AcDbLayerTableRecord
  2
112
 70
     0
 62
     7
  6
Continuous
370
    -3
390
F
  0
LAYER
  5
9D
330
2
100
AcDbSymbolTableRecord
100
AcDbLayerTableRecord
  2
113
 70
     0
 62
     7
  6
Continuous
370
    -3
390
F
  0
LAYER
  5
9E
330
2
100
AcDbSymbolTableRecord
100
AcDbLayerTableRecord
  2
114
 70
     0
 62
     7
  6
Continuous
370
    -3
390
F
  0
LAYER
  5
9F
330
2
100
AcDbSymbolTableRecord
100
AcDbLayerTableRecord
  2
115
 70
     0
 62
     7
  6
Continuous
370
    -3
390
F
  0
LAYER
  5
A0
330
2
100
AcDbSymbolTableRecord
100
AcDbLayerTableRecord
  2
116
 70
     0
 62
     7
  6
Continuous
370
    -3
390
F
  0
LAYER
  5
A1
330
2
100
AcDbSymbolTableRecord
100
AcDbLayerTableRecord
  2
117
 70
     0
 62
     7
  6
Continuous
370
    -3
390
F
  0
LAYER
  5
A2
330
2
100
AcDbSymbolTableRecord
100
AcDbLayerTableRecord
  2
118
 70
     0
 62
     7
  6
Continuous
370
    -3
390
F
  0
LAYER
  5
A3
330
2
100
AcDbSymbolTableRecord
100
AcDbLayerTableRecord
  2
119
 70
     0
 62
     7
  6
Continuous
370
    -3
390
F
  0
LAYER
  5
A4
330
2
100
AcDbSymbolTableRecord
100
AcDbLayerTableRecord
  2
120
 70
     0
 62
     7
  6
Continuous
370
    -3
390
F
  0
LAYER
  5
A5
330
2
100
AcDbSymbolTableRecord
100
AcDbLayerTableRecord
  2
121
 70
     0
 62
     7
  6
Continuous
370
    -3
390
F
  0
LAYER
  5
A6
330
2
100
AcDbSymbolTableRecord
100
AcDbLayerTableRecord
  2
122
 70
     0
 62
     7
  6
Continuous
370
    -3
390
F
  0
LAYER
  5
A7
330
2
100
AcDbSymbolTableRecord
100
AcDbLayerTableRecord
  2
123
 70
     0
 62
     7
  6
Continuous
370
    -3
390
F
  0
LAYER
  5
A8
330
2
100
AcDbSymbolTableRecord
100
AcDbLayerTableRecord
  2
124
 70
     0
 62
     7
  6
Continuous
370
    -3
390
F
  0
LAYER
  5
A9
330
2
100
AcDbSymbolTableRecord
100
AcDbLayerTableRecord
  2
125
 70
     0
 62
     7
  6
Continuous
370
    -3
390
F
  0
LAYER
  5
AA
330
2
100
AcDbSymbolTableRecord
100
AcDbLayerTableRecord
  2
126
 70
     0
 62
     7
  6
Continuous
370
    -3
390
F
  0
LAYER
  5
AB
330
2
100
AcDbSymbolTableRecord
100
AcDbLayerTableRecord
  2
127
 70
     0
 62
     7
  6
Continuous
370
    -3
390
F
  0
LAYER
  5
AC
330
2
100
AcDbSymbolTableRecord
100
AcDbLayerTableRecord
  2
128
 70
     0
 62
     7
  6
Continuous
370
    -3
390
F
  0
LAYER
  5
AD
330
2
100
AcDbSymbolTableRecord
100
AcDbLayerTableRecord
  2
129
 70
     0
 62
     7
  6
Continuous
370
    -3
390
F
  0
LAYER
  5
AE
330
2
100
AcDbSymbolTableRecord
100
AcDbLayerTableRecord
  2
130
 70
     0
 62
     7
  6
Continuous
370
    -3
390
F
  0
LAYER
  5
AF
330
2
100
AcDbSymbolTableRecord
100
AcDbLayerTableRecord
  2
131
 70
     0
 62
     7
  6
Continuous
370
    -3
390
F
  0
LAYER
  5
B0
330
2
100
AcDbSymbolTableRecord
100
AcDbLayerTableRecord
  2
132
 70
     0
 62
     7
  6
Continuous
370
    -3
390
F
  0
LAYER
  5
B1
330
2
100
AcDbSymbolTableRecord
100
AcDbLayerTableRecord
  2
133
 70
     0
 62
     7
  6
Continuous
370
    -3
390
F
  0
LAYER
  5
B2
330
2
100
AcDbSymbolTableRecord
100
AcDbLayerTableRecord
  2
134
 70
     0
 62
     7
  6
Continuous
370
    -3
390
F
  0
LAYER
  5
B3
330
2
100
AcDbSymbolTableRecord
100
AcDbLayerTableRecord
  2
135
 70
     0
 62
     7
  6
Continuous
370
    -3
390
F
  0
LAYER
  5
B4
330
2
100
AcDbSymbolTableRecord
100
AcDbLayerTableRecord
  2
136
 70
     0
 62
     7
  6
Continuous
370
    -3
390
F
  0
LAYER
  5
B5
330
2
100
AcDbSymbolTableRecord
100
AcDbLayerTableRecord
  2
137
 70
     0
 62
     7
  6
Continuous
370
    -3
390
F
  0
LAYER
  5
B6
330
2
100
AcDbSymbolTableRecord
100
AcDbLayerTableRecord
  2
138
 70
     0
 62
     7
  6
Continuous
370
    -3
390
F
  0
LAYER
  5
B7
330
2
100
AcDbSymbolTableRecord
100
AcDbLayerTableRecord
  2
139
 70
     0
 62
     7
  6
Continuous
370
    -3
390
F
  0
LAYER
  5
B8
330
2
100
AcDbSymbolTableRecord
100
AcDbLayerTableRecord
  2
140
 70
     0
 62
     7
  6
Continuous
370
    -3
390
F
  0
LAYER
  5
B9
330
2
100
AcDbSymbolTableRecord
100
AcDbLayerTableRecord
  2
141
 70
     0
 62
     7
  6
Continuous
370
    -3
390
F
  0
LAYER
  5
BA
330
2
100
AcDbSymbolTableRecord
100
AcDbLayerTableRecord
  2
142
 70
     0
 62
     7
  6
Continuous
370
    -3
390
F
  0
LAYER
  5
BB
330
2
100
AcDbSymbolTableRecord
100
AcDbLayerTableRecord
  2
143
 70
     0
 62
     7
  6
Continuous
370
    -3
390
F
  0
LAYER
  5
BC
330
2
100
AcDbSymbolTableRecord
100
AcDbLayerTableRecord
  2
144
 70
     0
 62
     7
  6
Continuous
370
    -3
390
F
  0
LAYER
  5
BD
330
2
100
AcDbSymbolTableRecord
100
AcDbLayerTableRecord
  2
145
 70
     0
 62
     7
  6
Continuous
370
    -3
390
F
  0
LAYER
  5
BE
330
2
100
AcDbSymbolTableRecord
100
AcDbLayerTableRecord
  2
146
 70
     0
 62
     7
  6
Continuous
370
    -3
390
F
  0
LAYER
  5
BF
330
2
100
AcDbSymbolTableRecord
100
AcDbLayerTableRecord
  2
147
 70
     0
 62
     7
  6
Continuous
370
    -3
390
F
  0
LAYER
  5
C0
330
2
100
AcDbSymbolTableRecord
100
AcDbLayerTableRecord
  2
148
 70
     0
 62
     7
  6
Continuous
370
    -3
390
F
  0
LAYER
  5
C1
330
2
100
AcDbSymbolTableRecord
100
AcDbLayerTableRecord
  2
149
 70
     0
 62
     7
  6
Continuous
370
    -3
390
F
  0
LAYER
  5
C2
330
2
100
AcDbSymbolTableRecord
100
AcDbLayerTableRecord
  2
150
 70
     0
 62
     7
  6
Continuous
370
    -3
390
F
  0
LAYER
  5
C3
330
2
100
AcDbSymbolTableRecord
100
AcDbLayerTableRecord
  2
151
 70
     0
 62
     7
  6
Continuous
370
    -3
390
F
  0
LAYER
  5
C4
330
2
100
AcDbSymbolTableRecord
100
AcDbLayerTableRecord
  2
152
 70
     0
 62
     7
  6
Continuous
370
    -3
390
F
  0
LAYER
  5
C5
330
2
100
AcDbSymbolTableRecord
100
AcDbLayerTableRecord
  2
153
 70
     0
 62
     7
  6
Continuous
370
    -3
390
F
  0
LAYER
  5
C6
330
2
100
AcDbSymbolTableRecord
100
AcDbLayerTableRecord
  2
154
 70
     0
 62
     7
  6
Continuous
370
    -3
390
F
  0
LAYER
  5
C7
330
2
100
AcDbSymbolTableRecord
100
AcDbLayerTableRecord
  2
155
 70
     0
 62
     7
  6
Continuous
370
    -3
390
F
  0
LAYER
  5
C8
330
2
100
AcDbSymbolTableRecord
100
AcDbLayerTableRecord
  2
156
 70
     0
 62
     7
  6
Continuous
370
    -3
390
F
  0
LAYER
  5
C9
330
2
100
AcDbSymbolTableRecord
100
AcDbLayerTableRecord
  2
157
 70
     0
 62
     7
  6
Continuous
370
    -3
390
F
  0
LAYER
  5
CA
330
2
100
AcDbSymbolTableRecord
100
AcDbLayerTableRecord
  2
158
 70
     0
 62
     7
  6
Continuous
370
    -3
390
F
  0
LAYER
  5
CB
330
2
100
AcDbSymbolTableRecord
100
AcDbLayerTableRecord
  2
159
 70
     0
 62
     7
  6
Continuous
370
    -3
390
F
  0
LAYER
  5
CC
330
2
100
AcDbSymbolTableRecord
100
AcDbLayerTableRecord
  2
160
 70
     0
 62
     7
  6
Continuous
370
    -3
390
F
  0
LAYER
  5
CD
330
2
100
AcDbSymbolTableRecord
100
AcDbLayerTableRecord
  2
161
 70
     0
 62
     7
  6
Continuous
370
    -3
390
F
  0
LAYER
  5
CE
330
2
100
AcDbSymbolTableRecord
100
AcDbLayerTableRecord
  2
162
 70
     0
 62
     7
  6
Continuous
370
    -3
390
F
  0
LAYER
  5
CF
330
2
100
AcDbSymbolTableRecord
100
AcDbLayerTableRecord
  2
163
 70
     0
 62
     7
  6
Continuous
370
    -3
390
F
  0
LAYER
  5
D0
330
2
100
AcDbSymbolTableRecord
100
AcDbLayerTableRecord
  2
164
 70
     0
 62
     7
  6
Continuous
370
    -3
390
F
  0
LAYER
  5
D1
330
2
100
AcDbSymbolTableRecord
100
AcDbLayerTableRecord
  2
165
 70
     0
 62
     7
  6
Continuous
370
    -3
390
F
  0
LAYER
  5
D2
330
2
100
AcDbSymbolTableRecord
100
AcDbLayerTableRecord
  2
166
 70
     0
 62
     7
  6
Continuous
370
    -3
390
F
  0
LAYER
  5
D3
330
2
100
AcDbSymbolTableRecord
100
AcDbLayerTableRecord
  2
167
 70
     0
 62
     7
  6
Continuous
370
    -3
390
F
  0
LAYER
  5
D4
330
2
100
AcDbSymbolTableRecord
100
AcDbLayerTableRecord
  2
168
 70
     0
 62
     7
  6
Continuous
370
    -3
390
F
  0
LAYER
  5
D5
330
2
100
AcDbSymbolTableRecord
100
AcDbLayerTableRecord
  2
169
 70
     0
 62
     7
  6
Continuous
370
    -3
390
F
  0
LAYER
  5
D6
330
2
100
AcDbSymbolTableRecord
100
AcDbLayerTableRecord
  2
170
 70
     0
 62
     7
  6
Continuous
370
    -3
390
F
  0
LAYER
  5
D7
330
2
100
AcDbSymbolTableRecord
100
AcDbLayerTableRecord
  2
171
 70
     0
 62
     7
  6
Continuous
370
    -3
390
F
  0
LAYER
  5
D8
330
2
100
AcDbSymbolTableRecord
100
AcDbLayerTableRecord
  2
172
 70
     0
 62
     7
  6
Continuous
370
    -3
390
F
  0
LAYER
  5
D9
330
2
100
AcDbSymbolTableRecord
100
AcDbLayerTableRecord
  2
173
 70
     0
 62
     7
  6
Continuous
370
    -3
390
F
  0
LAYER
  5
DA
330
2
100
AcDbSymbolTableRecord
100
AcDbLayerTableRecord
  2
174
 70
     0
 62
     7
  6
Continuous
370
    -3
390
F
  0
LAYER
  5
DB
330
2
100
AcDbSymbolTableRecord
100
AcDbLayerTableRecord
  2
175
 70
     0
 62
     7
  6
Continuous
370
    -3
390
F
  0
LAYER
  5
DC
330
2
100
AcDbSymbolTableRecord
100
AcDbLayerTableRecord
  2
176
 70
     0
 62
     7
  6
Continuous
370
    -3
390
F
  0
LAYER
  5
DD
330
2
100
AcDbSymbolTableRecord
100
AcDbLayerTableRecord
  2
177
 70
     0
 62
     7
  6
Continuous
370
    -3
390
F
  0
LAYER
  5
DE
330
2
100
AcDbSymbolTableRecord
100
AcDbLayerTableRecord
  2
178
 70
     0
 62
     7
  6
Continuous
370
    -3
390
F
  0
LAYER
  5
DF
330
2
100
AcDbSymbolTableRecord
100
AcDbLayerTableRecord
  2
179
 70
     0
 62
     7
  6
Continuous
370
    -3
390
F
  0
LAYER
  5
E0
330
2
100
AcDbSymbolTableRecord
100
AcDbLayerTableRecord
  2
180
 70
     0
 62
     7
  6
Continuous
370
    -3
390
F
  0
LAYER
  5
E1
330
2
100
AcDbSymbolTableRecord
100
AcDbLayerTableRecord
  2
DRAFTING_HIDDEN_ENTITIES
 70
     1
 62
     7
  6
Continuous
370
    -3
390
F
  0
ENDTAB
  0
TABLE
  2
STYLE
  5
3
330
0
100
AcDbSymbolTable
 70
     1
  0
STYLE
  5
11
330
3
100
AcDbSymbolTableRecord
100
AcDbTextStyleTableRecord
  2
STANDARD
 70
     0
 40
0.0
 41
1.0
 50
0.0
 71
     0
 42
1.0
  3
monotxt.shx
  4

  0
ENDTAB
  0
TABLE
  2
VIEW
  5
6
330
0
100
AcDbSymbolTable
 70
     0
  0
ENDTAB
  0
TABLE
  2
UCS
  5
7
330
0
100
AcDbSymbolTable
 70
     0
  0
ENDTAB
  0
TABLE
  2
APPID
  5
9
330
0
100
AcDbSymbolTable
 70
     2
  0
APPID
  5
12
330
9
100
AcDbSymbolTableRecord
100
AcDbRegAppTableRecord
  2
ACAD
 70
     0
  0
APPID
  5
2C5
330
9
100
AcDbSymbolTableRecord
100
AcDbRegAppTableRecord
  2
ACAD_EXEMPT_FROM_CAD_STANDARDS
 70
     0
  0
ENDTAB
  0
TABLE
  2
DIMSTYLE
  5
A
330
0
100
AcDbSymbolTable
 70
     2
100
AcDbDimStyleTable
 71
     1
340
E2
  0
DIMSTYLE
105
E2
102
{ACAD_REACTORS
330
140
330
141
102
}
330
A
100
AcDbSymbolTableRecord
100
AcDbDimStyleTableRecord
  2
DSTYLE1
 70
     0
 41
0.5
 42
0.1
 44
0.25
 45
0.001
 47
0.005
 48
0.005
 78
     7
140
0.375
143
1.0
147
0.25
271
     3
272
     3
274
     0
279
     2
340
11
  0
DIMSTYLE
105
E3
330
A
100
AcDbSymbolTableRecord
100
AcDbDimStyleTableRecord
  2
DSTYLE2
 70
     0
 41
0.5
 44
0.125
 45
0.001
 47
0.005
 48
0.005
 75
     1
 78
     7
140
0.375
147
0.0625
271
     3
272
     3
274
     0
279
     2
340
11
  0
ENDTAB
  0
TABLE
  2
BLOCK_RECORD
  5
1
330
0
100
AcDbSymbolTable
 70
     7
  0
BLOCK_RECORD
  5
22
102
{ACAD_XDICTIONARY
360
2DA
102
}
330
1
100
AcDbSymbolTableRecord
100
AcDbBlockTableRecord
  2
*Model_Space
340
25
  0
BLOCK_RECORD
  5
1E
330
1
100
AcDbSymbolTableRecord
100
AcDbBlockTableRecord
  2
*Paper_Space
340
21
  0
BLOCK_RECORD
  5
E6
330
1
100
AcDbSymbolTableRecord
100
AcDbBlockTableRecord
  2
*U0
340
0
102
{BLKREFS
331
2BE
102
}
  0
BLOCK_RECORD
  5
EE
330
1
100
AcDbSymbolTableRecord
100
AcDbBlockTableRecord
  2
*U1
340
0
102
{BLKREFS
331
158
102
}
  0
BLOCK_RECORD
  5
FB
330
1
100
AcDbSymbolTableRecord
100
AcDbBlockTableRecord
  2
*U2
340
0
102
{BLKREFS
331
13B
102
}
  0
BLOCK_RECORD
  5
100
330
1
100
AcDbSymbolTableRecord
100
AcDbBlockTableRecord
  2
*U3
340
0
102
{BLKREFS
331
156
102
}
  0
BLOCK_RECORD
  5
107
330
1
100
AcDbSymbolTableRecord
100
AcDbBlockTableRecord
  2
*D4
340
0
  0
BLOCK_RECORD
  5
115
330
1
100
AcDbSymbolTableRecord
100
AcDbBlockTableRecord
  2
*D5
340
0
  0
BLOCK_RECORD
  5
123
330
1
100
AcDbSymbolTableRecord
100
AcDbBlockTableRecord
  2
*D6
340
0
102
{BLKREFS
331
154
102
}
  0
ENDTAB
  0
ENDSEC
  0
SECTION
  2
BLOCKS
  0
BLOCK
  5
23
330
22
100
AcDbEntity
  8
0
100
AcDbBlockBegin
  2
*Model_Space
 70
     0
 10
0.0
 20
0.0
 30
0.0
  3
*Model_Space
  1

  0
ENDBLK
  5
24
330
22
100
AcDbEntity
  8
0
100
AcDbBlockEnd
  0
BLOCK
  5
1F
330
1E
100
AcDbEntity
 67
     1
  8
0
100
AcDbBlockBegin
  2
*Paper_Space
 70
     0
 10
0.0
 20
0.0
 30
0.0
  3
*Paper_Space
  1

  0
ENDBLK
  5
20
330
1E
100
AcDbEntity
 67
     1
  8
0
100
AcDbBlockEnd
  0
BLOCK
  5
E7
330
E6
100
AcDbEntity
  8
0
100
AcDbBlockBegin
  2
*U0
 70
     1
 10
0.0
 20
0.0
 30
0.0
  3
*U0
  1

  0
TEXT
  5
E8
330
E6
100
AcDbEntity
  8
126
  6
Continuous
 62
     3
100
AcDbText
 10
0.0
 20
0.0
 30
0.0
 40
0.06053
  1
THIS PRINT IS THE PROPERTY OF ELKAY MANUFACTURING COMPANY
 41
1.0344828
100
AcDbText
  0
TEXT
  5
E9
330
E6
100
AcDbEntity
  8
126
  6
Continuous
 62
     3
100
AcDbText
 10
0.0
 20
-0.10553
 30
0.0
 40
0.06053
  1
AND IS LOANED SUBJECT TO RETURN UPON DEMAND AND UPON THE
 41
1.0344828
100
AcDbText
  0
TEXT
  5
EA
330
E6
100
AcDbEntity
  8
126
  6
Continuous
 62
     3
100
AcDbText
 10
0.0
 20
-0.21106
 30
0.0
 40
0.06053
  1
EXPRESS CONDITION THAT IT IS NOT TO BE USED DIRECTLY OR
 41
1.0344828
100
AcDbText
  0
TEXT
  5
EB
330
E6
100
AcDbEntity
  8
126
  6
Continuous
 62
     3
100
AcDbText
 10
0.0
 20
-0.31659
 30
0.0
 40
0.06053
  1
INDIRECTLY WITHOUT OUR PERMISSION FOR PURPOSES OTHER THAN
 41
1.0344828
100
AcDbText
  0
TEXT
  5
EC
330
E6
100
AcDbEntity
  8
126
  6
Continuous
 62
     3
100
AcDbText
 10
0.0
 20
-0.42212
 30
0.0
 40
0.06053
  1
THOSE FOR WHICH IT WAS FURNISHED.
 41
1.0344828
100
AcDbText
  0
ENDBLK
  5
ED
330
E6
100
AcDbEntity
  8
0
100
AcDbBlockEnd
  0
BLOCK
  5
EF
330
EE
100
AcDbEntity
  8
0
100
AcDbBlockBegin
  2
*U1
 70
     1
 10
0.0
 20
0.0
 30
0.0
  3
*U1
  1

  0
TEXT
  5
F0
330
EE
100
AcDbEntity
  8
1
  6
Continuous
 62
     3
100
AcDbText
 10
-3.666666666666669
 20
-0.1375
 30
0.0
 40
0.275
  1
VERIFY THAT THE MODEL BEING
 72
     1
 11
0.0
 21
0.0
 31
0.0
100
AcDbText
 73
     2
  0
TEXT
  5
F1
330
EE
100
AcDbEntity
  8
1
  6
Continuous
 62
     3
100
AcDbText
 10
-3.414583333333335
 20
-0.55
 30
0.0
 40
0.275
  1
INSTALLED IS LISTED ABOVE
 72
     1
 11
0.0
 21
-0.4125
 31
0.0
100
AcDbText
 73
     2
  0
TEXT
  5
F2
330
EE
100
AcDbEntity
  8
1
  6
Continuous
 62
     3
100
AcDbText
 10
-3.529166666666669
 20
-0.9625
 30
0.0
 40
0.275
  1
BEFORE USING THIS TEMPLATE
 72
     1
 11
0.0
 21
-0.825
 31
0.0
100
AcDbText
 73
     2
  0
TEXT
  5
F3
330
EE
100
AcDbEntity
  8
1
  6
Continuous
 62
     3
100
AcDbText
 10
-0.275
 20
-1.375
 30
0.0
 40
0.275
  1
  
 72
     1
 11
0.0
 21
-1.2375
 31
0.0
100
AcDbText
 73
     2
  0
TEXT
  5
F4
330
EE
100
AcDbEntity
  8
1
  6
Continuous
 62
     3
100
AcDbText
 10
-2.841666666666668
 20
-1.787499999999998
 30
0.0
 40
0.275
  1
CHECK THE TEMPLATE BY
 72
     1
 11
0.0
 21
-1.649999999999999
 31
0.0
100
AcDbText
 73
     2
  0
TEXT
  5
F5
330
EE
100
AcDbEntity
  8
1
  6
Continuous
 62
     3
100
AcDbText
 10
-2.429166666666667
 20
-2.2
 30
0.0
 40
0.275
  1
LAYING IT OVER THE
 72
     1
 11
0.0
 21
-2.0625
 31
0.0
100
AcDbText
 73
     2
  0
TEXT
  5
F6
330
EE
100
AcDbEntity
  8
1
  6
Continuous
 62
     3
100
AcDbText
 10
-3.529166666666669
 20
-2.6125
 30
0.0
 40
0.275
  1
SINK PRIOR TO INSTALLATION
 72
     1
 11
0.0
 21
-2.475
 31
0.0
100
AcDbText
 73
     2
  0
TEXT
  5
F7
330
EE
100
AcDbEntity
  8
1
  6
Continuous
 62
     3
100
AcDbText
 10
-0.1375
 20
-3.025
 30
0.0
 40
0.275
  1
 
 72
     1
 11
0.0
 21
-2.8875
 31
0.0
100
AcDbText
 73
     2
  0
TEXT
  5
F8
330
EE
100
AcDbEntity
  8
1
  6
Continuous
 62
     3
100
AcDbText
 10
-3.804166666666669
 20
-3.437499999999999
 30
0.0
 40
0.275
  1
FOR QUESTIONS PLEASE CONTACT
 72
     1
 11
0.0
 21
-3.299999999999998
 31
0.0
100
AcDbText
 73
     2
  0
TEXT
  5
F9
330
EE
100
AcDbEntity
  8
1
  6
Continuous
 62
     3
100
AcDbText
 10
-2.979166666666669
 20
-3.849999999999999
 30
0.0
 40
0.275
  1
ELKAY CUSTOMER SERVICE
 72
     1
 11
0.0
 21
-3.712499999999999
 31
0.0
100
AcDbText
 73
     2
  0
ENDBLK
  5
FA
330
EE
100
AcDbEntity
  8
0
100
AcDbBlockEnd
  0
BLOCK
  5
FC
330
FB
100
AcDbEntity
  8
0
100
AcDbBlockBegin
  2
*U2
 70
     1
 10
0.0
 20
0.0
 30
0.0
  3
*U2
  1

  0
TEXT
  5
FD
330
FB
100
AcDbEntity
  8
126
  6
Continuous
 62
     3
100
AcDbText
 10
-0.8833333333333335
 20
-0.05
 30
0.0
 40
0.1
  1
24 LB COATED PAPER
 72
     1
 11
0.0
 21
0.0
 31
0.0
100
AcDbText
 73
     2
  0
TEXT
  5
FE
330
FB
100
AcDbEntity
  8
126
  6
Continuous
 62
     3
100
AcDbText
 10
-0.2333333333333333
 20
-0.2
 30
0.0
 40
0.1
  1
WHITE
 72
     1
 11
0.0
 21
-0.15
 31
0.0
100
AcDbText
 73
     2
  0
ENDBLK
  5
FF
330
FB
100
AcDbEntity
  8
0
100
AcDbBlockEnd
  0
BLOCK
  5
101
330
100
100
AcDbEntity
  8
0
100
AcDbBlockBegin
  2
*U3
 70
     1
 10
0.0
 20
0.0
 30
0.0
  3
*U3
  1

  0
TEXT
  5
102
330
100
100
AcDbEntity
  8
1
  6
Continuous
 62
     3
100
AcDbText
 10
-0.85
 20
-0.15
 30
0.0
 40
0.3
  1
D11719
 72
     1
 11
0.0
 21
0.0
 31
0.0
100
AcDbText
 73
     2
  0
TEXT
  5
103
330
100
100
AcDbEntity
  8
1
  6
Continuous
 62
     3
100
AcDbText
 10
-1.0
 20
-0.6
 30
0.0
 40
0.3
  1
K511719
 72
     1
 11
0.0
 21
-0.45
 31
0.0
100
AcDbText
 73
     2
  0
TEXT
  5
104
330
100
100
AcDbEntity
  8
1
  6
Continuous
 62
     3
100
AcDbText
 10
-1.0
 20
-1.05
 30
0.0
 40
0.3
  1
NS11719
 72
     1
 11
0.0
 21
-0.9
 31
0.0
100
AcDbText
 73
     2
  0
TEXT
  5
105
330
100
100
AcDbEntity
  8
1
  6
Continuous
 62
     3
100
AcDbText
 10
-1.0
 20
-1.5
 30
0.0
 40
0.3
  1
SDB1719
 72
     1
 11
0.0
 21
-1.35
 31
0.0
100
AcDbText
 73
     2
  0
ENDBLK
  5
106
330
100
100
AcDbEntity
  8
0
100
AcDbBlockEnd
  0
BLOCK
  5
108
330
107
100
AcDbEntity
  8
0
100
AcDbBlockBegin
  2
*D4
 70
     1
 10
0.0
 20
0.0
 30
0.0
  3
*D4
  1

  0
LINE
  5
109
330
107
100
AcDbEntity
  8
1
  6
Continuous
 62
     3
100
AcDbLine
 10
18.495497
 20
21.152682
 30
0.0
 11
22.337193
 21
21.152682
 31
0.0
  0
LINE
  5
10A
330
107
100
AcDbEntity
  8
1
  6
Continuous
 62
     3
100
AcDbLine
 10
18.495497
 20
2.7776816
 30
0.0
 11
22.337193
 21
2.7776816
 31
0.0
  0
LINE
  5
10B
330
107
100
AcDbEntity
  8
1
  6
Continuous
 62
     3
100
AcDbLine
 10
22.087193
 20
21.152682
 30
0.0
 11
22.00386
 21
20.652682
 31
0.0
  0
LINE
  5
10C
330
107
100
AcDbEntity
  8
1
  6
Continuous
 62
     3
100
AcDbLine
 10
22.087193
 20
21.152682
 30
0.0
 11
22.170526
 21
20.652682
 31
0.0
  0
LINE
  5
10D
330
107
100
AcDbEntity
  8
1
  6
Continuous
 62
     3
100
AcDbLine
 10
22.00386
 20
20.652682
 30
0.0
 11
22.170526
 21
20.652682
 31
0.0
  0
LINE
  5
10E
330
107
100
AcDbEntity
  8
1
  6
Continuous
 62
     3
100
AcDbLine
 10
22.087193
 20
2.7776816
 30
0.0
 11
22.00386
 21
3.277681599999998
 31
0.0
  0
LINE
  5
10F
330
107
100
AcDbEntity
  8
1
  6
Continuous
 62
     3
100
AcDbLine
 10
22.087193
 20
2.7776816
 30
0.0
 11
22.170526
 21
3.277681599999998
 31
0.0
  0
LINE
  5
110
330
107
100
AcDbEntity
  8
1
  6
Continuous
 62
     3
100
AcDbLine
 10
22.00386
 20
3.277681599999998
 30
0.0
 11
22.170526
 21
3.277681599999998
 31
0.0
  0
LINE
  5
111
330
107
100
AcDbEntity
  8
1
  6
Continuous
 62
     3
100
AcDbLine
 10
22.087193
 20
21.152682
 30
0.0
 11
22.087193
 21
12.402682
 31
0.0
  0
LINE
  5
112
330
107
100
AcDbEntity
  8
1
  6
Continuous
 62
     3
100
AcDbLine
 10
22.087193
 20
2.7776816
 30
0.0
 11
22.087193
 21
11.527682
 31
0.0
  0
TEXT
  5
113
330
107
100
AcDbEntity
  8
1
  6
Continuous
 62
     3
100
AcDbText
 10
20.962193
 20
11.777682
 30
0.0
 40
0.375
  1
18 3/8
100
AcDbText
  0
ENDBLK
  5
114
330
107
100
AcDbEntity
  8
0
100
AcDbBlockEnd
  0
BLOCK
  5
116
330
115
100
AcDbEntity
  8
0
100
AcDbBlockBegin
  2
*D5
 70
     1
 10
0.0
 20
0.0
 30
0.0
  3
*D5
  1

  0
LINE
  5
117
330
115
100
AcDbEntity
  8
1
  6
Continuous
 62
     3
100
AcDbLine
 10
19.895498
 20
4.177681599999998
 30
0.0
 11
19.895498
 21
1.2337846
 31
0.0
  0
LINE
  5
118
330
115
100
AcDbEntity
  8
1
  6
Continuous
 62
     3
100
AcDbLine
 10
3.520497499999998
 20
4.177681599999998
 30
0.0
 11
3.520497499999998
 21
1.2337846
 31
0.0
  0
LINE
  5
119
330
115
100
AcDbEntity
  8
1
  6
Continuous
 62
     3
100
AcDbLine
 10
19.895498
 20
1.4837846
 30
0.0
 11
19.395498
 21
1.567117899999999
 31
0.0
  0
LINE
  5
11A
330
115
100
AcDbEntity
  8
1
  6
Continuous
 62
     3
100
AcDbLine
 10
19.895498
 20
1.4837846
 30
0.0
 11
19.395498
 21
1.4004513
 31
0.0
  0
LINE
  5
11B
330
115
100
AcDbEntity
  8
1
  6
Continuous
 62
     3
100
AcDbLine
 10
19.395498
 20
1.567117899999999
 30
0.0
 11
19.395498
 21
1.4004513
 31
0.0
  0
LINE
  5
11C
330
115
100
AcDbEntity
  8
1
  6
Continuous
 62
     3
100
AcDbLine
 10
3.520497499999998
 20
1.4837846
 30
0.0
 11
4.0204975
 21
1.567117899999999
 31
0.0
  0
LINE
  5
11D
330
115
100
AcDbEntity
  8
1
  6
Continuous
 62
     3
100
AcDbLine
 10
3.520497499999998
 20
1.4837846
 30
0.0
 11
4.0204975
 21
1.4004513
 31
0.0
  0
LINE
  5
11E
330
115
100
AcDbEntity
  8
1
  6
Continuous
 62
     3
100
AcDbLine
 10
4.0204975
 20
1.567117899999999
 30
0.0
 11
4.0204975
 21
1.4004513
 31
0.0
  0
LINE
  5
11F
330
115
100
AcDbEntity
  8
1
  6
Continuous
 62
     3
100
AcDbLine
 10
19.895498
 20
1.4837846
 30
0.0
 11
13.082997
 21
1.4837846
 31
0.0
  0
LINE
  5
120
330
115
100
AcDbEntity
  8
1
  6
Continuous
 62
     3
100
AcDbLine
 10
3.520497499999998
 20
1.4837846
 30
0.0
 11
10.332997
 21
1.4837846
 31
0.0
  0
TEXT
  5
121
330
115
100
AcDbEntity
  8
1
  6
Continuous
 62
     3
100
AcDbText
 10
10.582997
 20
1.2962846
 30
0.0
 40
0.375
  1
16 3/8
100
AcDbText
  0
ENDBLK
  5
122
330
115
100
AcDbEntity
  8
0
100
AcDbBlockEnd
  0
BLOCK
  5
124
330
123
100
AcDbEntity
  8
0
100
AcDbBlockBegin
  2
*D6
 70
     1
 10
0.0
 20
0.0
 30
0.0
  3
*D6
  1

  0
LINE
  5
125
330
123
100
AcDbEntity
  8
1
  6
Continuous
 62
     3
100
AcDbLine
 10
4.0581157
 20
20.803256
 30
0.0
 11
5.183651199999999
 21
19.775906
 31
0.0
  0
LINE
  5
126
330
123
100
AcDbEntity
  8
1
  6
Continuous
 62
     3
100
AcDbLine
 10
4.0581157
 20
20.803256
 30
0.0
 11
4.371229699999998
 21
20.404628
 31
0.0
  0
LINE
  5
127
330
123
100
AcDbEntity
  8
1
  6
Continuous
 62
     3
100
AcDbLine
 10
4.0581157
 20
20.803256
 30
0.0
 11
4.483589299999998
 21
20.527726
 31
0.0
  0
LINE
  5
128
330
123
100
AcDbEntity
  8
1
  6
Continuous
 62
     3
100
AcDbLine
 10
4.371229699999998
 20
20.404628
 30
0.0
 11
4.483589299999998
 21
20.527726
 31
0.0
  0
LINE
  5
129
330
123
100
AcDbEntity
  8
1
  6
Continuous
 62
     3
100
AcDbLine
 10
5.308651199999999
 20
19.775906
 30
0.0
 11
5.183651199999999
 21
19.775906
 31
0.0
  0
TEXT
  5
12A
330
123
100
AcDbEntity
  8
1
  6
Continuous
 62
     3
100
AcDbText
 10
5.371151199999999
 20
19.588406
 30
0.0
 40
0.375
  1
R 1 1/2
100
AcDbText
  0
ENDBLK
  5
12B
330
123
100
AcDbEntity
  8
0
100
AcDbBlockEnd
  0
ENDSEC
  0
SECTION
  2
ENTITIES
  0
LINE
  5
12C
330
22
100
AcDbEntity
  8
0
  6
Continuous
 62
     3
100
AcDbLine
 10
0.0
 20
0.0
 30
0.0
 11
34.0
 21
0.0
 31
0.0
  0
LINE
  5
12D
330
22
100
AcDbEntity
  8
0
  6
Continuous
 62
     3
100
AcDbLine
 10
34.0
 20
0.0
 30
0.0
 11
34.0
 21
22.0
 31
0.0
  0
LINE
  5
12E
330
22
100
AcDbEntity
  8
0
  6
Continuous
 62
     3
100
AcDbLine
 10
34.0
 20
22.0
 30
0.0
 11
0.0
 21
22.0
 31
0.0
  0
LINE
  5
12F
330
22
100
AcDbEntity
  8
0
  6
Continuous
 62
     3
100
AcDbLine
 10
0.0
 20
22.0
 30
0.0
 11
0.0
 21
0.0
 31
0.0
  0
TEXT
  5
130
330
22
100
AcDbEntity
  8
1
  6
Continuous
 62
     7
100
AcDbText
 10
0.05
 20
0.05
 30
0.0
 40
0.125
  1
2-FRONT
 50
1.0
100
AcDbText
  0
TEXT
  5
139
330
22
100
AcDbEntity
  8
126
  6
Continuous
 62
     3
100
AcDbText
 10
29.824134
 20
0.5761997
 30
0.0
 40
0.08
  1
REL - ECNBV03397 01JUN04
100
AcDbText
  0
TEXT
  5
13A
330
22
100
AcDbEntity
  8
1
  6
Continuous
 62
     3
100
AcDbText
 10
9.351190666666665
 20
18.749128
 30
0.0
 40
0.4
  1
TEMPLATE FOR
 72
     1
 11
11.684524
 21
18.949128
 31
0.0
100
AcDbText
 73
     2
  0
INSERT
  5
13B
330
22
100
AcDbEntity
  8
126
100
AcDbBlockReference
  2
*U2
 10
27.72054600000001
 20
1.292240199999999
 30
0.0
  0
DIMENSION
  5
140
330
22
100
AcDbEntity
  8
1
  6
Continuous
 62
     3
100
AcDbDimension
  2
*D4
 10
22.087193
 20
2.7776816
 30
0.0
 11
22.087193
 21
11.965182
 31
0.0
 70
   128
 71
     5
 42
-1.0
  3
DSTYLE1
100
AcDbAlignedDimension
 13
18.395498
 23
21.152682
 33
0.0
 14
18.395498
 24
2.7776816
 34
0.0
 50
90.0
100
AcDbRotatedDimension
  0
DIMENSION
  5
141
330
22
100
AcDbEntity
  8
1
  6
Continuous
 62
     3
100
AcDbDimension
  2
*D5
 10
3.520497499999998
 20
1.4837846
 30
0.0
 11
11.707997
 21
1.4837846
 31
0.0
 70
   128
 71
     5
 42
-1.0
  3
DSTYLE1
100
AcDbAlignedDimension
 13
19.895498
 23
4.2776816
 33
0.0
 14
3.520497499999998
 24
4.2776816
 34
0.0
100
AcDbRotatedDimension
  0
LWPOLYLINE
  5
14E
330
22
100
AcDbEntity
  8
1
  6
Continuous
 62
     3
100
AcDbPolyline
 90
        5
 70
     1
 43
0.02
 10
16.365764
 20
4.2776816
 10
16.365764
 20
9.216999899999999
 10
11.707997
 20
10.98927
 10
7.0502309
 20
9.216999899999999
 10
7.0502309
 20
4.2776816
  0
TEXT
  5
152
330
22
100
AcDbEntity
  8
1
  6
Continuous
 62
     3
100
AcDbText
 10
9.162757666666667
 20
9.3128317
 30
0.0
 40
0.4
  1
**IMPORTANT**
 51
359.9999958057
 72
     1
 11
11.696091
 21
9.512831699999999
 31
0.0
100
AcDbText
 73
     2
  0
TEXT
  5
153
330
22
100
AcDbEntity
  8
1
  6
Continuous
 62
     3
100
AcDbText
 10
10.547244
 20
3.376591599999998
 30
0.0
 40
0.3
  1
74180413
 72
     1
 11
11.697244
 21
3.526591599999998
 31
0.0
100
AcDbText
 73
     2
  0
INSERT
  5
154
330
22
100
AcDbEntity
  8
1
100
AcDbBlockReference
  2
*D6
 10
0.0
 20
0.0
 30
0.0
  0
INSERT
  5
156
330
22
100
AcDbEntity
  8
1
100
AcDbBlockReference
  2
*U3
 10
11.679577
 20
18.033319
 30
0.0
  0
TEXT
  5
157
330
22
100
AcDbEntity
  8
126
  6
Continuous
 62
     3
100
AcDbText
 10
31.419033
 20
1.0557581
 30
0.0
 40
0.1
  1
JAS
100
AcDbText
  0
INSERT
  5
158
330
22
100
AcDbEntity
  8
1
100
AcDbBlockReference
  2
*U1
 10
11.718345
 20
8.515186699999999
 30
0.0
  0
TEXT
  5
159
330
22
100
AcDbEntity
  8
180
  6
Continuous
 62
     1
100
AcDbText
 10
31.374666
 20
1.9215003
 30
0.0
 40
0.125
  1
MANUFACTURING COMPANY
 41
0.9
100
AcDbText
  0
TEXT
  5
15A
330
22
100
AcDbEntity
  8
126
  6
Continuous
 62
     3
100
AcDbText
 10
31.091787
 20
1.766558499999999
 30
0.0
 40
0.075
  1
BROADVIEW, ILLINOIS
 72
     1
 11
31.791787
 21
1.8040585
 31
0.0
100
AcDbText
 73
     2
  0
LINE
  5
15B
330
22
100
AcDbEntity
  8
126
  6
Continuous
 62
     3
100
AcDbLine
 10
30.185445
 20
1.9231932
 30
0.0
 11
30.375076
 21
1.9231932
 31
0.0
  0
LINE
  5
15C
330
22
100
AcDbEntity
  8
126
  6
Continuous
 62
     3
100
AcDbLine
 10
29.85902
 20
2.0842476
 30
0.0
 11
30.121327
 21
2.0842476
 31
0.0
  0
LINE
  5
15D
330
22
100
AcDbEntity
  8
126
  6
Continuous
 62
     3
100
AcDbLine
 10
29.825794
 20
1.8958182
 30
0.0
 11
30.100794
 21
1.8958182
 31
0.0
  0
LINE
  5
15E
330
22
100
AcDbEntity
  8
126
  6
Continuous
 62
     3
100
AcDbLine
 10
29.825794
 20
1.8958182
 30
0.0
 11
29.85902
 21
2.0842476
 31
0.0
  0
LINE
  5
15F
330
22
100
AcDbEntity
  8
126
  6
Continuous
 62
     3
100
AcDbLine
 10
29.906334
 20
2.0568726
 30
0.0
 11
30.1165
 21
2.0568726
 31
0.0
  0
LINE
  5
160
330
22
100
AcDbEntity
  8
126
  6
Continuous
 62
     3
100
AcDbLine
 10
30.128451
 20
1.8958182
 30
0.0
 11
30.161676
 21
2.0842476
 31
0.0
  0
LINE
  5
161
330
22
100
AcDbEntity
  8
126
  6
Continuous
 62
     3
100
AcDbLine
 10
30.161676
 20
2.0842476
 30
0.0
 11
30.213843
 21
2.0842476
 31
0.0
  0
LINE
  5
162
330
22
100
AcDbEntity
  8
126
  6
Continuous
 62
     3
100
AcDbLine
 10
30.128451
 20
1.8958182
 30
0.0
 11
30.370249
 21
1.8958182
 31
0.0
  0
LINE
  5
163
330
22
100
AcDbEntity
  8
126
  6
Continuous
 62
     3
100
AcDbLine
 10
30.185445
 20
1.9231932
 30
0.0
 11
30.213843
 21
2.0842476
 31
0.0
  0
LINE
  5
164
330
22
100
AcDbEntity
  8
126
  6
Continuous
 62
     3
100
AcDbLine
 10
29.896972
 20
2.003782899999999
 30
0.0
 11
29.906334
 21
2.0568726
 31
0.0
  0
LINE
  5
165
330
22
100
AcDbEntity
  8
126
  6
Continuous
 62
     3
100
AcDbLine
 10
30.1165
 20
2.0568726
 30
0.0
 11
30.121327
 21
2.0842476
 31
0.0
  0
LINE
  5
166
330
22
100
AcDbEntity
  8
126
  6
Continuous
 62
     3
100
AcDbLine
 10
30.089597
 20
1.976282899999999
 30
0.0
 11
30.094446
 21
2.003782899999999
 31
0.0
  0
LINE
  5
167
330
22
100
AcDbEntity
  8
126
  6
Continuous
 62
     3
100
AcDbLine
 10
31.323375
 20
2.0842476
 30
0.0
 11
31.169099
 21
1.9690682
 31
0.0
  0
LINE
  5
168
330
22
100
AcDbEntity
  8
126
  6
Continuous
 62
     3
100
AcDbLine
 10
31.323375
 20
2.0842476
 30
0.0
 11
31.262155
 21
2.0842476
 31
0.0
  0
LINE
  5
169
330
22
100
AcDbEntity
  8
126
  6
Continuous
 62
     3
100
AcDbLine
 10
31.262155
 20
2.0842476
 30
0.0
 11
31.14880300000001
 21
1.9996217
 31
0.0
  0
LINE
  5
16A
330
22
100
AcDbEntity
  8
126
  6
Continuous
 62
     3
100
AcDbLine
 10
30.100794
 20
1.8958182
 30
0.0
 11
30.105621
 21
1.9231932
 31
0.0
  0
LINE
  5
16B
330
22
100
AcDbEntity
  8
126
  6
Continuous
 62
     3
100
AcDbLine
 10
29.886343
 20
1.9231932
 30
0.0
 11
29.895704
 21
1.976282899999999
 31
0.0
  0
LINE
  5
16C
330
22
100
AcDbEntity
  8
126
  6
Continuous
 62
     3
100
AcDbLine
 10
30.094446
 20
2.003782899999999
 30
0.0
 11
29.896972
 21
2.003782899999999
 31
0.0
  0
LINE
  5
16D
330
22
100
AcDbEntity
  8
126
  6
Continuous
 62
     3
100
AcDbLine
 10
29.895704
 20
1.976282899999999
 30
0.0
 11
30.089597
 21
1.976282899999999
 31
0.0
  0
LINE
  5
16E
330
22
100
AcDbEntity
  8
126
  6
Continuous
 62
     3
100
AcDbLine
 10
30.723949
 20
2.0842476
 30
0.0
 11
30.580825
 21
2.003055899999999
 31
0.0
  0
LINE
  5
16F
330
22
100
AcDbEntity
  8
126
  6
Continuous
 62
     3
100
AcDbLine
 10
29.886343
 20
1.9231932
 30
0.0
 11
30.105621
 21
1.9231932
 31
0.0
  0
LINE
  5
170
330
22
100
AcDbEntity
  8
126
  6
Continuous
 62
     3
100
AcDbLine
 10
30.370249
 20
1.8958182
 30
0.0
 11
30.375076
 21
1.9231932
 31
0.0
  0
LINE
  5
171
330
22
100
AcDbEntity
  8
126
  6
Continuous
 62
     3
100
AcDbLine
 10
30.649722
 20
2.0842476
 30
0.0
 11
30.723949
 21
2.0842476
 31
0.0
  0
LINE
  5
172
330
22
100
AcDbEntity
  8
126
  6
Continuous
 62
     3
100
AcDbLine
 10
30.616328
 20
1.8958182
 30
0.0
 11
30.697549
 21
1.8958182
 31
0.0
  0
LINE
  5
173
330
22
100
AcDbEntity
  8
126
  6
Continuous
 62
     3
100
AcDbLine
 10
30.45635
 20
1.932443199999999
 30
0.0
 11
30.449892
 21
1.8958182
 31
0.0
  0
LINE
  5
174
330
22
100
AcDbEntity
  8
126
  6
Continuous
 62
     3
100
AcDbLine
 10
30.483117
 20
2.0842476
 30
0.0
 11
30.4646
 21
1.979231
 31
0.0
  0
LINE
  5
175
330
22
100
AcDbEntity
  8
126
  6
Continuous
 62
     3
100
AcDbLine
 10
30.871587
 20
2.0842476
 30
0.0
 11
30.963087
 21
2.0842476
 31
0.0
  0
LINE
  5
176
330
22
100
AcDbEntity
  8
126
  6
Continuous
 62
     3
100
AcDbLine
 10
30.993693
 20
1.8958182
 30
0.0
 11
31.054712
 21
1.8958182
 31
0.0
  0
LINE
  5
177
330
22
100
AcDbEntity
  8
126
  6
Continuous
 62
     3
100
AcDbLine
 10
30.53061
 20
1.9745698
 30
0.0
 11
30.45635
 21
1.932443199999999
 31
0.0
  0
LINE
  5
178
330
22
100
AcDbEntity
  8
126
  6
Continuous
 62
     3
100
AcDbLine
 10
30.649722
 20
2.0842476
 30
0.0
 11
30.4646
 21
1.979231
 31
0.0
  0
LINE
  5
179
330
22
100
AcDbEntity
  8
126
  6
Continuous
 62
     3
100
AcDbLine
 10
30.483117
 20
2.0842476
 30
0.0
 11
30.430949
 21
2.0842476
 31
0.0
  0
LINE
  5
17A
330
22
100
AcDbEntity
  8
126
  6
Continuous
 62
     3
100
AcDbLine
 10
30.397724
 20
1.8958182
 30
0.0
 11
30.430949
 21
2.0842476
 31
0.0
  0
LINE
  5
17B
330
22
100
AcDbEntity
  8
126
  6
Continuous
 62
     3
100
AcDbLine
 10
30.697549
 20
1.8958182
 30
0.0
 11
30.580825
 21
2.003055899999999
 31
0.0
  0
LINE
  5
17C
330
22
100
AcDbEntity
  8
126
  6
Continuous
 62
     3
100
AcDbLine
 10
30.616328
 20
1.8958182
 30
0.0
 11
30.53061
 21
1.9745698
 31
0.0
  0
LINE
  5
17D
330
22
100
AcDbEntity
  8
126
  6
Continuous
 62
     3
100
AcDbLine
 10
30.449892
 20
1.8958182
 30
0.0
 11
30.397724
 21
1.8958182
 31
0.0
  0
LINE
  5
17E
330
22
100
AcDbEntity
  8
126
  6
Continuous
 62
     3
100
AcDbLine
 10
30.706712
 20
1.8958182
 30
0.0
 11
30.75537800000001
 21
1.8958182
 31
0.0
  0
LINE
  5
17F
330
22
100
AcDbEntity
  8
126
  6
Continuous
 62
     3
100
AcDbLine
 10
30.81050300000001
 20
1.958818199999999
 30
0.0
 11
30.908564
 21
2.0708888
 31
0.0
  0
LINE
  5
180
330
22
100
AcDbEntity
  8
126
  6
Continuous
 62
     3
100
AcDbLine
 10
30.963059
 20
1.958818199999999
 30
0.0
 11
30.908564
 21
2.0708888
 31
0.0
  0
LINE
  5
181
330
22
100
AcDbEntity
  8
126
  6
Continuous
 62
     3
100
AcDbLine
 10
30.706712
 20
1.8958182
 30
0.0
 11
30.871587
 21
2.0842476
 31
0.0
  0
LINE
  5
182
330
22
100
AcDbEntity
  8
126
  6
Continuous
 62
     3
100
AcDbLine
 10
30.787425
 20
1.932443199999999
 30
0.0
 11
30.97588400000001
 21
1.932443199999999
 31
0.0
  0
LINE
  5
183
330
22
100
AcDbEntity
  8
126
  6
Continuous
 62
     3
100
AcDbLine
 10
31.054712
 20
1.8958182
 30
0.0
 11
30.963087
 21
2.0842476
 31
0.0
  0
LINE
  5
184
330
22
100
AcDbEntity
  8
126
  6
Continuous
 62
     3
100
AcDbLine
 10
30.81050300000001
 20
1.958818199999999
 30
0.0
 11
30.963059
 21
1.958818199999999
 31
0.0
  0
LINE
  5
185
330
22
100
AcDbEntity
  8
126
  6
Continuous
 62
     3
100
AcDbLine
 10
30.75537800000001
 20
1.8958182
 30
0.0
 11
30.787425
 21
1.932443199999999
 31
0.0
  0
LINE
  5
186
330
22
100
AcDbEntity
  8
126
  6
Continuous
 62
     3
100
AcDbLine
 10
30.993693
 20
1.8958182
 30
0.0
 11
30.97588400000001
 21
1.932443199999999
 31
0.0
  0
LINE
  5
187
330
22
100
AcDbEntity
  8
126
  6
Continuous
 62
     3
100
AcDbLine
 10
31.262155
 20
2.0842476
 30
0.0
 11
31.323375
 21
2.0842476
 31
0.0
  0
LINE
  5
188
330
22
100
AcDbEntity
  8
126
  6
Continuous
 62
     3
100
AcDbLine
 10
31.100462
 20
1.8958182
 30
0.0
 11
31.156183
 21
1.8958182
 31
0.0
  0
LINE
  5
189
330
22
100
AcDbEntity
  8
126
  6
Continuous
 62
     3
100
AcDbLine
 10
31.100462
 20
1.8958182
 30
0.0
 11
31.111597
 21
1.958968999999999
 31
0.0
  0
LINE
  5
18A
330
22
100
AcDbEntity
  8
126
  6
Continuous
 62
     3
100
AcDbLine
 10
31.156183
 20
1.8958182
 30
0.0
 11
31.169099
 21
1.9690682
 31
0.0
  0
LINE
  5
18B
330
22
100
AcDbEntity
  8
126
  6
Continuous
 62
     3
100
AcDbLine
 10
31.06912100000001
 20
2.0842476
 30
0.0
 11
31.14880300000001
 21
1.9996217
 31
0.0
  0
LINE
  5
18C
330
22
100
AcDbEntity
  8
126
  6
Continuous
 62
     3
100
AcDbLine
 10
31.111597
 20
1.958968999999999
 30
0.0
 11
30.993638
 21
2.0842476
 31
0.0
  0
LINE
  5
18D
330
22
100
AcDbEntity
  8
126
  6
Continuous
 62
     3
100
AcDbLine
 10
30.993638
 20
2.0842476
 30
0.0
 11
31.06912100000001
 21
2.0842476
 31
0.0
  0
LINE
  5
18E
330
22
100
AcDbEntity
  8
126
  6
Continuous
 62
     3
100
AcDbLine
 10
31.312327
 20
2.0842476
 30
0.0
 11
31.31705
 21
2.0795248
 31
0.0
  0
LINE
  5
18F
330
22
100
AcDbEntity
  8
126
  6
Continuous
 62
     3
100
AcDbLine
 10
31.301278
 20
2.0842476
 30
0.0
 11
31.310724
 21
2.074802099999998
 31
0.0
  0
LINE
  5
190
330
22
100
AcDbEntity
  8
126
  6
Continuous
 62
     3
100
AcDbLine
 10
31.29023
 20
2.0842476
 30
0.0
 11
31.304398
 21
2.0700794
 31
0.0
  0
LINE
  5
191
330
22
100
AcDbEntity
  8
126
  6
Continuous
 62
     3
100
AcDbLine
 10
31.279181
 20
2.0842476
 30
0.0
 11
31.298072
 21
2.065356699999999
 31
0.0
  0
LINE
  5
192
330
22
100
AcDbEntity
  8
126
  6
Continuous
 62
     3
100
AcDbLine
 10
31.268133
 20
2.0842476
 30
0.0
 11
31.29174600000001
 21
2.0606339
 31
0.0
  0
LINE
  5
193
330
22
100
AcDbEntity
  8
126
  6
Continuous
 62
     3
100
AcDbLine
 10
31.259251
 20
2.0820802
 30
0.0
 11
31.28542
 21
2.0559112
 31
0.0
  0
LINE
  5
194
330
22
100
AcDbEntity
  8
126
  6
Continuous
 62
     3
100
AcDbLine
 10
31.252926
 20
2.0773575
 30
0.0
 11
31.279095
 21
2.051188499999998
 31
0.0
  0
LINE
  5
195
330
22
100
AcDbEntity
  8
126
  6
Continuous
 62
     3
100
AcDbLine
 10
31.2466
 20
2.072634699999999
 30
0.0
 11
31.272769
 21
2.0464658
 31
0.0
  0
LINE
  5
196
330
22
100
AcDbEntity
  8
126
  6
Continuous
 62
     3
100
AcDbLine
 10
31.240274
 20
2.067911999999999
 30
0.0
 11
31.266443
 21
2.041742999999998
 31
0.0
  0
LINE
  5
197
330
22
100
AcDbEntity
  8
126
  6
Continuous
 62
     3
100
AcDbLine
 10
31.233948
 20
2.063189299999999
 30
0.0
 11
31.260117
 21
2.0370203
 31
0.0
  0
LINE
  5
198
330
22
100
AcDbEntity
  8
126
  6
Continuous
 62
     3
100
AcDbLine
 10
31.227622
 20
2.0584665
 30
0.0
 11
31.253791
 21
2.0322976
 31
0.0
  0
LINE
  5
199
330
22
100
AcDbEntity
  8
126
  6
Continuous
 62
     3
100
AcDbLine
 10
31.221297
 20
2.0537438
 30
0.0
 11
31.247466
 21
2.027574899999998
 31
0.0
  0
LINE
  5
19A
330
22
100
AcDbEntity
  8
126
  6
Continuous
 62
     3
100
AcDbLine
 10
31.214971
 20
2.0490211
 30
0.0
 11
31.24114
 21
2.0228521
 31
0.0
  0
LINE
  5
19B
330
22
100
AcDbEntity
  8
126
  6
Continuous
 62
     3
100
AcDbLine
 10
31.208645
 20
2.0442984
 30
0.0
 11
31.234814
 21
2.018129399999998
 31
0.0
  0
LINE
  5
19C
330
22
100
AcDbEntity
  8
126
  6
Continuous
 62
     3
100
AcDbLine
 10
31.202319
 20
2.0395756
 30
0.0
 11
31.228488
 21
2.013406699999999
 31
0.0
  0
LINE
  5
19D
330
22
100
AcDbEntity
  8
126
  6
Continuous
 62
     3
100
AcDbLine
 10
31.195993
 20
2.034852899999999
 30
0.0
 11
31.222162
 21
2.008683899999998
 31
0.0
  0
LINE
  5
19E
330
22
100
AcDbEntity
  8
126
  6
Continuous
 62
     3
100
AcDbLine
 10
31.189667
 20
2.030130199999998
 30
0.0
 11
31.215836
 21
2.003961199999999
 31
0.0
  0
LINE
  5
19F
330
22
100
AcDbEntity
  8
126
  6
Continuous
 62
     3
100
AcDbLine
 10
31.183342
 20
2.0254075
 30
0.0
 11
31.209511
 21
1.999238499999998
 31
0.0
  0
LINE
  5
1A0
330
22
100
AcDbEntity
  8
126
  6
Continuous
 62
     3
100
AcDbLine
 10
31.177016
 20
2.020684699999999
 30
0.0
 11
31.203185
 21
1.994515799999999
 31
0.0
  0
LINE
  5
1A1
330
22
100
AcDbEntity
  8
126
  6
Continuous
 62
     3
100
AcDbLine
 10
31.17069000000001
 20
2.015962
 30
0.0
 11
31.196859
 21
1.989792999999998
 31
0.0
  0
LINE
  5
1A2
330
22
100
AcDbEntity
  8
126
  6
Continuous
 62
     3
100
AcDbLine
 10
31.164364
 20
2.0112393
 30
0.0
 11
31.190533
 21
1.9850703
 31
0.0
  0
LINE
  5
1A3
330
22
100
AcDbEntity
  8
126
  6
Continuous
 62
     3
100
AcDbLine
 10
31.158038
 20
2.0065166
 30
0.0
 11
31.184207
 21
1.9803476
 31
0.0
  0
LINE
  5
1A4
330
22
100
AcDbEntity
  8
126
  6
Continuous
 62
     3
100
AcDbLine
 10
31.151713
 20
2.0017938
 30
0.0
 11
31.177882
 21
1.975624899999998
 31
0.0
  0
LINE
  5
1A5
330
22
100
AcDbEntity
  8
126
  6
Continuous
 62
     3
100
AcDbLine
 10
31.05821
 20
2.0842476
 30
0.0
 11
31.171556
 21
1.970902099999999
 31
0.0
  0
LINE
  5
1A6
330
22
100
AcDbEntity
  8
126
  6
Continuous
 62
     3
100
AcDbLine
 10
31.047162
 20
2.0842476
 30
0.0
 11
31.168086
 21
1.963322999999999
 31
0.0
  0
LINE
  5
1A7
330
22
100
AcDbEntity
  8
126
  6
Continuous
 62
     3
100
AcDbLine
 10
31.036113
 20
2.0842476
 30
0.0
 11
31.16643
 21
1.953930599999999
 31
0.0
  0
LINE
  5
1A8
330
22
100
AcDbEntity
  8
126
  6
Continuous
 62
     3
100
AcDbLine
 10
31.025065
 20
2.0842476
 30
0.0
 11
31.164774
 21
1.944538199999999
 31
0.0
  0
LINE
  5
1A9
330
22
100
AcDbEntity
  8
126
  6
Continuous
 62
     3
100
AcDbLine
 10
31.014016
 20
2.0842476
 30
0.0
 11
31.163118
 21
1.935145799999999
 31
0.0
  0
LINE
  5
1AA
330
22
100
AcDbEntity
  8
126
  6
Continuous
 62
     3
100
AcDbLine
 10
31.002968
 20
2.0842476
 30
0.0
 11
31.161462
 21
1.925753399999999
 31
0.0
  0
LINE
  5
1AB
330
22
100
AcDbEntity
  8
126
  6
Continuous
 62
     3
100
AcDbLine
 10
31.021338
 20
2.054828399999999
 30
0.0
 11
31.159806
 21
1.916361
 31
0.0
  0
LINE
  5
1AC
330
22
100
AcDbEntity
  8
126
  6
Continuous
 62
     3
100
AcDbLine
 10
31.11078
 20
1.954337699999999
 30
0.0
 11
31.158149
 21
1.9069686
 31
0.0
  0
LINE
  5
1AD
330
22
100
AcDbEntity
  8
126
  6
Continuous
 62
     3
100
AcDbLine
 10
31.109124
 20
1.9449453
 30
0.0
 11
31.156493
 21
1.897576199999999
 31
0.0
  0
LINE
  5
1AE
330
22
100
AcDbEntity
  8
126
  6
Continuous
 62
     3
100
AcDbLine
 10
30.958773
 20
2.0842476
 30
0.0
 11
30.96717
 21
2.075851499999999
 31
0.0
  0
LINE
  5
1AF
330
22
100
AcDbEntity
  8
126
  6
Continuous
 62
     3
100
AcDbLine
 10
31.107468
 20
1.9355528
 30
0.0
 11
31.147203
 21
1.8958182
 31
0.0
  0
LINE
  5
1B0
330
22
100
AcDbEntity
  8
126
  6
Continuous
 62
     3
100
AcDbLine
 10
30.947725
 20
2.0842476
 30
0.0
 11
30.977627
 21
2.0543455
 31
0.0
  0
LINE
  5
1B1
330
22
100
AcDbEntity
  8
126
  6
Continuous
 62
     3
100
AcDbLine
 10
31.105812
 20
1.926160399999998
 30
0.0
 11
31.136154
 21
1.8958182
 31
0.0
  0
LINE
  5
1B2
330
22
100
AcDbEntity
  8
126
  6
Continuous
 62
     3
100
AcDbLine
 10
30.936676
 20
2.0842476
 30
0.0
 11
30.98808400000001
 21
2.0328395
 31
0.0
  0
LINE
  5
1B3
330
22
100
AcDbEntity
  8
126
  6
Continuous
 62
     3
100
AcDbLine
 10
31.104156
 20
1.916768
 30
0.0
 11
31.125106
 21
1.8958182
 31
0.0
  0
LINE
  5
1B4
330
22
100
AcDbEntity
  8
126
  6
Continuous
 62
     3
100
AcDbLine
 10
30.925628
 20
2.0842476
 30
0.0
 11
30.998542
 21
2.011333599999999
 31
0.0
  0
LINE
  5
1B5
330
22
100
AcDbEntity
  8
126
  6
Continuous
 62
     3
100
AcDbLine
 10
31.1025
 20
1.9073756
 30
0.0
 11
31.114057
 21
1.8958182
 31
0.0
  0
LINE
  5
1B6
330
22
100
AcDbEntity
  8
126
  6
Continuous
 62
     3
100
AcDbLine
 10
30.914579
 20
2.0842476
 30
0.0
 11
31.008999
 21
1.989827699999999
 31
0.0
  0
LINE
  5
1B7
330
22
100
AcDbEntity
  8
126
  6
Continuous
 62
     3
100
AcDbLine
 10
31.100844
 20
1.897983199999999
 30
0.0
 11
31.103009
 21
1.8958182
 31
0.0
  0
LINE
  5
1B8
330
22
100
AcDbEntity
  8
126
  6
Continuous
 62
     3
100
AcDbLine
 10
30.903531
 20
2.0842476
 30
0.0
 11
31.019457
 21
1.968321699999999
 31
0.0
  0
LINE
  5
1B9
330
22
100
AcDbEntity
  8
126
  6
Continuous
 62
     3
100
AcDbLine
 10
30.892482
 20
2.0842476
 30
0.0
 11
30.907293
 21
2.0694365
 31
0.0
  0
LINE
  5
1BA
330
22
100
AcDbEntity
  8
126
  6
Continuous
 62
     3
100
AcDbLine
 10
30.911142
 20
2.065588199999999
 30
0.0
 11
31.029914
 21
1.946815699999999
 31
0.0
  0
LINE
  5
1BB
330
22
100
AcDbEntity
  8
126
  6
Continuous
 62
     3
100
AcDbLine
 10
30.881434
 20
2.0842476
 30
0.0
 11
30.902137
 21
2.063543899999999
 31
0.0
  0
TEXT
  5
1BC
330
22
100
AcDbEntity
  8
126
  6
Continuous
 62
     3
100
AcDbText
 10
29.862294
 20
1.0587193
 30
0.0
 40
0.09375
  1
DR.BY
 41
0.9
100
AcDbText
  0
TEXT
  5
1BD
330
22
100
AcDbEntity
  8
126
  6
Continuous
 62
     3
100
AcDbText
 10
25.854556
 20
1.5483538
 30
0.0
 40
0.08
  1
MATERIAL
100
AcDbText
  0
TEXT
  5
1BE
330
22
100
AcDbEntity
  8
126
  6
Continuous
 62
     3
100
AcDbText
 10
25.838161
 20
2.002224399999998
 30
0.0
 40
0.08
  1
FINISH
100
AcDbText
  0
TEXT
  5
1BF
330
22
100
AcDbEntity
  8
126
  6
Continuous
 62
     3
100
AcDbText
 10
30.85718400000001
 20
1.057121899999998
 30
0.0
 40
0.09375
  1
CH.BY
 41
0.9
100
AcDbText
  0
TEXT
  5
1C0
330
22
100
AcDbEntity
  8
126
  6
Continuous
 62
     3
100
AcDbText
 10
29.86505
 20
0.8547450000000001
 30
0.0
 40
0.09375
  1
SCALE
 41
1.04
100
AcDbText
  0
TEXT
  5
1C1
330
22
100
AcDbEntity
  8
1
  6
Continuous
 62
     1
100
AcDbText
 10
31.868336
 20
0.4710837000000002
 30
0.0
 40
0.1875
  1
REV-REL
 51
359.9999958057
100
AcDbText
  0
TEXT
  5
1C2
330
22
100
AcDbEntity
  8
126
  6
Continuous
 62
     3
100
AcDbText
 10
31.859604
 20
1.039798199999999
 30
0.0
 40
0.09375
  1
DATE
 41
1.024999999999999
100
AcDbText
  0
LINE
  5
1C3
330
22
100
AcDbEntity
  8
180
  6
Continuous
 62
     6
100
AcDbLine
 10
25.789291
 20
0.0781881
 30
0.0
 11
25.789291
 21
2.140688399999999
 31
0.0
  0
LINE
  5
1C4
330
22
100
AcDbEntity
  8
180
  6
Continuous
 62
     6
100
AcDbLine
 10
25.789291
 20
2.140688399999999
 30
0.0
 11
33.789294
 21
2.140688399999999
 31
0.0
  0
LINE
  5
1C5
330
22
100
AcDbEntity
  8
180
  6
Continuous
 62
     6
100
AcDbLine
 10
29.789292
 20
2.140688399999999
 30
0.0
 11
29.789292
 21
0.0781881
 31
0.0
  0
LINE
  5
1C6
330
22
100
AcDbEntity
  8
180
  6
Continuous
 62
     6
100
AcDbLine
 10
29.789292
 20
0.3906881
 30
0.0
 11
33.789294
 21
0.3906881
 31
0.0
  0
LINE
  5
1C7
330
22
100
AcDbEntity
  8
180
  6
Continuous
 62
     6
100
AcDbLine
 10
33.789294
 20
0.7031882
 30
0.0
 11
29.789292
 21
0.7031882
 31
0.0
  0
LINE
  5
1C8
330
22
100
AcDbEntity
  8
180
  6
Continuous
 62
     6
100
AcDbLine
 10
29.789292
 20
1.2031882
 30
0.0
 11
33.789294
 21
1.2031882
 31
0.0
  0
LINE
  5
1C9
330
22
100
AcDbEntity
  8
180
  6
Continuous
 62
     6
100
AcDbLine
 10
29.789292
 20
2.140688399999999
 30
0.0
 11
29.789292
 21
1.703188199999999
 31
0.0
  0
LINE
  5
1CA
330
22
100
AcDbEntity
  8
180
  6
Continuous
 62
     6
100
AcDbLine
 10
29.789292
 20
1.703188199999999
 30
0.0
 11
33.789294
 21
1.703188199999999
 31
0.0
  0
LINE
  5
1CB
330
22
100
AcDbEntity
  8
180
  6
Continuous
 62
     6
100
AcDbLine
 10
31.789292
 20
1.2031882
 30
0.0
 11
31.789292
 21
0.3906881
 31
0.0
  0
LINE
  5
1CC
330
22
100
AcDbEntity
  8
180
  6
Continuous
 62
     6
100
AcDbLine
 10
29.789292
 20
1.0156882
 30
0.0
 11
31.789292
 21
1.0156882
 31
0.0
  0
LINE
  5
1CD
330
22
100
AcDbEntity
  8
180
  6
Continuous
 62
     6
100
AcDbLine
 10
30.789292
 20
1.0156882
 30
0.0
 11
30.789292
 21
1.2031882
 31
0.0
  0
LINE
  5
1CE
330
22
100
AcDbEntity
  8
180
  6
Continuous
 62
     6
100
AcDbLine
 10
29.789292
 20
1.703188199999999
 30
0.0
 11
25.789291
 21
1.703188199999999
 31
0.0
  0
LINE
  5
1CF
330
22
100
AcDbEntity
  8
180
  6
Continuous
 62
     6
100
AcDbLine
 10
29.789292
 20
0.7031882
 30
0.0
 11
25.789291
 21
0.7031882
 31
0.0
  0
LINE
  5
1D0
330
22
100
AcDbEntity
  8
126
  6
Continuous
 62
     3
100
AcDbLine
 10
30.921599
 20
2.0440822
 30
0.0
 11
31.040371
 21
1.9253098
 31
0.0
  0
LINE
  5
1D1
330
22
100
AcDbEntity
  8
126
  6
Continuous
 62
     3
100
AcDbLine
 10
30.871026
 20
2.0836066
 30
0.0
 11
30.896981
 21
2.057651299999998
 31
0.0
  0
LINE
  5
1D2
330
22
100
AcDbEntity
  8
126
  6
Continuous
 62
     3
100
AcDbLine
 10
30.932056
 20
2.022576299999998
 30
0.0
 11
31.050829
 21
1.9038038
 31
0.0
  0
LINE
  5
1D3
330
22
100
AcDbEntity
  8
126
  6
Continuous
 62
     3
100
AcDbLine
 10
30.86587
 20
2.0777141
 30
0.0
 11
30.891825
 21
2.051758799999999
 31
0.0
  0
LINE
  5
1D4
330
22
100
AcDbEntity
  8
126
  6
Continuous
 62
     3
100
AcDbLine
 10
30.942514
 20
2.0010703
 30
0.0
 11
31.047766
 21
1.8958182
 31
0.0
  0
LINE
  5
1D5
330
22
100
AcDbEntity
  8
126
  6
Continuous
 62
     3
100
AcDbLine
 10
30.860714
 20
2.071821499999999
 30
0.0
 11
30.886669
 21
2.045866199999998
 31
0.0
  0
LINE
  5
1D6
330
22
100
AcDbEntity
  8
126
  6
Continuous
 62
     3
100
AcDbLine
 10
30.952971
 20
1.9795644
 30
0.0
 11
31.036717
 21
1.8958182
 31
0.0
  0
LINE
  5
1D7
330
22
100
AcDbEntity
  8
126
  6
Continuous
 62
     3
100
AcDbLine
 10
30.855558
 20
2.065928899999998
 30
0.0
 11
30.881513
 21
2.0399736
 31
0.0
  0
LINE
  5
1D8
330
22
100
AcDbEntity
  8
126
  6
Continuous
 62
     3
100
AcDbLine
 10
30.962669
 20
1.958818199999999
 30
0.0
 11
31.025669
 21
1.8958182
 31
0.0
  0
LINE
  5
1D9
330
22
100
AcDbEntity
  8
126
  6
Continuous
 62
     3
100
AcDbLine
 10
30.850402
 20
2.0600363
 30
0.0
 11
30.876357
 21
2.0340811
 31
0.0
  0
LINE
  5
1DA
330
22
100
AcDbEntity
  8
126
  6
Continuous
 62
     3
100
AcDbLine
 10
30.95162
 20
1.958818199999999
 30
0.0
 11
31.01462
 21
1.8958182
 31
0.0
  0
LINE
  5
1DB
330
22
100
AcDbEntity
  8
126
  6
Continuous
 62
     3
100
AcDbLine
 10
30.845246
 20
2.0541438
 30
0.0
 11
30.871201
 21
2.028188499999999
 31
0.0
  0
LINE
  5
1DC
330
22
100
AcDbEntity
  8
126
  6
Continuous
 62
     3
100
AcDbLine
 10
30.940572
 20
1.958818199999999
 30
0.0
 11
30.966947
 21
1.932443199999999
 31
0.0
  0
LINE
  5
1DD
330
22
100
AcDbEntity
  8
126
  6
Continuous
 62
     3
100
AcDbLine
 10
30.984343
 20
1.9150465
 30
0.0
 11
31.003572
 21
1.8958182
 31
0.0
  0
LINE
  5
1DE
330
22
100
AcDbEntity
  8
126
  6
Continuous
 62
     3
100
AcDbLine
 10
30.84009
 20
2.048251199999999
 30
0.0
 11
30.866045
 21
2.0222959
 31
0.0
  0
LINE
  5
1DF
330
22
100
AcDbEntity
  8
126
  6
Continuous
 62
     3
100
AcDbLine
 10
30.929523
 20
1.958818199999999
 30
0.0
 11
30.955898
 21
1.932443199999999
 31
0.0
  0
LINE
  5
1E0
330
22
100
AcDbEntity
  8
126
  6
Continuous
 62
     3
100
AcDbLine
 10
30.834934
 20
2.0423586
 30
0.0
 11
30.860889
 21
2.0164034
 31
0.0
  0
LINE
  5
1E1
330
22
100
AcDbEntity
  8
126
  6
Continuous
 62
     3
100
AcDbLine
 10
30.918475
 20
1.958818199999999
 30
0.0
 11
30.94485
 21
1.932443199999999
 31
0.0
  0
LINE
  5
1E2
330
22
100
AcDbEntity
  8
126
  6
Continuous
 62
     3
100
AcDbLine
 10
30.829778
 20
2.0364661
 30
0.0
 11
30.855733
 21
2.0105108
 31
0.0
  0
LINE
  5
1E3
330
22
100
AcDbEntity
  8
126
  6
Continuous
 62
     3
100
AcDbLine
 10
30.907426
 20
1.958818199999999
 30
0.0
 11
30.933801
 21
1.932443199999999
 31
0.0
  0
LINE
  5
1E4
330
22
100
AcDbEntity
  8
126
  6
Continuous
 62
     3
100
AcDbLine
 10
30.824622
 20
2.0305735
 30
0.0
 11
30.850578
 21
2.004618199999999
 31
0.0
  0
LINE
  5
1E5
330
22
100
AcDbEntity
  8
126
  6
Continuous
 62
     3
100
AcDbLine
 10
30.896378
 20
1.958818199999999
 30
0.0
 11
30.92275300000001
 21
1.932443199999999
 31
0.0
  0
LINE
  5
1E6
330
22
100
AcDbEntity
  8
126
  6
Continuous
 62
     3
100
AcDbLine
 10
30.819466
 20
2.024680899999999
 30
0.0
 11
30.845422
 21
1.998725699999999
 31
0.0
  0
LINE
  5
1E7
330
22
100
AcDbEntity
  8
126
  6
Continuous
 62
     3
100
AcDbLine
 10
30.885329
 20
1.958818199999999
 30
0.0
 11
30.911704
 21
1.932443199999999
 31
0.0
  0
LINE
  5
1E8
330
22
100
AcDbEntity
  8
126
  6
Continuous
 62
     3
100
AcDbLine
 10
30.81431
 20
2.0187884
 30
0.0
 11
30.840266
 21
1.9928331
 31
0.0
  0
LINE
  5
1E9
330
22
100
AcDbEntity
  8
126
  6
Continuous
 62
     3
100
AcDbLine
 10
30.87428
 20
1.958818199999999
 30
0.0
 11
30.900655
 21
1.932443199999999
 31
0.0
  0
LINE
  5
1EA
330
22
100
AcDbEntity
  8
126
  6
Continuous
 62
     3
100
AcDbLine
 10
30.809154
 20
2.012895799999999
 30
0.0
 11
30.83511
 21
1.986940499999999
 31
0.0
  0
LINE
  5
1EB
330
22
100
AcDbEntity
  8
126
  6
Continuous
 62
     3
100
AcDbLine
 10
30.863232
 20
1.958818199999999
 30
0.0
 11
30.889607
 21
1.932443199999999
 31
0.0
  0
LINE
  5
1EC
330
22
100
AcDbEntity
  8
126
  6
Continuous
 62
     3
100
AcDbLine
 10
30.803998
 20
2.007003199999999
 30
0.0
 11
30.829954
 21
1.981047999999999
 31
0.0
  0
LINE
  5
1ED
330
22
100
AcDbEntity
  8
126
  6
Continuous
 62
     3
100
AcDbLine
 10
30.852183
 20
1.958818199999999
 30
0.0
 11
30.878558
 21
1.932443199999999
 31
0.0
  0
LINE
  5
1EE
330
22
100
AcDbEntity
  8
126
  6
Continuous
 62
     3
100
AcDbLine
 10
30.715705
 20
2.0842476
 30
0.0
 11
30.718689
 21
2.0812637
 31
0.0
  0
LINE
  5
1EF
330
22
100
AcDbEntity
  8
126
  6
Continuous
 62
     3
100
AcDbLine
 10
30.798842
 20
2.001110699999999
 30
0.0
 11
30.824798
 21
1.9751554
 31
0.0
  0
LINE
  5
1F0
330
22
100
AcDbEntity
  8
126
  6
Continuous
 62
     3
100
AcDbLine
 10
30.841135
 20
1.958818199999999
 30
0.0
 11
30.86751
 21
1.932443199999999
 31
0.0
  0
LINE
  5
1F1
330
22
100
AcDbEntity
  8
126
  6
Continuous
 62
     3
100
AcDbLine
 10
30.704657
 20
2.0842476
 30
0.0
 11
30.71164
 21
2.0772647
 31
0.0
  0
LINE
  5
1F2
330
22
100
AcDbEntity
  8
126
  6
Continuous
 62
     3
100
AcDbLine
 10
30.793686
 20
1.995218099999999
 30
0.0
 11
30.819642
 21
1.9692628
 31
0.0
  0
LINE
  5
1F3
330
22
100
AcDbEntity
  8
126
  6
Continuous
 62
     3
100
AcDbLine
 10
30.830086
 20
1.958818199999999
 30
0.0
 11
30.856461
 21
1.932443199999999
 31
0.0
  0
LINE
  5
1F4
330
22
100
AcDbEntity
  8
126
  6
Continuous
 62
     3
100
AcDbLine
 10
30.693608
 20
2.0842476
 30
0.0
 11
30.70459
 21
2.0732656
 31
0.0
  0
LINE
  5
1F5
330
22
100
AcDbEntity
  8
126
  6
Continuous
 62
     3
100
AcDbLine
 10
30.78853
 20
1.989325499999999
 30
0.0
 11
30.814486
 21
1.9633703
 31
0.0
  0
LINE
  5
1F6
330
22
100
AcDbEntity
  8
126
  6
Continuous
 62
     3
100
AcDbLine
 10
30.819038
 20
1.958818199999999
 30
0.0
 11
30.845413
 21
1.932443199999999
 31
0.0
  0
LINE
  5
1F7
330
22
100
AcDbEntity
  8
126
  6
Continuous
 62
     3
100
AcDbLine
 10
30.68256
 20
2.0842476
 30
0.0
 11
30.697541
 21
2.0692666
 31
0.0
  0
LINE
  5
1F8
330
22
100
AcDbEntity
  8
126
  6
Continuous
 62
     3
100
AcDbLine
 10
30.783374
 20
1.983433
 30
0.0
 11
30.834364
 21
1.932443199999999
 31
0.0
  0
LINE
  5
1F9
330
22
100
AcDbEntity
  8
126
  6
Continuous
 62
     3
100
AcDbLine
 10
30.671511
 20
2.0842476
 30
0.0
 11
30.690491
 21
2.0652675
 31
0.0
  0
LINE
  5
1FA
330
22
100
AcDbEntity
  8
126
  6
Continuous
 62
     3
100
AcDbLine
 10
30.778218
 20
1.977540399999999
 30
0.0
 11
30.823316
 21
1.932443199999999
 31
0.0
  0
LINE
  5
1FB
330
22
100
AcDbEntity
  8
126
  6
Continuous
 62
     3
100
AcDbLine
 10
30.660463
 20
2.0842476
 30
0.0
 11
30.683442
 21
2.0612685
 31
0.0
  0
LINE
  5
1FC
330
22
100
AcDbEntity
  8
126
  6
Continuous
 62
     3
100
AcDbLine
 10
30.773062
 20
1.971647799999999
 30
0.0
 11
30.812267
 21
1.932443199999999
 31
0.0
  0
LINE
  5
1FD
330
22
100
AcDbEntity
  8
126
  6
Continuous
 62
     3
100
AcDbLine
 10
30.649526
 20
2.0841362
 30
0.0
 11
30.676392
 21
2.0572694
 31
0.0
  0
LINE
  5
1FE
330
22
100
AcDbEntity
  8
126
  6
Continuous
 62
     3
100
AcDbLine
 10
30.767907
 20
1.9657553
 30
0.0
 11
30.801219
 21
1.932443199999999
 31
0.0
  0
LINE
  5
1FF
330
22
100
AcDbEntity
  8
126
  6
Continuous
 62
     3
100
AcDbLine
 10
30.642476
 20
2.080137099999999
 30
0.0
 11
30.669343
 21
2.053270399999999
 31
0.0
  0
LINE
  5
200
330
22
100
AcDbEntity
  8
126
  6
Continuous
 62
     3
100
AcDbLine
 10
30.762751
 20
1.9598627
 30
0.0
 11
30.79017
 21
1.932443199999999
 31
0.0
  0
LINE
  5
201
330
22
100
AcDbEntity
  8
126
  6
Continuous
 62
     3
100
AcDbLine
 10
30.63542700000001
 20
2.0761381
 30
0.0
 11
30.662293
 21
2.0492713
 31
0.0
  0
LINE
  5
202
330
22
100
AcDbEntity
  8
126
  6
Continuous
 62
     3
100
AcDbLine
 10
30.757595
 20
1.9539701
 30
0.0
 11
30.78355
 21
1.928014899999999
 31
0.0
  0
LINE
  5
203
330
22
100
AcDbEntity
  8
126
  6
Continuous
 62
     3
100
AcDbLine
 10
30.628377
 20
2.072138999999999
 30
0.0
 11
30.655244
 21
2.0452723
 31
0.0
  0
LINE
  5
204
330
22
100
AcDbEntity
  8
126
  6
Continuous
 62
     3
100
AcDbLine
 10
30.752439
 20
1.9480776
 30
0.0
 11
30.778394
 21
1.9221223
 31
0.0
  0
LINE
  5
205
330
22
100
AcDbEntity
  8
126
  6
Continuous
 62
     3
100
AcDbLine
 10
30.621328
 20
2.06814
 30
0.0
 11
30.648194
 21
2.0412732
 31
0.0
  0
LINE
  5
206
330
22
100
AcDbEntity
  8
126
  6
Continuous
 62
     3
100
AcDbLine
 10
30.747283
 20
1.942184999999999
 30
0.0
 11
30.773238
 21
1.916229699999998
 31
0.0
  0
LINE
  5
207
330
22
100
AcDbEntity
  8
126
  6
Continuous
 62
     3
100
AcDbLine
 10
30.61427800000001
 20
2.064140899999999
 30
0.0
 11
30.641145
 21
2.037274199999999
 31
0.0
  0
LINE
  5
208
330
22
100
AcDbEntity
  8
126
  6
Continuous
 62
     3
100
AcDbLine
 10
30.742127
 20
1.936292399999999
 30
0.0
 11
30.768082
 21
1.910337099999999
 31
0.0
  0
LINE
  5
209
330
22
100
AcDbEntity
  8
126
  6
Continuous
 62
     3
100
AcDbLine
 10
30.607229
 20
2.060141899999999
 30
0.0
 11
30.63409500000001
 21
2.0332751
 31
0.0
  0
LINE
  5
20A
330
22
100
AcDbEntity
  8
126
  6
Continuous
 62
     3
100
AcDbLine
 10
30.736971
 20
1.930399799999999
 30
0.0
 11
30.762926
 21
1.904444599999998
 31
0.0
  0
LINE
  5
20B
330
22
100
AcDbEntity
  8
126
  6
Continuous
 62
     3
100
AcDbLine
 10
30.600179
 20
2.056142799999999
 30
0.0
 11
30.627046
 21
2.0292761
 31
0.0
  0
LINE
  5
20C
330
22
100
AcDbEntity
  8
126
  6
Continuous
 62
     3
100
AcDbLine
 10
30.731815
 20
1.9245073
 30
0.0
 11
30.75777
 21
1.898552
 31
0.0
  0
LINE
  5
20D
330
22
100
AcDbEntity
  8
126
  6
Continuous
 62
     3
100
AcDbLine
 10
30.59313
 20
2.0521438
 30
0.0
 11
30.619996
 21
2.025276999999999
 31
0.0
  0
LINE
  5
20E
330
22
100
AcDbEntity
  8
126
  6
Continuous
 62
     3
100
AcDbLine
 10
30.726659
 20
1.9186147
 30
0.0
 11
30.749455
 21
1.8958182
 31
0.0
  0
LINE
  5
20F
330
22
100
AcDbEntity
  8
126
  6
Continuous
 62
     3
100
AcDbLine
 10
30.58608
 20
2.048144699999999
 30
0.0
 11
30.612947
 21
2.021277999999999
 31
0.0
  0
LINE
  5
210
330
22
100
AcDbEntity
  8
126
  6
Continuous
 62
     3
100
AcDbLine
 10
30.721503
 20
1.912722199999999
 30
0.0
 11
30.738407
 21
1.8958182
 31
0.0
  0
LINE
  5
211
330
22
100
AcDbEntity
  8
126
  6
Continuous
 62
     3
100
AcDbLine
 10
30.579031
 20
2.0441457
 30
0.0
 11
30.605897
 21
2.017278899999999
 31
0.0
  0
LINE
  5
212
330
22
100
AcDbEntity
  8
126
  6
Continuous
 62
     3
100
AcDbLine
 10
30.716347
 20
1.9068296
 30
0.0
 11
30.727358
 21
1.8958182
 31
0.0
  0
LINE
  5
213
330
22
100
AcDbEntity
  8
126
  6
Continuous
 62
     3
100
AcDbLine
 10
30.571981
 20
2.040146599999999
 30
0.0
 11
30.598848
 21
2.0132799
 31
0.0
  0
LINE
  5
214
330
22
100
AcDbEntity
  8
126
  6
Continuous
 62
     3
100
AcDbLine
 10
30.711191
 20
1.900936999999999
 30
0.0
 11
30.71631
 21
1.8958182
 31
0.0
  0
LINE
  5
215
330
22
100
AcDbEntity
  8
126
  6
Continuous
 62
     3
100
AcDbLine
 10
30.564932
 20
2.0361476
 30
0.0
 11
30.591798
 21
2.009280799999999
 31
0.0
  0
LINE
  5
216
330
22
100
AcDbEntity
  8
126
  6
Continuous
 62
     3
100
AcDbLine
 10
30.557882
 20
2.032148499999999
 30
0.0
 11
30.584749
 21
2.0052818
 31
0.0
  0
LINE
  5
217
330
22
100
AcDbEntity
  8
126
  6
Continuous
 62
     3
100
AcDbLine
 10
30.656492
 20
1.933538999999998
 30
0.0
 11
30.694212
 21
1.8958182
 31
0.0
  0
LINE
  5
218
330
22
100
AcDbEntity
  8
126
  6
Continuous
 62
     3
100
AcDbLine
 10
30.550833
 20
2.0281495
 30
0.0
 11
30.683164
 21
1.8958182
 31
0.0
  0
LINE
  5
219
330
22
100
AcDbEntity
  8
126
  6
Continuous
 62
     3
100
AcDbLine
 10
30.543783
 20
2.024150399999999
 30
0.0
 11
30.672115
 21
1.8958182
 31
0.0
  0
LINE
  5
21A
330
22
100
AcDbEntity
  8
126
  6
Continuous
 62
     3
100
AcDbLine
 10
30.472637
 20
2.0842476
 30
0.0
 11
30.481546
 21
2.075339099999998
 31
0.0
  0
LINE
  5
21B
330
22
100
AcDbEntity
  8
126
  6
Continuous
 62
     3
100
AcDbLine
 10
30.536734
 20
2.0201514
 30
0.0
 11
30.661067
 21
1.8958182
 31
0.0
  0
LINE
  5
21C
330
22
100
AcDbEntity
  8
126
  6
Continuous
 62
     3
100
AcDbLine
 10
30.461589
 20
2.0842476
 30
0.0
 11
30.47989
 21
2.0659467
 31
0.0
  0
LINE
  5
21D
330
22
100
AcDbEntity
  8
126
  6
Continuous
 62
     3
100
AcDbLine
 10
30.52968400000001
 20
2.016152299999999
 30
0.0
 11
30.650018
 21
1.8958182
 31
0.0
  0
LINE
  5
21E
330
22
100
AcDbEntity
  8
126
  6
Continuous
 62
     3
100
AcDbLine
 10
30.45054
 20
2.0842476
 30
0.0
 11
30.478234
 21
2.0565543
 31
0.0
  0
LINE
  5
21F
330
22
100
AcDbEntity
  8
126
  6
Continuous
 62
     3
100
AcDbLine
 10
30.522635
 20
2.0121533
 30
0.0
 11
30.63897
 21
1.8958182
 31
0.0
  0
LINE
  5
220
330
22
100
AcDbEntity
  8
126
  6
Continuous
 62
     3
100
AcDbLine
 10
30.439492
 20
2.0842476
 30
0.0
 11
30.476578
 21
2.047161899999998
 31
0.0
  0
LINE
  5
221
330
22
100
AcDbEntity
  8
126
  6
Continuous
 62
     3
100
AcDbLine
 10
30.515585
 20
2.0081542
 30
0.0
 11
30.627921
 21
1.8958182
 31
0.0
  0
LINE
  5
222
330
22
100
AcDbEntity
  8
126
  6
Continuous
 62
     3
100
AcDbLine
 10
30.430574
 20
2.082117299999999
 30
0.0
 11
30.474921
 21
2.0377695
 31
0.0
  0
LINE
  5
223
330
22
100
AcDbEntity
  8
126
  6
Continuous
 62
     3
100
AcDbLine
 10
30.508536
 20
2.0041552
 30
0.0
 11
30.616873
 21
1.8958182
 31
0.0
  0
LINE
  5
224
330
22
100
AcDbEntity
  8
126
  6
Continuous
 62
     3
100
AcDbLine
 10
30.428917
 20
2.072724899999998
 30
0.0
 11
30.473265
 21
2.0283771
 31
0.0
  0
LINE
  5
225
330
22
100
AcDbEntity
  8
126
  6
Continuous
 62
     3
100
AcDbLine
 10
30.501486
 20
2.0001561
 30
0.0
 11
30.528353
 21
1.9732894
 31
0.0
  0
LINE
  5
226
330
22
100
AcDbEntity
  8
126
  6
Continuous
 62
     3
100
AcDbLine
 10
30.427261
 20
2.0633325
 30
0.0
 11
30.471609
 21
2.0189846
 31
0.0
  0
LINE
  5
227
330
22
100
AcDbEntity
  8
126
  6
Continuous
 62
     3
100
AcDbLine
 10
30.494437
 20
1.996157099999999
 30
0.0
 11
30.521303
 21
1.969290399999999
 31
0.0
  0
LINE
  5
228
330
22
100
AcDbEntity
  8
126
  6
Continuous
 62
     3
100
AcDbLine
 10
30.425605
 20
2.0539401
 30
0.0
 11
30.46995300000001
 21
2.009592199999999
 31
0.0
  0
LINE
  5
229
330
22
100
AcDbEntity
  8
126
  6
Continuous
 62
     3
100
AcDbLine
 10
30.487387
 20
1.992158
 30
0.0
 11
30.514254
 21
1.9652913
 31
0.0
  0
LINE
  5
22A
330
22
100
AcDbEntity
  8
126
  6
Continuous
 62
     3
100
AcDbLine
 10
30.423949
 20
2.044547699999998
 30
0.0
 11
30.468297
 21
2.000199799999998
 31
0.0
  0
LINE
  5
22B
330
22
100
AcDbEntity
  8
126
  6
Continuous
 62
     3
100
AcDbLine
 10
30.480338
 20
1.988158999999999
 30
0.0
 11
30.507204
 21
1.9612923
 31
0.0
  0
LINE
  5
22C
330
22
100
AcDbEntity
  8
126
  6
Continuous
 62
     3
100
AcDbLine
 10
30.422293
 20
2.0351552
 30
0.0
 11
30.466641
 21
1.990807399999999
 31
0.0
  0
LINE
  5
22D
330
22
100
AcDbEntity
  8
126
  6
Continuous
 62
     3
100
AcDbLine
 10
30.473288
 20
1.984159899999999
 30
0.0
 11
30.500155
 21
1.9572932
 31
0.0
  0
LINE
  5
22E
330
22
100
AcDbEntity
  8
126
  6
Continuous
 62
     3
100
AcDbLine
 10
30.420637
 20
2.025762799999998
 30
0.0
 11
30.464985
 21
1.981415
 31
0.0
  0
LINE
  5
22F
330
22
100
AcDbEntity
  8
126
  6
Continuous
 62
     3
100
AcDbLine
 10
30.466239
 20
1.980160899999999
 30
0.0
 11
30.493105
 21
1.9532942
 31
0.0
  0
LINE
  5
230
330
22
100
AcDbEntity
  8
126
  6
Continuous
 62
     3
100
AcDbLine
 10
30.418981
 20
2.0163704
 30
0.0
 11
30.486056
 21
1.9492951
 31
0.0
  0
LINE
  5
231
330
22
100
AcDbEntity
  8
126
  6
Continuous
 62
     3
100
AcDbLine
 10
30.417325
 20
2.006977999999999
 30
0.0
 11
30.479006
 21
1.9452961
 31
0.0
  0
LINE
  5
232
330
22
100
AcDbEntity
  8
126
  6
Continuous
 62
     3
100
AcDbLine
 10
30.415668
 20
1.9975856
 30
0.0
 11
30.471957
 21
1.941297
 31
0.0
  0
LINE
  5
233
330
22
100
AcDbEntity
  8
126
  6
Continuous
 62
     3
100
AcDbLine
 10
30.414012
 20
1.988193199999999
 30
0.0
 11
30.464907
 21
1.937298
 31
0.0
  0
LINE
  5
234
330
22
100
AcDbEntity
  8
126
  6
Continuous
 62
     3
100
AcDbLine
 10
30.412356
 20
1.9788008
 30
0.0
 11
30.457858
 21
1.933298899999999
 31
0.0
  0
LINE
  5
235
330
22
100
AcDbEntity
  8
126
  6
Continuous
 62
     3
100
AcDbLine
 10
30.4107
 20
1.969408399999999
 30
0.0
 11
30.455048
 21
1.925060599999999
 31
0.0
  0
LINE
  5
236
330
22
100
AcDbEntity
  8
126
  6
Continuous
 62
     3
100
AcDbLine
 10
30.409044
 20
1.960015999999999
 30
0.0
 11
30.453392
 21
1.915668099999999
 31
0.0
  0
LINE
  5
237
330
22
100
AcDbEntity
  8
126
  6
Continuous
 62
     3
100
AcDbLine
 10
30.407388
 20
1.9506236
 30
0.0
 11
30.451736
 21
1.906275699999999
 31
0.0
  0
LINE
  5
238
330
22
100
AcDbEntity
  8
126
  6
Continuous
 62
     3
100
AcDbLine
 10
30.405732
 20
1.9412311
 30
0.0
 11
30.450079
 21
1.896883299999999
 31
0.0
  0
LINE
  5
239
330
22
100
AcDbEntity
  8
126
  6
Continuous
 62
     3
100
AcDbLine
 10
30.404075
 20
1.931838799999999
 30
0.0
 11
30.440096
 21
1.8958182
 31
0.0
  0
LINE
  5
23A
330
22
100
AcDbEntity
  8
126
  6
Continuous
 62
     3
100
AcDbLine
 10
30.402419
 20
1.9224463
 30
0.0
 11
30.429047
 21
1.8958182
 31
0.0
  0
TEXT
  5
23B
330
22
100
AcDbEntity
  8
1
  6
Continuous
 62
     1
100
AcDbText
 10
30.76052333333334
 20
1.3930028
 30
0.0
 40
0.125
  1
TEMPLATE FOR 1719
 72
     1
 11
31.80219000000001
 21
1.4555028
 31
0.0
100
AcDbText
 73
     2
  0
TEXT
  5
23C
330
22
100
AcDbEntity
  8
126
  6
Continuous
 62
     3
100
AcDbText
 10
32.60582666666667
 20
0.9218896999999996
 30
0.0
 40
0.1
  1
10NOV03
 72
     1
 11
32.93916
 21
0.9718896999999998
 31
0.0
100
AcDbText
 73
     2
  0
TEXT
  5
23D
330
22
100
AcDbEntity
  8
126
  6
Continuous
 62
     3
100
AcDbText
 10
30.419033
 20
1.0557581
 30
0.0
 40
0.1
  1
KAB
100
AcDbText
  0
TEXT
  5
23E
330
22
100
AcDbEntity
  8
126
  6
Continuous
 62
     3
100
AcDbText
 10
30.66973
 20
0.8137055999999999
 30
0.0
 40
0.1
  1
FULL
100
AcDbText
  0
TEXT
  5
23F
330
22
100
AcDbEntity
  8
1
  6
Continuous
 62
     1
100
AcDbText
 10
31.06615
 20
0.1407587
 30
0.0
 40
0.1875
  1
74180413
 72
     1
 11
31.7849
 21
0.2345087
 31
0.0
100
AcDbText
 73
     2
  0
LINE
  5
240
330
22
100
AcDbEntity
  8
126
  6
Continuous
 62
     3
100
AcDbLine
 10
30.400763
 20
1.913053899999999
 30
0.0
 11
30.417999
 21
1.8958182
 31
0.0
  0
LINE
  5
241
330
22
100
AcDbEntity
  8
126
  6
Continuous
 62
     3
100
AcDbLine
 10
30.399107
 20
1.9036615
 30
0.0
 11
30.40695
 21
1.8958182
 31
0.0
  0
LINE
  5
242
330
22
100
AcDbEntity
  8
126
  6
Continuous
 62
     3
100
AcDbLine
 10
30.207472
 20
2.0842476
 30
0.0
 11
30.212888
 21
2.078831699999998
 31
0.0
  0
LINE
  5
243
330
22
100
AcDbEntity
  8
126
  6
Continuous
 62
     3
100
AcDbLine
 10
30.368527
 20
1.9231932
 30
0.0
 11
30.374094
 21
1.917625699999999
 31
0.0
  0
LINE
  5
244
330
22
100
AcDbEntity
  8
126
  6
Continuous
 62
     3
100
AcDbLine
 10
30.196424
 20
2.0842476
 30
0.0
 11
30.211232
 21
2.069439299999999
 31
0.0
  0
LINE
  5
245
330
22
100
AcDbEntity
  8
126
  6
Continuous
 62
     3
100
AcDbLine
 10
30.35747800000001
 20
1.9231932
 30
0.0
 11
30.372438
 21
1.908233299999999
 31
0.0
  0
LINE
  5
246
330
22
100
AcDbEntity
  8
126
  6
Continuous
 62
     3
100
AcDbLine
 10
30.185375
 20
2.0842476
 30
0.0
 11
30.209576
 21
2.060046899999999
 31
0.0
  0
LINE
  5
247
330
22
100
AcDbEntity
  8
126
  6
Continuous
 62
     3
100
AcDbLine
 10
30.34643
 20
1.9231932
 30
0.0
 11
30.370782
 21
1.898840899999999
 31
0.0
  0
LINE
  5
248
330
22
100
AcDbEntity
  8
126
  6
Continuous
 62
     3
100
AcDbLine
 10
30.174327
 20
2.0842476
 30
0.0
 11
30.20792
 21
2.050654499999998
 31
0.0
  0
LINE
  5
249
330
22
100
AcDbEntity
  8
126
  6
Continuous
 62
     3
100
AcDbLine
 10
30.335381
 20
1.9231932
 30
0.0
 11
30.362756
 21
1.8958182
 31
0.0
  0
LINE
  5
24A
330
22
100
AcDbEntity
  8
126
  6
Continuous
 62
     3
100
AcDbLine
 10
30.163278
 20
2.0842476
 30
0.0
 11
30.206264
 21
2.041261999999999
 31
0.0
  0
LINE
  5
24B
330
22
100
AcDbEntity
  8
126
  6
Continuous
 62
     3
100
AcDbLine
 10
30.324333
 20
1.9231932
 30
0.0
 11
30.351708
 21
1.8958182
 31
0.0
  0
LINE
  5
24C
330
22
100
AcDbEntity
  8
126
  6
Continuous
 62
     3
100
AcDbLine
 10
30.16026
 20
2.076217499999998
 30
0.0
 11
30.204608
 21
2.031869599999998
 31
0.0
  0
LINE
  5
24D
330
22
100
AcDbEntity
  8
126
  6
Continuous
 62
     3
100
AcDbLine
 10
30.313284
 20
1.9231932
 30
0.0
 11
30.340659
 21
1.8958182
 31
0.0
  0
LINE
  5
24E
330
22
100
AcDbEntity
  8
126
  6
Continuous
 62
     3
100
AcDbLine
 10
30.158604
 20
2.066825
 30
0.0
 11
30.202952
 21
2.022477199999999
 31
0.0
  0
LINE
  5
24F
330
22
100
AcDbEntity
  8
126
  6
Continuous
 62
     3
100
AcDbLine
 10
30.302236
 20
1.9231932
 30
0.0
 11
30.329611
 21
1.8958182
 31
0.0
  0
LINE
  5
250
330
22
100
AcDbEntity
  8
126
  6
Continuous
 62
     3
100
AcDbLine
 10
30.156948
 20
2.0574326
 30
0.0
 11
30.201295
 21
2.0130848
 31
0.0
  0
LINE
  5
251
330
22
100
AcDbEntity
  8
126
  6
Continuous
 62
     3
100
AcDbLine
 10
30.291187
 20
1.9231932
 30
0.0
 11
30.318562
 21
1.8958182
 31
0.0
  0
LINE
  5
252
330
22
100
AcDbEntity
  8
126
  6
Continuous
 62
     3
100
AcDbLine
 10
30.119084
 20
2.0842476
 30
0.0
 11
30.120991
 21
2.082341099999998
 31
0.0
  0
LINE
  5
253
330
22
100
AcDbEntity
  8
126
  6
Continuous
 62
     3
100
AcDbLine
 10
30.155291
 20
2.048040199999999
 30
0.0
 11
30.199639
 21
2.003692399999998
 31
0.0
  0
LINE
  5
254
330
22
100
AcDbEntity
  8
126
  6
Continuous
 62
     3
100
AcDbLine
 10
30.280138
 20
1.9231932
 30
0.0
 11
30.307513
 21
1.8958182
 31
0.0
  0
LINE
  5
255
330
22
100
AcDbEntity
  8
126
  6
Continuous
 62
     3
100
AcDbLine
 10
30.108036
 20
2.0842476
 30
0.0
 11
30.119334
 21
2.072948699999999
 31
0.0
  0
LINE
  5
256
330
22
100
AcDbEntity
  8
126
  6
Continuous
 62
     3
100
AcDbLine
 10
30.153635
 20
2.0386478
 30
0.0
 11
30.197983
 21
1.994299999999999
 31
0.0
  0
LINE
  5
257
330
22
100
AcDbEntity
  8
126
  6
Continuous
 62
     3
100
AcDbLine
 10
30.26909
 20
1.9231932
 30
0.0
 11
30.296465
 21
1.8958182
 31
0.0
  0
LINE
  5
258
330
22
100
AcDbEntity
  8
126
  6
Continuous
 62
     3
100
AcDbLine
 10
30.096987
 20
2.0842476
 30
0.0
 11
30.117678
 21
2.0635563
 31
0.0
  0
LINE
  5
259
330
22
100
AcDbEntity
  8
126
  6
Continuous
 62
     3
100
AcDbLine
 10
30.151979
 20
2.029255399999998
 30
0.0
 11
30.196327
 21
1.9849076
 31
0.0
  0
LINE
  5
25A
330
22
100
AcDbEntity
  8
126
  6
Continuous
 62
     3
100
AcDbLine
 10
30.258041
 20
1.9231932
 30
0.0
 11
30.285416
 21
1.8958182
 31
0.0
  0
LINE
  5
25B
330
22
100
AcDbEntity
  8
126
  6
Continuous
 62
     3
100
AcDbLine
 10
30.085938
 20
2.0842476
 30
0.0
 11
30.113313
 21
2.0568726
 31
0.0
  0
LINE
  5
25C
330
22
100
AcDbEntity
  8
126
  6
Continuous
 62
     3
100
AcDbLine
 10
30.150323
 20
2.019862999999999
 30
0.0
 11
30.194671
 21
1.975515199999999
 31
0.0
  0
LINE
  5
25D
330
22
100
AcDbEntity
  8
126
  6
Continuous
 62
     3
100
AcDbLine
 10
30.246993
 20
1.9231932
 30
0.0
 11
30.274368
 21
1.8958182
 31
0.0
  0
LINE
  5
25E
330
22
100
AcDbEntity
  8
126
  6
Continuous
 62
     3
100
AcDbLine
 10
30.07489
 20
2.0842476
 30
0.0
 11
30.102265
 21
2.0568726
 31
0.0
  0
LINE
  5
25F
330
22
100
AcDbEntity
  8
126
  6
Continuous
 62
     3
100
AcDbLine
 10
30.148667
 20
2.0104706
 30
0.0
 11
30.193015
 21
1.966122799999999
 31
0.0
  0
LINE
  5
260
330
22
100
AcDbEntity
  8
126
  6
Continuous
 62
     3
100
AcDbLine
 10
30.235944
 20
1.9231932
 30
0.0
 11
30.263319
 21
1.8958182
 31
0.0
  0
LINE
  5
261
330
22
100
AcDbEntity
  8
126
  6
Continuous
 62
     3
100
AcDbLine
 10
30.063841
 20
2.0842476
 30
0.0
 11
30.091216
 21
2.0568726
 31
0.0
  0
LINE
  5
262
330
22
100
AcDbEntity
  8
126
  6
Continuous
 62
     3
100
AcDbLine
 10
30.147011
 20
2.001078199999998
 30
0.0
 11
30.191359
 21
1.9567304
 31
0.0
  0
LINE
  5
263
330
22
100
AcDbEntity
  8
126
  6
Continuous
 62
     3
100
AcDbLine
 10
30.224896
 20
1.9231932
 30
0.0
 11
30.252271
 21
1.8958182
 31
0.0
  0
LINE
  5
264
330
22
100
AcDbEntity
  8
126
  6
Continuous
 62
     3
100
AcDbLine
 10
30.052793
 20
2.0842476
 30
0.0
 11
30.080168
 21
2.0568726
 31
0.0
  0
LINE
  5
265
330
22
100
AcDbEntity
  8
126
  6
Continuous
 62
     3
100
AcDbLine
 10
30.145355
 20
1.991685799999999
 30
0.0
 11
30.189702
 21
1.947338
 31
0.0
  0
LINE
  5
266
330
22
100
AcDbEntity
  8
126
  6
Continuous
 62
     3
100
AcDbLine
 10
30.213847
 20
1.9231932
 30
0.0
 11
30.241222
 21
1.8958182
 31
0.0
  0
LINE
  5
267
330
22
100
AcDbEntity
  8
126
  6
Continuous
 62
     3
100
AcDbLine
 10
30.041744
 20
2.0842476
 30
0.0
 11
30.069119
 21
2.0568726
 31
0.0
  0
LINE
  5
268
330
22
100
AcDbEntity
  8
126
  6
Continuous
 62
     3
100
AcDbLine
 10
30.143699
 20
1.982293399999999
 30
0.0
 11
30.18804600000001
 21
1.9379456
 31
0.0
  0
LINE
  5
269
330
22
100
AcDbEntity
  8
126
  6
Continuous
 62
     3
100
AcDbLine
 10
30.202799
 20
1.9231932
 30
0.0
 11
30.230174
 21
1.8958182
 31
0.0
  0
LINE
  5
26A
330
22
100
AcDbEntity
  8
126
  6
Continuous
 62
     3
100
AcDbLine
 10
30.030696
 20
2.0842476
 30
0.0
 11
30.058071
 21
2.0568726
 31
0.0
  0
LINE
  5
26B
330
22
100
AcDbEntity
  8
126
  6
Continuous
 62
     3
100
AcDbLine
 10
30.142042
 20
1.972900999999999
 30
0.0
 11
30.18639
 21
1.9285531
 31
0.0
  0
LINE
  5
26C
330
22
100
AcDbEntity
  8
126
  6
Continuous
 62
     3
100
AcDbLine
 10
30.19175
 20
1.9231932
 30
0.0
 11
30.219125
 21
1.8958182
 31
0.0
  0
LINE
  5
26D
330
22
100
AcDbEntity
  8
126
  6
Continuous
 62
     3
100
AcDbLine
 10
30.019647
 20
2.0842476
 30
0.0
 11
30.047022
 21
2.0568726
 31
0.0
  0
LINE
  5
26E
330
22
100
AcDbEntity
  8
126
  6
Continuous
 62
     3
100
AcDbLine
 10
30.140386
 20
1.963508599999999
 30
0.0
 11
30.20807700000001
 21
1.8958182
 31
0.0
  0
LINE
  5
26F
330
22
100
AcDbEntity
  8
126
  6
Continuous
 62
     3
100
AcDbLine
 10
30.008599
 20
2.0842476
 30
0.0
 11
30.035974
 21
2.0568726
 31
0.0
  0
LINE
  5
270
330
22
100
AcDbEntity
  8
126
  6
Continuous
 62
     3
100
AcDbLine
 10
30.089063
 20
2.003782899999999
 30
0.0
 11
30.093639
 21
1.9992073
 31
0.0
  0
LINE
  5
271
330
22
100
AcDbEntity
  8
126
  6
Continuous
 62
     3
100
AcDbLine
 10
30.13873
 20
1.9541161
 30
0.0
 11
30.19702800000001
 21
1.8958182
 31
0.0
  0
LINE
  5
272
330
22
100
AcDbEntity
  8
126
  6
Continuous
 62
     3
100
AcDbLine
 10
29.99755
 20
2.0842476
 30
0.0
 11
30.024925
 21
2.0568726
 31
0.0
  0
LINE
  5
273
330
22
100
AcDbEntity
  8
126
  6
Continuous
 62
     3
100
AcDbLine
 10
30.078015
 20
2.003782899999999
 30
0.0
 11
30.091983
 21
1.989814899999999
 31
0.0
  0
LINE
  5
274
330
22
100
AcDbEntity
  8
126
  6
Continuous
 62
     3
100
AcDbLine
 10
30.137074
 20
1.9447237
 30
0.0
 11
30.185979
 21
1.8958182
 31
0.0
  0
LINE
  5
275
330
22
100
AcDbEntity
  8
126
  6
Continuous
 62
     3
100
AcDbLine
 10
29.986502
 20
2.0842476
 30
0.0
 11
30.013877
 21
2.0568726
 31
0.0
  0
LINE
  5
276
330
22
100
AcDbEntity
  8
126
  6
Continuous
 62
     3
100
AcDbLine
 10
30.066966
 20
2.003782899999999
 30
0.0
 11
30.09032700000001
 21
1.980422499999999
 31
0.0
  0
LINE
  5
277
330
22
100
AcDbEntity
  8
126
  6
Continuous
 62
     3
100
AcDbLine
 10
30.135418
 20
1.935331299999999
 30
0.0
 11
30.174931
 21
1.8958182
 31
0.0
  0
LINE
  5
278
330
22
100
AcDbEntity
  8
126
  6
Continuous
 62
     3
100
AcDbLine
 10
29.975453
 20
2.0842476
 30
0.0
 11
30.00282800000001
 21
2.0568726
 31
0.0
  0
LINE
  5
279
330
22
100
AcDbEntity
  8
126
  6
Continuous
 62
     3
100
AcDbLine
 10
30.055918
 20
2.003782899999999
 30
0.0
 11
30.083418
 21
1.976282899999999
 31
0.0
  0
LINE
  5
27A
330
22
100
AcDbEntity
  8
126
  6
Continuous
 62
     3
100
AcDbLine
 10
30.133762
 20
1.9259389
 30
0.0
 11
30.163882
 21
1.8958182
 31
0.0
  0
LINE
  5
27B
330
22
100
AcDbEntity
  8
126
  6
Continuous
 62
     3
100
AcDbLine
 10
29.964404
 20
2.0842476
 30
0.0
 11
29.991779
 21
2.0568726
 31
0.0
  0
LINE
  5
27C
330
22
100
AcDbEntity
  8
126
  6
Continuous
 62
     3
100
AcDbLine
 10
30.044869
 20
2.003782899999999
 30
0.0
 11
30.072369
 21
1.976282899999999
 31
0.0
  0
LINE
  5
27D
330
22
100
AcDbEntity
  8
126
  6
Continuous
 62
     3
100
AcDbLine
 10
30.132106
 20
1.916546499999999
 30
0.0
 11
30.152834
 21
1.8958182
 31
0.0
  0
LINE
  5
27E
330
22
100
AcDbEntity
  8
126
  6
Continuous
 62
     3
100
AcDbLine
 10
29.953356
 20
2.0842476
 30
0.0
 11
29.980731
 21
2.0568726
 31
0.0
  0
LINE
  5
27F
330
22
100
AcDbEntity
  8
126
  6
Continuous
 62
     3
100
AcDbLine
 10
30.033821
 20
2.003782899999999
 30
0.0
 11
30.061321
 21
1.976282899999999
 31
0.0
  0
LINE
  5
280
330
22
100
AcDbEntity
  8
126
  6
Continuous
 62
     3
100
AcDbLine
 10
30.130449
 20
1.907154099999999
 30
0.0
 11
30.141785
 21
1.8958182
 31
0.0
  0
LINE
  5
281
330
22
100
AcDbEntity
  8
126
  6
Continuous
 62
     3
100
AcDbLine
 10
29.942307
 20
2.0842476
 30
0.0
 11
29.969682
 21
2.0568726
 31
0.0
  0
LINE
  5
282
330
22
100
AcDbEntity
  8
126
  6
Continuous
 62
     3
100
AcDbLine
 10
30.022772
 20
2.003782899999999
 30
0.0
 11
30.050272
 21
1.976282899999999
 31
0.0
  0
LINE
  5
283
330
22
100
AcDbEntity
  8
126
  6
Continuous
 62
     3
100
AcDbLine
 10
30.103362
 20
1.9231932
 30
0.0
 11
30.105283
 21
1.921272399999999
 31
0.0
  0
LINE
  5
284
330
22
100
AcDbEntity
  8
126
  6
Continuous
 62
     3
100
AcDbLine
 10
30.128793
 20
1.897761699999999
 30
0.0
 11
30.130737
 21
1.8958182
 31
0.0
  0
LINE
  5
285
330
22
100
AcDbEntity
  8
126
  6
Continuous
 62
     3
100
AcDbLine
 10
29.93125900000001
 20
2.0842476
 30
0.0
 11
29.95863400000001
 21
2.0568726
 31
0.0
  0
LINE
  5
286
330
22
100
AcDbEntity
  8
126
  6
Continuous
 62
     3
100
AcDbLine
 10
30.011724
 20
2.003782899999999
 30
0.0
 11
30.039224
 21
1.976282899999999
 31
0.0
  0
LINE
  5
287
330
22
100
AcDbEntity
  8
126
  6
Continuous
 62
     3
100
AcDbLine
 10
30.092313
 20
1.9231932
 30
0.0
 11
30.103626
 21
1.91188
 31
0.0
  0
LINE
  5
288
330
22
100
AcDbEntity
  8
126
  6
Continuous
 62
     3
100
AcDbLine
 10
29.92021
 20
2.0842476
 30
0.0
 11
29.947585
 21
2.0568726
 31
0.0
  0
LINE
  5
289
330
22
100
AcDbEntity
  8
126
  6
Continuous
 62
     3
100
AcDbLine
 10
30.000675
 20
2.003782899999999
 30
0.0
 11
30.028175
 21
1.976282899999999
 31
0.0
  0
LINE
  5
28A
330
22
100
AcDbEntity
  8
126
  6
Continuous
 62
     3
100
AcDbLine
 10
30.081265
 20
1.9231932
 30
0.0
 11
30.10197
 21
1.902487599999999
 31
0.0
  0
LINE
  5
28B
330
22
100
AcDbEntity
  8
126
  6
Continuous
 62
     3
100
AcDbLine
 10
29.909162
 20
2.0842476
 30
0.0
 11
29.936537
 21
2.0568726
 31
0.0
  0
LINE
  5
28C
330
22
100
AcDbEntity
  8
126
  6
Continuous
 62
     3
100
AcDbLine
 10
29.989626
 20
2.003782899999999
 30
0.0
 11
30.017126
 21
1.976282899999999
 31
0.0
  0
LINE
  5
28D
330
22
100
AcDbEntity
  8
126
  6
Continuous
 62
     3
100
AcDbLine
 10
30.070216
 20
1.9231932
 30
0.0
 11
30.097591
 21
1.8958182
 31
0.0
  0
LINE
  5
28E
330
22
100
AcDbEntity
  8
126
  6
Continuous
 62
     3
100
AcDbLine
 10
29.898113
 20
2.0842476
 30
0.0
 11
29.925488
 21
2.0568726
 31
0.0
  0
LINE
  5
28F
330
22
100
AcDbEntity
  8
126
  6
Continuous
 62
     3
100
AcDbLine
 10
29.978578
 20
2.003782899999999
 30
0.0
 11
30.006078
 21
1.976282899999999
 31
0.0
  0
LINE
  5
290
330
22
100
AcDbEntity
  8
126
  6
Continuous
 62
     3
100
AcDbLine
 10
30.059168
 20
1.9231932
 30
0.0
 11
30.086543
 21
1.8958182
 31
0.0
  0
LINE
  5
291
330
22
100
AcDbEntity
  8
126
  6
Continuous
 62
     3
100
AcDbLine
 10
29.88706500000001
 20
2.0842476
 30
0.0
 11
29.91444
 21
2.0568726
 31
0.0
  0
LINE
  5
292
330
22
100
AcDbEntity
  8
126
  6
Continuous
 62
     3
100
AcDbLine
 10
29.967529
 20
2.003782899999999
 30
0.0
 11
29.995029
 21
1.976282899999999
 31
0.0
  0
LINE
  5
293
330
22
100
AcDbEntity
  8
126
  6
Continuous
 62
     3
100
AcDbLine
 10
30.048119
 20
1.9231932
 30
0.0
 11
30.075494
 21
1.8958182
 31
0.0
  0
LINE
  5
294
330
22
100
AcDbEntity
  8
126
  6
Continuous
 62
     3
100
AcDbLine
 10
29.87601599999999
 20
2.0842476
 30
0.0
 11
29.905893
 21
2.054371199999998
 31
0.0
  0
LINE
  5
295
330
22
100
AcDbEntity
  8
126
  6
Continuous
 62
     3
100
AcDbLine
 10
29.956481
 20
2.003782899999999
 30
0.0
 11
29.983981
 21
1.976282899999999
 31
0.0
  0
LINE
  5
296
330
22
100
AcDbEntity
  8
126
  6
Continuous
 62
     3
100
AcDbLine
 10
30.037071
 20
1.9231932
 30
0.0
 11
30.06444500000001
 21
1.8958182
 31
0.0
  0
LINE
  5
297
330
22
100
AcDbEntity
  8
126
  6
Continuous
 62
     3
100
AcDbLine
 10
29.864968
 20
2.0842476
 30
0.0
 11
29.904236
 21
2.044978799999999
 31
0.0
  0
LINE
  5
298
330
22
100
AcDbEntity
  8
126
  6
Continuous
 62
     3
100
AcDbLine
 10
29.945432
 20
2.003782899999999
 30
0.0
 11
29.972932
 21
1.976282899999999
 31
0.0
  0
LINE
  5
299
330
22
100
AcDbEntity
  8
126
  6
Continuous
 62
     3
100
AcDbLine
 10
30.026022
 20
1.9231932
 30
0.0
 11
30.053397
 21
1.8958182
 31
0.0
  0
LINE
  5
29A
330
22
100
AcDbEntity
  8
126
  6
Continuous
 62
     3
100
AcDbLine
 10
29.858255
 20
2.079911699999998
 30
0.0
 11
29.90258
 21
2.035586399999999
 31
0.0
  0
LINE
  5
29B
330
22
100
AcDbEntity
  8
126
  6
Continuous
 62
     3
100
AcDbLine
 10
29.934384
 20
2.003782899999999
 30
0.0
 11
29.961884
 21
1.976282899999999
 31
0.0
  0
LINE
  5
29C
330
22
100
AcDbEntity
  8
126
  6
Continuous
 62
     3
100
AcDbLine
 10
30.014973
 20
1.9231932
 30
0.0
 11
30.042348
 21
1.8958182
 31
0.0
  0
LINE
  5
29D
330
22
100
AcDbEntity
  8
126
  6
Continuous
 62
     3
100
AcDbLine
 10
29.856599
 20
2.0705192
 30
0.0
 11
29.900924
 21
2.026193999999998
 31
0.0
  0
LINE
  5
29E
330
22
100
AcDbEntity
  8
126
  6
Continuous
 62
     3
100
AcDbLine
 10
29.923335
 20
2.003782899999999
 30
0.0
 11
29.950835
 21
1.976282899999999
 31
0.0
  0
LINE
  5
29F
330
22
100
AcDbEntity
  8
126
  6
Continuous
 62
     3
100
AcDbLine
 10
30.003925
 20
1.9231932
 30
0.0
 11
30.0313
 21
1.8958182
 31
0.0
  0
LINE
  5
2A0
330
22
100
AcDbEntity
  8
126
  6
Continuous
 62
     3
100
AcDbLine
 10
29.854943
 20
2.061126799999998
 30
0.0
 11
29.899268
 21
2.016801599999999
 31
0.0
  0
LINE
  5
2A1
330
22
100
AcDbEntity
  8
126
  6
Continuous
 62
     3
100
AcDbLine
 10
29.912287
 20
2.003782899999999
 30
0.0
 11
29.939787
 21
1.976282899999999
 31
0.0
  0
LINE
  5
2A2
330
22
100
AcDbEntity
  8
126
  6
Continuous
 62
     3
100
AcDbLine
 10
29.992876
 20
1.9231932
 30
0.0
 11
30.020251
 21
1.8958182
 31
0.0
  0
LINE
  5
2A3
330
22
100
AcDbEntity
  8
126
  6
Continuous
 62
     3
100
AcDbLine
 10
29.853287
 20
2.051734399999999
 30
0.0
 11
29.897612
 21
2.0074092
 31
0.0
  0
LINE
  5
2A4
330
22
100
AcDbEntity
  8
126
  6
Continuous
 62
     3
100
AcDbLine
 10
29.901238
 20
2.003782899999999
 30
0.0
 11
29.928738
 21
1.976282899999999
 31
0.0
  0
LINE
  5
2A5
330
22
100
AcDbEntity
  8
126
  6
Continuous
 62
     3
100
AcDbLine
 10
29.981828
 20
1.9231932
 30
0.0
 11
30.00920300000001
 21
1.8958182
 31
0.0
  0
LINE
  5
2A6
330
22
100
AcDbEntity
  8
126
  6
Continuous
 62
     3
100
AcDbLine
 10
29.85163
 20
2.042341999999999
 30
0.0
 11
29.91769000000001
 21
1.976282899999999
 31
0.0
  0
LINE
  5
2A7
330
22
100
AcDbEntity
  8
126
  6
Continuous
 62
     3
100
AcDbLine
 10
29.970779
 20
1.9231932
 30
0.0
 11
29.998154
 21
1.8958182
 31
0.0
  0
LINE
  5
2A8
330
22
100
AcDbEntity
  8
126
  6
Continuous
 62
     3
100
AcDbLine
 10
29.849974
 20
2.032949599999998
 30
0.0
 11
29.906641
 21
1.976282899999999
 31
0.0
  0
LINE
  5
2A9
330
22
100
AcDbEntity
  8
126
  6
Continuous
 62
     3
100
AcDbLine
 10
29.959731
 20
1.9231932
 30
0.0
 11
29.987106
 21
1.8958182
 31
0.0
  0
LINE
  5
2AA
330
22
100
AcDbEntity
  8
126
  6
Continuous
 62
     3
100
AcDbLine
 10
29.848318
 20
2.023557199999999
 30
0.0
 11
29.895687
 21
1.9761881
 31
0.0
  0
LINE
  5
2AB
330
22
100
AcDbEntity
  8
126
  6
Continuous
 62
     3
100
AcDbLine
 10
29.948682
 20
1.9231932
 30
0.0
 11
29.976057
 21
1.8958182
 31
0.0
  0
LINE
  5
2AC
330
22
100
AcDbEntity
  8
126
  6
Continuous
 62
     3
100
AcDbLine
 10
29.846662
 20
2.0141648
 30
0.0
 11
29.894031
 21
1.966795699999999
 31
0.0
  0
LINE
  5
2AD
330
22
100
AcDbEntity
  8
126
  6
Continuous
 62
     3
100
AcDbLine
 10
29.937634
 20
1.9231932
 30
0.0
 11
29.965009
 21
1.8958182
 31
0.0
  0
LINE
  5
2AE
330
22
100
AcDbEntity
  8
126
  6
Continuous
 62
     3
100
AcDbLine
 10
29.845006
 20
2.004772399999998
 30
0.0
 11
29.892375
 21
1.9574033
 31
0.0
  0
LINE
  5
2AF
330
22
100
AcDbEntity
  8
126
  6
Continuous
 62
     3
100
AcDbLine
 10
29.926585
 20
1.9231932
 30
0.0
 11
29.95396
 21
1.8958182
 31
0.0
  0
LINE
  5
2B0
330
22
100
AcDbEntity
  8
126
  6
Continuous
 62
     3
100
AcDbLine
 10
29.84335
 20
1.995379999999999
 30
0.0
 11
29.890719
 21
1.9480109
 31
0.0
  0
LINE
  5
2B1
330
22
100
AcDbEntity
  8
126
  6
Continuous
 62
     3
100
AcDbLine
 10
29.915537
 20
1.9231932
 30
0.0
 11
29.942912
 21
1.8958182
 31
0.0
  0
LINE
  5
2B2
330
22
100
AcDbEntity
  8
126
  6
Continuous
 62
     3
100
AcDbLine
 10
29.841694
 20
1.985987599999999
 30
0.0
 11
29.889063
 21
1.9386185
 31
0.0
  0
LINE
  5
2B3
330
22
100
AcDbEntity
  8
126
  6
Continuous
 62
     3
100
AcDbLine
 10
29.904488
 20
1.9231932
 30
0.0
 11
29.931863
 21
1.8958182
 31
0.0
  0
LINE
  5
2B4
330
22
100
AcDbEntity
  8
126
  6
Continuous
 62
     3
100
AcDbLine
 10
29.840037
 20
1.9765952
 30
0.0
 11
29.887407
 21
1.9292261
 31
0.0
  0
LINE
  5
2B5
330
22
100
AcDbEntity
  8
126
  6
Continuous
 62
     3
100
AcDbLine
 10
29.893439
 20
1.9231932
 30
0.0
 11
29.920814
 21
1.8958182
 31
0.0
  0
LINE
  5
2B6
330
22
100
AcDbEntity
  8
126
  6
Continuous
 62
     3
100
AcDbLine
 10
29.838381
 20
1.9672028
 30
0.0
 11
29.909766
 21
1.8958182
 31
0.0
  0
LINE
  5
2B7
330
22
100
AcDbEntity
  8
126
  6
Continuous
 62
     3
100
AcDbLine
 10
29.836725
 20
1.9578103
 30
0.0
 11
29.898717
 21
1.8958182
 31
0.0
  0
LINE
  5
2B8
330
22
100
AcDbEntity
  8
126
  6
Continuous
 62
     3
100
AcDbLine
 10
29.835069
 20
1.948417899999999
 30
0.0
 11
29.887669
 21
1.8958182
 31
0.0
  0
LINE
  5
2B9
330
22
100
AcDbEntity
  8
126
  6
Continuous
 62
     3
100
AcDbLine
 10
29.833413
 20
1.939025499999999
 30
0.0
 11
29.87662
 21
1.8958182
 31
0.0
  0
LINE
  5
2BA
330
22
100
AcDbEntity
  8
126
  6
Continuous
 62
     3
100
AcDbLine
 10
29.831757
 20
1.9296331
 30
0.0
 11
29.865572
 21
1.8958182
 31
0.0
  0
LINE
  5
2BB
330
22
100
AcDbEntity
  8
126
  6
Continuous
 62
     3
100
AcDbLine
 10
29.830101
 20
1.920240699999999
 30
0.0
 11
29.854523
 21
1.8958182
 31
0.0
  0
LINE
  5
2BC
330
22
100
AcDbEntity
  8
126
  6
Continuous
 62
     3
100
AcDbLine
 10
29.828445
 20
1.910848299999999
 30
0.0
 11
29.843475
 21
1.8958182
 31
0.0
  0
LINE
  5
2BD
330
22
100
AcDbEntity
  8
126
  6
Continuous
 62
     3
100
AcDbLine
 10
29.826788
 20
1.901455899999999
 30
0.0
 11
29.832426
 21
1.8958182
 31
0.0
  0
INSERT
  5
2BE
330
22
100
AcDbEntity
  8
126
100
AcDbBlockReference
  2
*U0
 10
25.890017
 20
0.5948251
 30
0.0
  0
LINE
  5
2BF
330
22
100
AcDbEntity
  8
1
  6
Continuous
 62
     6
100
AcDbLine
 10
0.2527877
 20
0.0781881
 30
0.0
 11
33.789294
 21
0.0781881
 31
0.0
  0
LINE
  5
2C0
330
22
100
AcDbEntity
  8
1
  6
Continuous
 62
     6
100
AcDbLine
 10
33.789294
 20
0.0781881
 30
0.0
 11
33.789294
 21
21.909058
 31
0.0
  0
LINE
  5
2C1
330
22
100
AcDbEntity
  8
1
  6
Continuous
 62
     6
100
AcDbLine
 10
33.789294
 20
21.909058
 30
0.0
 11
0.2527877
 21
21.909058
 31
0.0
  0
LINE
  5
2C2
330
22
100
AcDbEntity
  8
1
  6
Continuous
 62
     6
100
AcDbLine
 10
0.2527877
 20
21.909058
 30
0.0
 11
0.2527877
 21
0.0781881
 31
0.0
  0
LWPOLYLINE
  5
2D9
330
22
100
AcDbEntity
  8
1
  6
Continuous
 62
     3
100
AcDbPolyline
 90
        2
 70
     0
 43
0.0
 10
14.139288
 20
18.692651
 10
9.2492189
 20
18.692651
  0
LWPOLYLINE
  5
2DC
330
22
100
AcDbEntity
  8
1
  6
Continuous
 62
     1
100
AcDbPolyline
 90
        8
 70
     1
 43
0.0
 10
3.520497499999998
 20
19.652682
 10
3.520497499999999
 20
4.277681599998113
 42
0.4142135623730951
 10
5.020497499998112
 20
2.777681600000001
 10
18.39549800000187
 20
2.7776816
 42
0.414213562373095
 10
19.89549799999999
 20
4.277681599998121
 10
19.89549799999999
 20
19.6526820000055
 42
0.4142135623730949
 10
18.39549800000549
 20
21.15268200000001
 10
5.02049749999811
 20
21.152682
 42
0.4142135623734625
  0
ENDSEC
  0
SECTION
  2
OBJECTS
  0
DICTIONARY
  5
C
330
0
100
AcDbDictionary
281
     1
  3
ACAD_COLOR
350
1B
  3
ACAD_GROUP
350
D
  3
ACAD_LAYOUT
350
19
  3
ACAD_MATERIAL
350
1A
  3
ACAD_MLINESTYLE
350
16
  3
ACAD_PLOTSETTINGS
350
18
  3
ACAD_PLOTSTYLENAME
350
E
  3
ACAD_TABLESTYLE
350
1C
  3
ACDBHEADERROUNDTRIPXREC
350
2E5
  3
AcDbVariableDictionary
350
2CB
  0
DICTIONARY
  5
2DA
330
22
100
AcDbDictionary
280
     1
281
     1
  3
ACAD_SORTENTS
360
2DB
  0
DICTIONARY
  5
1B
102
{ACAD_REACTORS
330
C
102
}
330
C
100
AcDbDictionary
281
     1
  0
DICTIONARY
  5
D
102
{ACAD_REACTORS
330
C
102
}
330
C
100
AcDbDictionary
281
     1
  0
DICTIONARY
  5
19
102
{ACAD_REACTORS
330
C
102
}
330
C
100
AcDbDictionary
281
     1
  3
Layout1
350
21
  3
Model
350
25
  0
DICTIONARY
  5
1A
102
{ACAD_REACTORS
330
C
102
}
330
C
100
AcDbDictionary
281
     1
  0
DICTIONARY
  5
16
102
{ACAD_REACTORS
330
C
102
}
330
C
100
AcDbDictionary
281
     1
  3
Standard
350
17
  0
DICTIONARY
  5
18
102
{ACAD_REACTORS
330
C
102
}
330
C
100
AcDbDictionary
281
     1
  0
ACDBDICTIONARYWDFLT
  5
E
102
{ACAD_REACTORS
330
C
102
}
330
C
100
AcDbDictionary
281
     1
  3
Normal
350
F
100
AcDbDictionaryWithDefault
340
F
  0
DICTIONARY
  5
1C
102
{ACAD_REACTORS
330
C
102
}
330
C
100
AcDbDictionary
281
     1
  3
Standard
350
1D
  0
DICTIONARY
  5
2E5
102
{ACAD_REACTORS
330
C
102
}
330
C
100
AcDbDictionary
281
     1
  0
DICTIONARY
  5
2CB
102
{ACAD_REACTORS
330
C
102
}
330
C
100
AcDbDictionary
281
     1
  3
CTABLESTYLE
350
2CC
  3
DIMASSOC
350
2CD
  3
PROJECTNAME
350
2CE
  0
SORTENTSTABLE
  5
2DB
102
{ACAD_REACTORS
330
2DA
102
}
330
2DA
100
AcDbSortentsTable
330
22
331
1EC
  5
1F5
331
1CA
  5
1D3
331
20E
  5
217
331
176
  5
17F
331
230
  5
239
331
198
  5
1A1
331
2BC
  5
2DD
331
24A
  5
253
331
1BA
  5
1C3
331
2B0
  5
2B9
331
28E
  5
297
331
26C
  5
275
331
1DB
  5
1E4
331
1FD
  5
206
331
21F
  5
228
331
187
  5
190
331
29F
  5
2A8
331
27D
  5
286
331
25B
  5
264
331
1A9
  5
1B2
331
165
  5
16E
331
1C8
  5
1D1
331
1EA
  5
1F3
331
20C
  5
215
331
174
  5
17D
331
22E
  5
237
331
196
  5
19F
331
2BA
  5
2D9
331
248
  5
251
331
1B8
  5
1C1
331
2AE
  5
2B7
331
28C
  5
295
331
26A
  5
273
331
1D9
  5
1E2
331
1FB
  5
204
331
163
  5
16C
331
21D
  5
226
331
185
  5
18E
331
29D
  5
2A6
331
27B
  5
284
331
259
  5
262
331
23F
  5
248
331
1A7
  5
1B0
331
130
  5
130
331
1E8
  5
1F1
331
140
  5
154
331
20A
  5
213
331
172
  5
17B
331
22C
  5
235
331
194
  5
19D
331
2B8
  5
2C1
331
246
  5
24F
331
1B6
  5
1BF
331
2AC
  5
2B5
331
28A
  5
293
331
268
  5
271
331
1D7
  5
1E0
331
1F9
  5
202
331
161
  5
16A
331
21B
  5
224
331
183
  5
18C
331
23D
  5
246
331
1A5
  5
1AE
331
29B
  5
2A4
331
279
  5
282
331
257
  5
260
331
1C7
  5
1D0
331
12E
  5
12E
331
208
  5
211
331
170
  5
179
331
22A
  5
233
331
192
  5
19B
331
2AA
  5
2B3
331
288
  5
291
331
266
  5
26F
331
244
  5
24D
331
1B4
  5
1BD
331
1D5
  5
1DE
331
1F7
  5
200
331
219
  5
222
331
181
  5
18A
331
23B
  5
244
331
1A3
  5
1AC
331
255
  5
25E
331
1C5
  5
1CE
331
299
  5
2A2
331
277
  5
280
331
15F
  5
168
331
1E6
  5
1EF
331
12C
  5
12C
331
228
  5
231
331
190
  5
199
331
2A8
  5
2B1
331
286
  5
28F
331
264
  5
26D
331
242
  5
24B
331
1B2
  5
1BB
331
1D3
  5
1DC
331
1F5
  5
1FE
331
2DC
  5
146
331
217
  5
220
331
17F
  5
188
331
239
  5
242
331
1A1
  5
1AA
331
253
  5
25C
331
1C3
  5
1CC
331
275
  5
27E
331
15D
  5
166
331
297
  5
2A0
331
157
  5
160
331
1E4
  5
1ED
331
206
  5
20F
331
16E
  5
177
331
262
  5
26B
331
240
  5
249
331
1B0
  5
1B9
331
2A6
  5
2AF
331
284
  5
28D
331
1F3
  5
1FC
331
1D1
  5
1DA
331
215
  5
21E
331
17D
  5
186
331
237
  5
240
331
19F
  5
1A8
331
251
  5
25A
331
1C1
  5
1CA
331
2B7
  5
2C0
331
295
  5
29E
331
273
  5
27C
331
15B
  5
164
331
1E2
  5
1EB
331
204
  5
20D
331
16C
  5
175
331
226
  5
22F
331
18E
  5
197
331
260
  5
269
331
2A4
  5
2AD
331
282
  5
28B
331
13A
  5
14E
331
1F1
  5
1FA
331
1CF
  5
1D8
331
213
  5
21C
331
17B
  5
184
331
235
  5
23E
331
19D
  5
1A6
331
24F
  5
258
331
1BF
  5
1C8
331
2C2
  5
2E3
331
271
  5
27A
331
159
  5
162
331
2B5
  5
2BE
331
293
  5
29C
331
153
  5
15C
331
1E0
  5
1E9
331
202
  5
20B
331
224
  5
22D
331
18C
  5
195
331
1AE
  5
1B7
331
16A
  5
173
331
2A2
  5
2AB
331
280
  5
289
331
1EF
  5
1F8
331
1CD
  5
1D6
331
211
  5
21A
331
179
  5
182
331
233
  5
23C
331
19B
  5
1A4
331
2BF
  5
2E0
331
24D
  5
256
331
1BD
  5
1C6
331
2C0
  5
2E1
331
26F
  5
278
331
2B3
  5
2BC
331
291
  5
29A
331
1DE
  5
1E7
331
200
  5
209
331
168
  5
171
331
222
  5
22B
331
18A
  5
193
331
25E
  5
267
331
1AC
  5
1B5
331
2A0
  5
2A9
331
1ED
  5
1F6
331
1CB
  5
1D4
331
20F
  5
218
331
177
  5
180
331
231
  5
23A
331
199
  5
1A2
331
2BD
  5
2DE
331
24B
  5
254
331
1BB
  5
1C4
331
2B1
  5
2BA
331
28F
  5
298
331
26D
  5
276
331
1DC
  5
1E5
331
1FE
  5
207
331
166
  5
16F
331
220
  5
229
331
27E
  5
287
331
25C
  5
265
331
1AA
  5
1B3
331
188
  5
191
331
1EB
  5
1F4
331
1C9
  5
1D2
331
20D
  5
216
331
175
  5
17E
331
22F
  5
238
331
197
  5
1A0
331
2BB
  5
2DC
331
249
  5
252
331
1B9
  5
1C2
331
2AF
  5
2B8
331
28D
  5
296
331
26B
  5
274
331
1DA
  5
1E3
331
1FC
  5
205
331
164
  5
16D
331
21E
  5
227
331
186
  5
18F
331
29E
  5
2A7
331
27C
  5
285
331
25A
  5
263
331
1A8
  5
1B1
331
1E9
  5
1F2
331
141
  5
156
331
20B
  5
214
331
173
  5
17C
331
22D
  5
236
331
195
  5
19E
331
2B9
  5
2C2
331
247
  5
250
331
1B7
  5
1C0
331
2AD
  5
2B6
331
28B
  5
294
331
269
  5
272
331
1D8
  5
1E1
331
1FA
  5
203
331
162
  5
16B
331
21C
  5
225
331
184
  5
18D
331
29C
  5
2A5
331
27A
  5
283
331
258
  5
261
331
23E
  5
247
331
1A6
  5
1AF
331
12F
  5
12F
331
209
  5
212
331
171
  5
17A
331
22B
  5
234
331
193
  5
19C
331
2AB
  5
2B4
331
289
  5
292
331
267
  5
270
331
245
  5
24E
331
1B5
  5
1BE
331
1D6
  5
1DF
331
1F8
  5
201
331
160
  5
169
331
21A
  5
223
331
182
  5
18B
331
23C
  5
245
331
1A4
  5
1AD
331
29A
  5
2A3
331
278
  5
281
331
256
  5
25F
331
1C6
  5
1CF
331
1E7
  5
1F0
331
12D
  5
12D
331
229
  5
232
331
191
  5
19A
331
2A9
  5
2B2
331
287
  5
290
331
265
  5
26E
331
243
  5
24C
331
1B3
  5
1BC
331
1D4
  5
1DD
331
1F6
  5
1FF
331
14E
  5
15A
331
218
  5
221
331
180
  5
189
331
23A
  5
243
331
1A2
  5
1AB
331
254
  5
25D
331
1C4
  5
1CD
331
298
  5
2A1
331
276
  5
27F
331
15E
  5
167
331
1E5
  5
1EE
331
207
  5
210
331
16F
  5
178
331
2A7
  5
2B0
331
285
  5
28E
331
263
  5
26C
331
241
  5
24A
331
1B1
  5
1BA
331
1F4
  5
1FD
331
1D2
  5
1DB
331
216
  5
21F
331
17E
  5
187
331
238
  5
241
331
1A0
  5
1A9
331
252
  5
25B
331
1C2
  5
1CB
331
274
  5
27D
331
15C
  5
165
331
296
  5
29F
331
156
  5
15F
331
1E3
  5
1EC
331
205
  5
20E
331
16D
  5
176
331
227
  5
230
331
18F
  5
198
331
261
  5
26A
331
2A5
  5
2AE
331
283
  5
28C
331
13B
  5
152
331
1D0
  5
1D9
331
2D9
  5
15E
331
1F2
  5
1FB
331
214
  5
21D
331
17C
  5
185
331
236
  5
23F
331
19E
  5
1A7
331
250
  5
259
331
1C0
  5
1C9
331
272
  5
27B
331
15A
  5
163
331
2B6
  5
2BF
331
294
  5
29D
331
1E1
  5
1EA
331
203
  5
20C
331
16B
  5
174
331
225
  5
22E
331
1AF
  5
1B8
331
18D
  5
196
331
154
  5
15D
331
2A3
  5
2AC
331
281
  5
28A
331
139
  5
14A
331
1F0
  5
1F9
331
1CE
  5
1D7
331
212
  5
21B
331
17A
  5
183
331
234
  5
23D
331
19C
  5
1A5
331
24E
  5
257
331
1BE
  5
1C7
331
2C1
  5
2E2
331
270
  5
279
331
158
  5
161
331
2B4
  5
2BD
331
292
  5
29B
331
152
  5
15B
331
1DF
  5
1E8
331
201
  5
20A
331
169
  5
172
331
223
  5
22C
331
18B
  5
194
331
25F
  5
268
331
1AD
  5
1B6
331
2A1
  5
2AA
331
1CC
  5
1D5
331
1EE
  5
1F7
331
210
  5
219
331
178
  5
181
331
232
  5
23B
331
19A
  5
1A3
331
2BE
  5
2DF
331
24C
  5
255
331
1BC
  5
1C5
331
2B2
  5
2BB
331
290
  5
299
331
26E
  5
277
331
1DD
  5
1E6
331
1FF
  5
208
331
167
  5
170
331
221
  5
22A
331
189
  5
192
331
27F
  5
288
331
25D
  5
266
331
1AB
  5
1B4
  0
LAYOUT
  5
21
102
{ACAD_XDICTIONARY
360
2E6
102
}
102
{ACAD_REACTORS
330
19
102
}
330
19
100
AcDbPlotSettings
  1

  2
\\LKFPBV\BV016
  4

  6

 40
0.0
 41
0.0
 42
0.0
 43
0.0
 44
0.0
 45
0.0
 46
0.0
 47
0.0
 48
0.0
 49
0.0
140
0.0
141
0.0
142
1.0
143
1.0
 70
   688
 72
     0
 73
     0
 74
     5
  7

 75
    16
147
1.0
148
0.0
149
0.0
100
AcDbLayout
  1
Layout1
 70
     1
 71
     1
 10
0.0
 20
0.0
 11
12.0
 21
9.0
 12
0.0
 22
0.0
 32
0.0
 14
1.000000000000000E+20
 24
1.000000000000000E+20
 34
1.000000000000000E+20
 15
-1.000000000000000E+20
 25
-1.000000000000000E+20
 35
-1.000000000000000E+20
146
0.0
 13
0.0
 23
0.0
 33
0.0
 16
1.0
 26
0.0
 36
0.0
 17
0.0
 27
1.0
 37
0.0
 76
     0
330
1E
  0
LAYOUT
  5
25
102
{ACAD_XDICTIONARY
360
2E8
102
}
102
{ACAD_REACTORS
330
19
102
}
330
19
100
AcDbPlotSettings
  1

  2
\\LKFPBV\BV016
  4

  6

 40
0.0
 41
0.0
 42
0.0
 43
0.0
 44
0.0
 45
0.0
 46
0.0
 47
0.0
 48
0.0
 49
0.0
140
0.0
141
0.0
142
1.0
143
1.0
 70
  1712
 72
     0
 73
     0
 74
     0
  7

 75
     0
147
1.0
148
0.0
149
0.0
100
AcDbLayout
  1
Model
 70
     1
 71
     0
 10
0.0
 20
0.0
 11
12.0
 21
9.0
 12
0.0
 22
0.0
 32
0.0
 14
0.0
 24
0.0
 34
0.0
 15
0.0
 25
0.0
 35
0.0
146
0.0
 13
0.0
 23
0.0
 33
0.0
 16
1.0
 26
0.0
 36
0.0
 17
0.0
 27
1.0
 37
0.0
 76
     0
330
22
  0
MLINESTYLE
  5
17
102
{ACAD_REACTORS
330
16
102
}
330
16
100
AcDbMlineStyle
  2
STANDARD
 70
     0
  3

 62
   256
 51
90.0
 52
90.0
 71
     2
 49
0.5
 62
   256
  6
BYLAYER
 49
-0.5
 62
   256
  6
BYLAYER
  0
ACDBPLACEHOLDER
  5
F
102
{ACAD_REACTORS
330
E
102
}
330
E
  0
TABLESTYLE
  5
1D
102
{ACAD_REACTORS
330
1C
102
}
330
1C
100
AcDbTableStyle
  3
Standard
 70
     0
 71
     0
 40
0.06
 41
0.06
280
     0
281
     0
  7
STANDARD
140
0.18
170
     2
 62
     0
 63
     7
283
     0
274
    -2
284
     1
 64
     0
275
    -2
285
     1
 65
     0
276
    -2
286
     1
 66
     0
277
    -2
287
     1
 67
     0
278
    -2
288
     1
 68
     0
279
    -2
289
     1
 69
     0
  7
STANDARD
140
0.25
170
     5
 62
     0
 63
     7
283
     0
274
    -2
284
     1
 64
     0
275
    -2
285
     1
 65
     0
276
    -2
286
     1
 66
     0
277
    -2
287
     1
 67
     0
278
    -2
288
     1
 68
     0
279
    -2
289
     1
 69
     0
  7
STANDARD
140
0.18
170
     5
 62
     0
 63
     7
283
     0
274
    -2
284
     1
 64
     0
275
    -2
285
     1
 65
     0
276
    -2
286
     1
 66
     0
277
    -2
287
     1
 67
     0
278
    -2
288
     1
 68
     0
279
    -2
289
     1
 69
     0
  0
DICTIONARYVAR
  5
2CC
102
{ACAD_REACTORS
330
2CB
102
}
330
2CB
100
DictionaryVariables
280
     0
  1
STANDARD
  0
DICTIONARYVAR
  5
2CD
102
{ACAD_REACTORS
330
2CB
102
}
330
2CB
100
DictionaryVariables
280
     0
  1
1
  0
DICTIONARYVAR
  5
2CE
102
{ACAD_REACTORS
330
2CB
102
}
330
2CB
100
DictionaryVariables
280
     0
  1

  0
DICTIONARY
  5
2E6
330
21
100
AcDbDictionary
280
     1
281
     1
  3
ACAD_XREC_ROUNDTRIP
360
2E7
  0
DICTIONARY
  5
2E8
330
25
100
AcDbDictionary
280
     1
281
     1
  3
ACAD_XREC_ROUNDTRIP
360
2E9
  0
XRECORD
  5
2E7
102
{ACAD_REACTORS
330
2E6
102
}
330
2E6
100
AcDbXrecord
280
     1
102
SHADEPLOT
 70
     0
102
SHADEPLOTRESLEVEL
 70
     2
102
SHADEPLOTCUSTOMDPI
 70
   300
  0
XRECORD
  5
2E9
102
{ACAD_REACTORS
330
2E8
102
}
330
2E8
100
AcDbXrecord
280
     1
102
SHADEPLOT
 70
     0
102
SHADEPLOTRESLEVEL
 70
     2
102
SHADEPLOTCUSTOMDPI
 70
   300
  0
ENDSEC
  0
EOF
